#VERSION:0.83;
#TITLE:Narcissus At Oasis;
#SUBTITLE:(Freezer Remix);
#ARTIST:Freezer;
#TITLETRANSLIT:;
#SUBTITLETRANSLIT:;
#ARTISTTRANSLIT:;
#GENRE:;
#ORIGIN:;
#CREDIT:Paperbox440;
#BANNER:Narcissus At Oasis (Freezer Remix).png;
#BACKGROUND:Narcissus At Oasis (Freezer Remix)-bg.png;
#PREVIEWVID:;
#JACKET:Narcissus At Oasis (Freezer Remix)-jacket.png;
#CDIMAGE:;
#DISCIMAGE:;
#LYRICSPATH:;
#CDTITLE:;
#MUSIC:Narcissus At Oasis (Freezer Remix).mp3;
#OFFSET:0.000000;
#SAMPLESTART:26.322582;
#SAMPLELENGTH:20.903225;
#SELECTABLE:YES;
#BPMS:0.000=155.000,
196.000=180.000;
#STOPS:;
#DELAYS:;
#WARPS:;
#TIMESIGNATURES:0.000=4=4;
#TICKCOUNTS:0.000=4;
#COMBOS:0.000=1;
#SPEEDS:0.000=1.000=0.000=0;
#SCROLLS:0.000=1.000;
#FAKES:;
#LABELS:0.000=Song Start;
#BGCHANGES:;
#KEYSOUNDS:;
#ATTACKS:
;

//---------------dance-single - ----------------
#NOTEDATA:;
#CHARTNAME:;
#STEPSTYPE:dance-single;
#DESCRIPTION:;
#CHARTSTYLE:;
#DIFFICULTY:Hard;
#METER:16;
#RADARVALUES:0.759235,0.906286,0.775219,0.287710,0.439557,665.000000,568.000000,97.000000,36.000000,0.000000,0.000000,0.000000,0.000000,0.000000,0.759235,0.906286,0.775219,0.287710,0.439557,665.000000,568.000000,97.000000,36.000000,0.000000,0.000000,0.000000,0.000000,0.000000;
#CREDIT:;
#NOTES:
0000
0000
0000
0000
,
1001
0000
0000
0000
1000
1000
0001
0000
,
1001
0000
0000
0100
0110
0000
0000
0000
,
0001
1100
0000
0001
1001
0000
0000
0000
,
0010
1000
1000
0001
1000
1001
0000
0000
,
0110
0000
0000
1100
0001
0000
0000
0000
,
1001
0000
0000
0100
0110
0000
0000
0000
,
1001
0000
0000
0000
1000
1001
0000
0000
,
0100
0100
0000
0100
1001
0000
0100
0000
,
0001
1000
1001
0000
1100
0000
1010
0000
,
0110
1001
0011
1001
,
0011
0110
1100
1001
,
1001
0011
1001
1100
,
1000
0000
0001
0000
1000
0000
0100
0000
0010
0000
0100
0000
1000
0000
1000
0001
,
1000
0000
0100
0010
0100
0000
1000
0000
0001
0000
0100
0010
0100
0000
0001
0000
,
1000
0001
1000
0001
0000
0100
0000
0001
0000
0010
0100
0000
0000
0100
0010
1000
,
0000
1000
0001
0000
0001
0000
0100
0000
,
2002
0000
0000
0000
3003
0000
0000
0000
1000
0001
1000
0001
0010
0000
0010
0000
,
1000
0000
0000
0100
0010
0000
0001
0000
0001
0000
0100
0010
0100
0000
0001
0000
,
1001
0000
0100
0000
0010
0000
0010
0000
0100
0000
0100
0000
0001
0010
0001
0000
,
1100
1100
1100
1100
1100
0000
0001
0001
,
0000
0000
1001
0000
0000
0000
1000
0001
1000
0000
0020
0230
0320
0030
0000
0000
,
2000
3000
0000
0000
1001
0000
0001
0000
0010
0100
0010
0000
0001
0000
1000
0000
,
1001
0000
0000
0010
0100
0001
0000
0000
0001
0100
0000
0100
0010
0000
0010
0000
,
1000
0000
1000
0000
0001
0010
0001
0000
0000
0010
0200
0000
0000
0000
0000
0000
,
0310
0000
0000
0000
0000
0000
1000
0000
1000
0000
0001
1000
0001
1000
0001
0000
,
0100
0000
0100
0000
0001
0000
0000
0010
0100
0010
1000
0000
1000
0000
0001
0010
,
0002
0000
0003
0000
1000
0000
1000
0000
0100
0010
0100
0010
0100
0010
0100
0010
,
0000
0001
1001
1001
1001
0010
0110
0000
,
0001
0000
0000
0001
0000
0000
1000
0000
0000
0000
1000
0000
0100
0000
0000
0000
0100
0000
0010
0000
0000
0000
0010
0000
,
0001
0000
0001
1000
0001
0100
0100
0010
0000
0010
1000
0000
,
1001
0000
0000
0000
0100
0000
0001
0000
0000
0000
0001
0000
0010
0100
0010
0000
,
1000
0000
1000
0001
0000
0000
0001
0100
0000
0000
0100
0010
0000
0000
0010
0000
,
1000
0001
1000
0000
0220
0000
0000
0330
0000
0000
1000
0000
1000
0000
0001
0010
,
0001
0000
2000
0000
0000
3000
0000
0000
0001
0000
0010
0100
0010
0100
0010
0000
,
0002
0003
0020
0130
0110
0000
1000
1001
,
0001
0000
0100
0000
0001
0010
0001
0000
1000
0000
1000
0000
0000
0010
0100
0010
,
0001
0001
2200
0000
0000
3300
0000
0001
,
0022
0000
0000
0000
0033
0000
0001
0010
,
0001
0000
1000
0000
1001
0000
0000
0010
0100
0001
0000
0001
0000
0100
0010
0000
,
0010
1000
0000
1000
0000
0001
0010
0001
0000
0100
0010
0000
0010
0000
1000
0001
,
1000
0000
2002
0000
3003
0000
0100
0010
,
2200
0000
0000
0000
0000
0000
3300
0000
0100
0010
0100
0010
0000
0000
1000
0000
,
0001
0000
2002
0000
0000
3003
0100
0010
,
0000
0001
2200
3300
0001
1001
0000
0010
,
2002
0000
0000
0000
3003
0000
0001
0001
,
2200
3300
1000
1000
0001
0010
0001
0100
,
0100
0000
0220
0330
0000
0001
1000
1000
,
0002
0000
0000
0000
0100
0100
0000
0003
,
1000
0000
1001
0010
0011
0000
1001
0100
,
1100
0000
1001
0000
0110
1000
1100
0000
,
1001
0100
0110
0000
0011
1000
1001
0000
,
1100
0010
0110
0000
1010
0001
1001
0000
,
1000
1001
0100
0110
0001
0011
1000
1100
,
0010
0000
0011
0000
0100
0000
1100
0000
0001
0000
0001
0000
1000
0001
1000
0000
,
0000
1000
0010
0100
0010
0000
0001
0000
0001
1000
0100
1000
0000
0001
0010
0001
,
0200
0000
0000
0000
,
0310
0000
0000
0000
1000
0001
1000
0000
0010
0000
0010
0000
0100
0000
0001
0010
,
0001
0000
1000
0000
1000
0000
0010
0100
0010
0000
0001
0000
0001
0000
1000
0000
,
1000
0000
0010
0000
0010
0000
0100
0000
0001
0010
0001
0000
0100
0000
0000
0000
,
1000
0001
1000
0000
0010
0100
0010
0000
1000
0000
0000
0000
1001
0000
1001
0000
,
0010
0000
0100
0000
0010
0100
0010
0000
1000
0000
1000
0000
0001
0010
0001
0000
,
0100
0000
0100
0000
0010
0000
0010
0000
1000
0100
1000
0000
0001
0010
0001
0000
,
0100
0000
0010
0000
0010
0000
1000
0100
1000
0000
0001
0000
0001
0000
0010
0000
,
0100
0010
0100
0000
1000
0000
2000
0000
0000
0000
0000
0000
0000
0000
0000
0000
,
3001
0000
0000
0000
0001
0000
0000
0001
0000
0100
0010
0100
0010
0100
0000
0000
,
1001
0000
0000
0000
0100
0000
0001
0000
0001
0000
0010
0100
0010
0000
1000
0000
,
1001
0000
0000
0000
1100
0000
1100
0000
0000
0000
1000
0001
1000
0001
1000
0000
,
0110
0000
0001
0000
0001
0010
0100
0010
0000
1000
0000
1000
0000
0000
0001
0000
,
0010
0000
0000
0001
0000
0000
1000
0000
0000
0000
1000
0000
0100
0000
0000
0000
0100
0000
0010
0000
0000
0000
0010
0000
,
0001
0001
1000
1000
0100
0100
0010
1000
,
1001
0000
0100
0000
0010
0000
0010
0000
1000
0000
1000
0000
0001
0010
0001
0000
,
0100
0000
0100
0000
0010
0000
0010
0000
1000
0000
1000
0000
0001
0010
0001
0000
,
1100
0001
0100
0010
1100
0000
0001
0100
,
0100
0010
1001
0100
0010
0001
1100
0001
,
0010
0001
1100
1000
0001
0010
1000
1000
,
0001
0000
0001
0000
0100
0010
0100
0010
0000
0001
1000
0001
1000
0000
0010
0000
,
0100
0110
0010
1000
0100
1000
0001
0001
,
0010
0000
0001
0000
0100
0000
0100
0000
0010
0000
0010
0000
0001
1000
0100
1000
,
0001
0000
0001
0010
0100
0010
0100
0010
1000
0001
1000
0001
1000
0000
0000
0000
,
1100
1001
0010
0110
0110
1000
2002
0000
,
3003
0000
0000
0000
;

//---------------dance-single - ----------------
#NOTEDATA:;
#CHARTNAME:;
#STEPSTYPE:dance-single;
#DESCRIPTION:;
#CHARTSTYLE:;
#DIFFICULTY:Medium;
#METER:12;
#RADARVALUES:0.566286,0.647347,0.767227,0.215782,0.079919,496.000000,400.000000,96.000000,27.000000,0.000000,0.000000,0.000000,0.000000,0.000000,0.566286,0.647347,0.767227,0.215782,0.079919,496.000000,400.000000,96.000000,27.000000,0.000000,0.000000,0.000000,0.000000,0.000000;
#CREDIT:;
#NOTES:
// measure 0
0000
0000
0000
0000
,  // measure 1
1001
0000
0000
0000
1000
1000
0001
0000
,  // measure 2
1001
0000
0000
0100
0110
0000
0000
0000
,  // measure 3
1001
0000
0000
1000
1001
0000
0000
0000
,  // measure 4
0110
0000
0001
0001
1000
1001
0000
0000
,  // measure 5
0010
0000
0110
0000
,  // measure 6
1001
0000
0000
0100
0110
0000
0000
0000
,  // measure 7
1001
0000
0000
0000
1000
1001
0000
0000
,  // measure 8
0100
0100
0000
0100
1001
0000
0100
0000
,  // measure 9
0001
1000
1001
0000
0001
0000
0101
0000
,  // measure 10
0100
0100
1100
1000
,  // measure 11
1000
1010
0010
0010
,  // measure 12
0110
0100
0100
1100
,  // measure 13
1000
0001
1000
0001
0100
0010
0100
0001
,  // measure 14
0001
1000
0001
0000
0100
0010
0100
0001
,  // measure 15
0001
1000
0001
0100
0010
0100
0001
1000
,  // measure 16
0100
0000
1000
0000
0000
0000
0000
0010
0000
0000
0000
0100
0000
0000
0000
0000
,  // measure 17
2002
0000
3003
0000
1100
0000
0000
0010
,  // measure 18
1000
0000
0010
0010
0001
0001
1000
0000
,  // measure 19
1001
0000
0010
0100
0100
0000
0001
0001
,  // measure 20
1000
1000
1000
1000
1000
0000
0001
1000
,  // measure 21
0000
0110
0000
0000
1100
0000
0001
0000
,  // measure 22
1001
0000
0100
0100
0001
0001
1000
1000
,  // measure 23
0020
0000
0030
0000
0110
0000
1000
1000
,  // measure 24
0001
0100
0000
0020
0000
0000
0000
0000
,  // measure 25
0030
0000
1000
1000
0001
0010
0100
0010
,  // measure 26
0000
0001
0001
1000
0100
0000
0110
0000
,  // measure 27
1001
0000
0000
0000
0000
0000
0001
0000
0001
0000
0000
1000
0001
1000
0001
0000
,  // measure 28
0000
0010
0010
0100
0100
1000
1000
0001
,  // measure 29
0000
1001
0000
0010
0010
1000
1000
0001
,  // measure 30
0002
0000
0003
0000
0010
0100
0000
0000
0110
0000
0000
0000
0001
0000
0000
0000
,  // measure 31
1001
0000
0100
0001
1000
0001
0100
0100
,  // measure 32
0010
0010
0000
0001
1000
0000
1001
0000
,  // measure 33
2200
3300
0010
0100
,  // measure 34
2002
0000
0000
0000
0000
0000
0000
3003
0000
0000
0100
0000
0100
0000
0100
0000
,  // measure 35
0001
0000
1001
1001
0000
0100
0100
0000
,  // measure 36
0110
0000
1000
0001
1000
0001
0001
0000
,  // measure 37
2200
0000
0000
0000
0000
3300
0000
0000
1001
0000
0000
0000
0000
0000
0000
0000
,  // measure 38
0220
0000
0330
1000
1001
0000
0000
0000
,  // measure 39
0110
0000
0001
0001
1000
0100
1000
0001
,  // measure 40
0001
0000
0100
0010
0100
0001
0001
1000
,  // measure 41
2002
0000
0000
0000
3003
0000
0110
0000
0000
0000
0000
0000
,  // measure 42
2200
0000
3300
0001
1001
0000
1000
0000
,  // measure 43
0220
0000
0000
0000
0000
0000
0000
0000
0000
0000
0330
0000
0000
0000
0000
1000
0000
0000
0001
0000
0000
0000
0000
0000
,  // measure 44
2000
0000
0001
0000
3001
0000
0000
1000
,  // measure 45
0002
0000
0000
0000
0003
0000
0010
0100
,  // measure 46
2000
0000
0000
3001
0001
0010
0010
1000
,  // measure 47
0200
0000
0000
0300
0010
0001
0000
0000
,  // measure 48
2002
0000
0000
3003
,  // measure 49
1000
1100
1010
0110
,  // measure 50
0101
0011
1001
1001
,  // measure 51
1100
0110
1010
1001
,  // measure 52
1001
1100
1100
0110
,  // measure 53
1000
0001
1000
0001
0100
0010
0100
1000
,  // measure 54
0100
0000
1000
0000
0001
0000
0010
0000
0001
0000
0100
0000
0000
0100
0001
0000
,  // measure 55
0000
0001
1000
0100
0000
1000
0001
0000
0000
0010
0000
0100
0010
0000
0000
0000
,  // measure 56
1001
0000
0100
0000
0010
0000
0000
0010
0100
0000
0000
0000
,  // measure 57
1100
1001
0000
1000
,  // measure 58
0010
0010
1000
0001
1000
0000
0100
0000
,  // measure 59
0110
0000
1000
0001
0001
0000
1000
1000
,  // measure 60
0010
0100
0010
0100
0001
0010
1001
0000
,  // measure 61
1100
0000
1001
0000
,  // measure 62
1100
0000
0000
0010
0100
0100
0001
0000
,  // measure 63
1001
0000
0000
0000
0110
0110
0000
0001
,  // measure 64
1000
1000
0200
0000
0000
0000
0300
0000
,  // measure 65
0001
0000
1000
0000
1000
0000
0010
0001
0000
0000
0001
0100
0010
0000
0000
0000
,  // measure 66
0100
0100
1001
0000
0000
0000
0000
0000
,  // measure 67
1100
0000
0001
0000
0001
0000
0000
1000
0000
0010
0100
0001
1000
0000
0000
0000
,  // measure 68
1000
1100
0001
1001
0000
1100
0000
0001
,  // measure 69
0110
0000
1000
1000
0001
0001
0100
0100
,  // measure 70
0001
1000
0000
0100
0010
0000
1000
0000
,  // measure 71
1001
0000
0100
0001
0010
0001
1000
0100
,  // measure 72
1000
0001
0001
0000
0100
0010
0100
0000
,  // measure 73
1001
1100
1010
1100
,  // measure 74
1001
0011
0110
1010
,  // measure 75
1100
1001
0011
1001
,  // measure 76
0010
1000
1000
0001
0001
0100
0100
0000
,  // measure 77
1000
1000
0001
0010
1001
0000
0100
0000
,  // measure 78
0110
0001
0001
1000
0001
0100
1000
1000
,  // measure 79
0001
0010
0100
0010
1000
0100
1000
0001
,  // measure 80
0010
0001
1000
0000
1001
0100
0002
0000
,  // measure 81
0003
0000
0000
0000
;

//---------------dance-single - ----------------
#NOTEDATA:;
#CHARTNAME:;
#STEPSTYPE:dance-single;
#DESCRIPTION:;
#CHARTSTYLE:;
#DIFFICULTY:Easy;
#METER:7;
#RADARVALUES:0.432707,0.453143,0.447549,0.023976,0.000000,379.000000,323.000000,56.000000,3.000000,0.000000,0.000000,0.000000,0.000000,0.000000,0.432707,0.453143,0.447549,0.023976,0.000000,379.000000,323.000000,56.000000,3.000000,0.000000,0.000000,0.000000,0.000000,0.000000;
#CREDIT:;
#NOTES:
0000
0000
0000
0000
,
1001
0000
0100
0000
,
0110
0000
0000
1000
1001
0000
0000
0000
,
0010
0000
0000
0100
0010
0000
0000
0000
,
1000
1000
1001
0001
,
0010
0000
0100
0000
,
0001
0000
0000
1000
1000
0000
0000
0000
,
0010
0000
0000
0100
0010
0000
0000
0000
,
1000
1000
1001
0000
,
0110
1001
1000
0001
,
0100
0010
1000
0001
,
1000
0100
0010
0100
,
0010
0001
1000
0001
,
1001
0000
0001
0000
1000
0000
0100
0010
,
0100
0000
0001
0000
0010
0000
0100
1000
,
1000
0100
0010
0001
,
0110
0000
0000
0000
,
1001
0000
0000
0000
1000
0000
0000
0001
,
0100
0000
0100
0010
0000
0001
0000
1000
,
0000
1001
0000
0010
0100
0000
0100
0000
,
1000
0001
1000
0000
0010
0000
0100
0000
,
0110
0000
1001
0000
,
1000
0000
0001
0000
0010
0100
1000
0000
,
1001
0000
0000
0000
0100
0110
0000
0000
,
0001
1000
0001
0000
0200
0000
0000
0000
,
0310
0000
1000
1000
0010
0000
0010
0000
,
0001
0001
1000
0000
0001
1000
0001
0000
,
0110
0000
1000
1000
0010
0000
0010
0000
,
0100
0000
0001
0000
0001
0000
0100
0010
,
1001
1000
1000
0001
,
0001
0000
0100
0010
1000
0001
0100
0000
,
0110
1000
1000
0001
,
1000
0001
1000
0000
1000
0000
0000
0000
,
1001
0010
0100
0010
,
1001
0001
0100
0010
,
0100
0000
1000
0001
1000
0000
0001
1000
,
0001
0010
0100
0100
,
1001
0010
0100
1000
,
0110
1000
1000
0000
,
1001
0010
0100
0010
,
1000
1000
0001
0001
0010
0000
0100
0000
,
1001
0100
0010
0010
,
1100
0000
0010
1000
1000
0000
0010
0000
,
1001
0000
0010
0000
0100
0100
0000
0000
,
1001
0000
0010
0100
0010
0000
1000
0000
,
1001
0100
0100
0010
,
1100
0010
0010
0001
,
1001
0010
0100
0010
,
2000
0000
0000
0000
,
3001
1001
0100
0110
,
0001
1001
1000
0010
,
0100
0110
0001
1001
,
1000
0010
0110
0001
,
1001
0000
1000
0000
0001
0000
1000
0001
,
1000
0000
0100
0000
0100
0000
0010
0100
,
0010
0001
0100
1000
,
1001
0000
0000
0010
0000
1000
0000
0000
,
0110
1000
0001
0000
,
1001
1000
0000
0010
,
0110
0000
0010
0000
,
1000
1000
0001
1001
,
0000
0000
0001
1000
0001
0000
0000
0000
,
0100
0010
0100
0100
,
1001
0010
0100
0000
,
1000
0001
1000
1001
,
0110
0000
1000
0001
1000
0000
1000
0000
,
0001
0001
0000
0000
1000
0000
0000
0000
,
0110
0000
0001
1000
0001
0000
0001
0000
,
0100
0010
0100
0000
0001
0000
1000
0000
,
1001
0110
1000
1000
,
0110
1010
0100
0001
,
1001
1000
0001
0100
,
0010
0000
0100
0001
0001
1000
1000
0000
,
0110
1000
1100
0100
,
0010
0100
1001
1000
,
0001
0010
0100
0110
,
1000
0001
1000
1100
,
0010
0000
0001
0010
0001
0000
1000
0000
,
1000
0000
0010
0100
0010
0000
0001
0000
,
1000
0001
1000
0000
0010
0100
0010
0000
,
0001
0001
1000
1000
0010
0000
0002
0000
,
0003
0000
0000
0000
;
