#TITLE:Mynarco;
#SUBTITLE:(Nagomu 2Step Remix);
#ARTIST:Akizuki Nagomu feat. fu-ko;
#TITLETRANSLIT:;
#SUBTITLETRANSLIT:;
#ARTISTTRANSLIT:;
#GENRE:;
#CREDIT:PaperBox440;
#BANNER:Mynarco (Nagomu 2Step Remix).png;
#BACKGROUND:Mynarco (Nagomu 2Step Remix)-bg.png;
#LYRICSPATH:;
#CDTITLE:;
#MUSIC:Mynarco (Nagomu 2Step Remix).mp3;
#OFFSET:0.000000;
#SAMPLESTART:32.347828;
#SAMPLELENGTH:16.956520;
#SELECTABLE:YES;
#BPMS:0.000000=230.000000
;
#STOPS:
;
#BGCHANGES:;
#KEYSOUNDS:;
#ATTACKS:;

//---------------dance-single - ----------------
#NOTES:
     dance-single:
     :
     Hard:
     15:
     0.757731,0.797460,0.502678,0.104002,0.316341,612.000000,554.000000,58.000000,12.000000,0.000000,0.000000,0.757731,0.797460,0.502678,0.104002,0.316341,612.000000,554.000000,58.000000,12.000000,0.000000,0.000000:
// measure 0
0000
0000
0000
0000
,  // measure 1
0000
1001
0000
1100
,  // measure 2
0000
0001
1001
0000
,  // measure 3
1000
0000
1100
0000
0000
0100
0010
0000
,  // measure 4
1010
0000
0100
0000
0010
0100
0010
0001
,  // measure 5
1100
0000
0010
0001
1000
0000
1000
0000
,  // measure 6
0110
0000
0000
0001
0100
0000
0100
0010
,  // measure 7
1000
0000
1001
0000
0000
0010
1000
0000
,  // measure 8
1000
0001
0100
0000
0100
0000
0010
0001
,  // measure 9
1100
0000
0001
0000
0011
0000
0000
0100
,  // measure 10
0000
0010
0000
0010
0000
0100
0000
1000
,  // measure 11
0000
1001
0010
1000
,  // measure 12
1000
0000
0010
0100
0010
0000
0100
0100
,  // measure 13
0001
0000
0001
0000
1000
0100
1000
0000
,  // measure 14
0000
0010
0100
0001
0000
0001
1000
0000
,  // measure 15
1000
0000
0000
0010
0100
0000
0100
0001
,  // measure 16
0010
0001
1000
0000
1000
0010
0100
0010
,  // measure 17
0000
0000
1001
0000
1100
0000
0010
0100
,  // measure 18
0010
0000
0001
1000
0001
0000
0010
0100
,  // measure 19
0000
0100
0001
0010
0001
1000
0000
1000
,  // measure 20
0000
0000
0110
0000
1001
0000
0100
0010
,  // measure 21
0000
0001
0100
0000
0100
0001
0000
1000
,  // measure 22
0000
0100
0000
0000
0010
0000
0000
0001
0000
0000
0100
0000
,  // measure 23
0000
1000
0000
0000
1001
0000
0001
0001
,  // measure 24
0100
0010
0100
0000
0001
1000
0000
0000
,  // measure 25
1100
0000
0000
1010
0000
0000
0001
1000
,  // measure 26
0000
0002
0000
0000
0000
2000
0003
0000
,  // measure 27
3000
0001
0001
0000
0010
0100
0010
1000
,  // measure 28
1000
0001
0010
0001
0000
1000
1000
0000
,  // measure 29
0010
0100
0010
0000
0001
0000
0001
0010
,  // measure 30
0100
0000
0010
0000
0000
0000
0110
0000
1000
0000
0000
0000
0001
0010
0100
0000
,  // measure 31
1000
0000
1000
0000
0010
1000
0010
0000
,  // measure 32
0010
1000
0000
0002
0000
0000
0003
0000
,  // measure 33
0010
0000
0110
0000
0001
1000
0010
0010
,  // measure 34
0100
0001
2000
0000
0000
0000
0000
0000
,  // measure 35
3000
0002
0000
0000
0000
0003
0010
0100
,  // measure 36
0000
0100
0010
1000
1000
0000
0001
0100
,  // measure 37
0000
1000
0010
0010
0100
0001
0000
0001
,  // measure 38
1000
0110
0000
0010
0001
1100
0000
0100
,  // measure 39
0001
0010
0001
0000
1001
0000
0010
0100
,  // measure 40
0000
0010
0100
0001
0000
0001
1000
1000
,  // measure 41
0010
0010
0100
0001
0000
0001
1100
0000
,  // measure 42
0010
0000
1001
0000
0010
0010
1100
0000
,  // measure 43
0010
0010
0000
1100
0000
0001
0000
0100
,  // measure 44
0001
0010
0001
1000
0000
0000
1000
0010
,  // measure 45
0000
0010
0100
0001
0000
0001
1000
0100
,  // measure 46
1000
0010
0100
1001
0000
0001
0001
0000
,  // measure 47
0100
0010
0100
0000
0000
1000
0000
0010
,  // measure 48
0000
0100
0000
0010
0000
1001
0000
1000
,  // measure 49
0000
0010
0010
0000
0001
0000
1000
1000
,  // measure 50
0000
0000
0000
0000
1001
0000
0000
1000
0000
0000
1100
0000
0000
0100
0000
0000
,  // measure 51
0110
0000
0000
0000
0000
0000
0001
0000
0000
0000
1000
0000
0001
0000
0000
0000
0000
0000
0010
0000
0000
0100
0000
0000
,  // measure 52
1000
0000
0000
0000
1001
0000
0000
0000
1000
0000
0000
0001
0000
1000
0000
0000
,  // measure 53
0000
0100
0000
0000
0100
0000
0000
0000
0010
0000
0000
0010
0000
0000
0000
0000
,  // measure 54
1000
0000
0000
1000
0000
0000
0001
0000
0000
1000
0000
0000
0000
0000
0000
0000
,  // measure 55
0001
0000
0000
0001
0010
0000
0100
0000
0000
0100
0000
0000
1001
0000
0000
0000
,  // measure 56
0010
0000
0000
0000
1100
0000
0000
0000
0001
0000
0000
0001
0000
0000
0010
0000
,  // measure 57
0100
0000
0010
0000
0000
0000
1000
0000
0000
1000
0000
0000
0001
0000
1001
0000
,  // measure 58
0000
0000
0100
0000
0000
0100
0000
0000
0010
0000
0000
1001
0000
0000
0100
0000
,  // measure 59
0000
0100
0010
0000
0000
0100
0000
0000
0001
0000
0000
0001
0000
0000
1000
0000
,  // measure 60
1000
0000
0000
0000
1001
0000
0000
0000
0010
0000
0000
0010
0100
0000
0000
0100
,  // measure 61
0000
0000
1001
0000
0000
0000
0000
1000
0000
0000
1000
0000
0000
0000
1001
0000
,  // measure 62
0000
0000
0010
0000
0000
0010
0100
0000
0000
0000
0110
0000
0000
0000
1000
0000
,  // measure 63
0000
1000
0001
0000
0000
0000
1001
0000
0000
0000
0100
0010
0100
0000
0000
0000
,  // measure 64
0000
0000
1001
0000
0000
0000
0000
0001
0000
0000
0001
1000
0000
0000
1000
0000
,  // measure 65
0000
1001
0000
0010
0100
0010
0000
1000
,  // measure 66
0000
1000
0001
0000
0000
0001
0000
0100
0010
0000
0100
0000
0001
0000
0000
0001
,  // measure 67
1000
0000
0000
0000
0000
0000
0000
0000
0000
1000
0000
0000
0010
0000
0000
0000
0000
0000
0000
0000
0000
0010
0000
0000
0000
0000
0000
0100
0000
0000
0000
0000
0000
0000
0000
0000
0200
0000
0000
0000
0000
0000
0000
0000
0300
0000
0000
0000
,  // measure 68
0000
1000
0001
2002
0000
3003
0000
0010
,  // measure 69
0100
0220
0000
0330
0000
0000
1000
0010
,  // measure 70
0000
0100
0001
0000
1000
0010
0000
1001
,  // measure 71
0000
0000
0000
0000
,  // measure 72
0000
2000
0000
0000
,  // measure 73
0000
0000
3001
0000
,  // measure 74
0000
0000
0000
0000
,  // measure 75
0000
0000
0010
0000
0000
0100
0010
0100
,  // measure 76
0000
0000
1000
0000
1000
0000
0001
1000
0001
0000
0100
0000
0100
0000
0000
0000
,  // measure 77
0010
0000
1000
0000
1000
0000
0001
0000
0000
0001
0000
0000
0010
0100
0000
0000
,  // measure 78
1001
0000
0000
0100
0000
0000
0100
0000
0010
0000
1000
0000
0000
1000
0001
0000
,  // measure 79
0000
0000
1001
0000
0000
0000
1000
0000
0000
1000
0010
0000
0000
0010
0000
0000
,  // measure 80
0100
0001
0000
0000
0001
0000
1000
0000
0100
0000
1000
0000
0001
0000
0010
0000
,  // measure 81
0000
0010
0000
0000
0001
0100
0000
0000
0100
0000
0000
0010
0001
0000
0100
0000
,  // measure 82
1000
0000
0010
0000
0100
0000
0100
0001
0000
0000
1000
0000
,  // measure 83
0010
0000
0000
0000
0100
0000
0000
0000
0000
0000
0000
0000
0000
0000
0000
0000
0000
0000
1001
0000
0000
0000
0000
0000
0000
0000
0000
0000
0000
0000
1000
0000
0000
0000
0000
0000
0000
0000
0000
1000
0000
0000
0010
0000
0000
0000
0000
0000
,  // measure 84
0000
0010
0100
0000
0100
0000
0000
0000
0001
0000
0000
0000
0001
0000
1000
0000
,  // measure 85
0100
0000
1000
0000
0010
0000
0000
0000
0010
0000
0100
0000
0000
0000
0000
1000
,  // measure 86
0000
0000
1000
0000
0001
0010
0001
0000
0000
0100
0000
0000
0100
0000
0000
0010
,  // measure 87
0000
0000
0010
0000
1000
0000
0100
0000
1000
0000
0001
0000
0000
0000
0001
0100
,  // measure 88
0000
0000
0100
0000
0000
0010
0000
0000
0010
0000
0000
0000
1000
0000
0100
0000
,  // measure 89
1000
0000
0001
0000
0000
0000
0001
0000
0100
0000
0100
0010
0000
0000
0010
0000
,  // measure 90
0001
1000
0000
0000
1000
0000
0010
0000
0000
0010
0100
0000
0000
0100
0000
0001
,  // measure 91
0000
0000
0001
1000
0100
0000
1000
0000
0010
0000
0000
0100
0000
0000
0110
0000
,  // measure 92
0000
1000
1000
0010
0001
0000
1001
0000
,  // measure 93
1100
0000
0000
1001
0000
0001
1000
0001
,  // measure 94
0000
1100
0000
0001
0100
0100
0010
0000
,  // measure 95
0010
1000
0100
1000
0001
0000
0001
0100
,  // measure 96
0010
0000
0010
1000
0100
1000
0001
0001
,  // measure 97
0100
1000
0000
0010
0100
0000
1000
0010
,  // measure 98
0000
0010
0100
0001
0000
0001
1000
0100
,  // measure 99
1000
0001
0100
0100
0010
0000
0010
0000
,  // measure 100
1000
0001
1000
0001
1000
0000
1001
0000
,  // measure 101
0100
0000
0100
0000
0001
0010
1000
0000
,  // measure 102
1100
0000
0001
0000
1001
0000
0010
0001
,  // measure 103
0000
0100
0010
0000
0010
1000
0100
1000
,  // measure 104
0001
0000
0001
0000
0100
0010
0100
0001
,  // measure 105
0000
0001
1000
0100
1000
0010
0010
0000
,  // measure 106
1000
0000
0000
0001
0000
0000
1000
0000
0000
0001
0000
0000
1000
0000
0000
0000
0000
0000
0001
0000
0000
0000
0001
0000
,  // measure 107
0010
0100
0000
0000
1000
0100
0020
0000
0000
0000
0000
0000
,  // measure 108
0000
0030
0000
0000
;
