#VERSION:0.83;
#TITLE:Mother Ship;
#SUBTITLE:(C-YA MIX);
#ARTIST:C-YA;
#TITLETRANSLIT:;
#SUBTITLETRANSLIT:;
#ARTISTTRANSLIT:;
#GENRE:;
#ORIGIN:;
#CREDIT:PaperBox440;
#BANNER:Mother Ship (C-YA MIX).png;
#BACKGROUND:Mother Ship (C-YA MIX)-bg.png;
#PREVIEWVID:;
#JACKET:Mother Ship (C-YA MIX)-jacket.png;
#CDIMAGE:;
#DISCIMAGE:;
#LYRICSPATH:;
#CDTITLE:;
#MUSIC:Mother Ship (C-YA MIX).mp3;
#OFFSET:0.000000;
#SAMPLESTART:23.000000;
#SAMPLELENGTH:10.333332;
#SELECTABLE:YES;
#BPMS:0.000=180.000;
#STOPS:;
#DELAYS:;
#WARPS:;
#TIMESIGNATURES:0.000=4=4;
#TICKCOUNTS:0.000=4;
#COMBOS:0.000=1;
#SPEEDS:0.000=1.000=0.000=0;
#SCROLLS:0.000=1.000;
#FAKES:;
#LABELS:0.000=Song Start;
#BGCHANGES:;
#KEYSOUNDS:;
#ATTACKS:
;

//---------------dance-single - ----------------
#NOTEDATA:;
#CHARTNAME:;
#STEPSTYPE:dance-single;
#DESCRIPTION:;
#CHARTSTYLE:;
#DIFFICULTY:Hard;
#METER:17;
#RADARVALUES:0.775518,0.893933,0.525643,0.072503,0.534706,599.000000,541.000000,58.000000,8.000000,0.000000,0.000000,0.000000,0.000000,0.000000,0.775518,0.893933,0.525643,0.072503,0.534706,599.000000,541.000000,58.000000,8.000000,0.000000,0.000000,0.000000,0.000000,0.000000;
#CREDIT:;
#NOTES:
// measure 0
0000
0000
0000
0000
,  // measure 1
1001
0000
0000
0000
,  // measure 2
0000
0000
0000
0000
,  // measure 3
0000
0000
0000
0000
0000
0000
0001
1000
,  // measure 4
0001
0000
0100
0000
0010
0000
0100
0000
1000
0001
1000
0000
0001
0000
0010
0000
,  // measure 5
0001
1000
0001
0000
1001
0000
0010
0001
,  // measure 6
1100
0000
0000
0000
1000
0100
0001
0000
0010
0000
0001
0000
1000
0000
0000
0000
,  // measure 7
0100
0001
0010
0000
0100
0000
1001
0000
0000
0000
0001
0000
0100
0000
1000
0000
,  // measure 8
0000
0000
0010
0000
0100
1000
0100
0000
0001
0000
0010
0000
0001
0000
0000
0000
,  // measure 9
1001
0000
0000
0000
0100
0000
0001
0000
0001
0010
0001
0000
1000
0000
0000
0000
,  // measure 10
0100
0000
0010
0000
0100
0000
0001
0000
0001
0000
1100
0000
0010
0000
0100
1000
,  // measure 11
0100
0001
0010
0001
1100
0000
1000
0010
,  // measure 12
0100
0100
0001
0010
0001
1000
1000
0000
,  // measure 13
0110
0000
0000
0000
0010
1000
0100
0000
0001
0000
0001
0000
1000
0000
0000
0000
,  // measure 14
1100
0000
0000
0000
0010
0000
0001
0000
0001
0000
1000
0000
0000
0100
1000
0000
,  // measure 15
0011
0000
0100
1000
1100
0001
0001
0000
,  // measure 16
2002
0000
0000
0000
0000
0003
3000
0000
,  // measure 17
0110
0000
0000
0000
1000
0000
1000
0000
0001
0000
0001
0000
0000
0000
0100
0010
,  // measure 18
0100
0000
0010
0001
1000
1000
0100
0001
,  // measure 19
0010
0000
0001
0000
1000
0000
1000
0000
0010
0100
0010
0000
0001
1000
0001
1000
,  // measure 20
0001
0010
0100
0100
0010
1001
0011
1000
,  // measure 21
0100
0000
1000
0000
0001
0000
0010
0000
0100
0000
0100
0000
1000
0001
1000
0000
,  // measure 22
0100
0010
0001
0000
0001
0100
0010
0010
,  // measure 23
1000
0000
0100
0000
1000
0000
0001
0000
0001
0000
0100
0010
0100
0010
0100
0000
,  // measure 24
0000
1000
1000
0100
0002
0010
0100
0000
,  // measure 25
0003
0000
1000
0000
1000
0000
0100
0010
0100
0000
0001
0010
0001
0000
1000
0000
,  // measure 26
1000
0100
0010
0000
0010
0001
0000
0000
0001
1000
0100
1000
0010
0000
0010
0100
,  // measure 27
0000
0100
0001
0000
0001
1000
0100
1000
0010
0000
0000
0010
0100
0000
0000
0100
,  // measure 28
0001
0010
0001
1000
0000
1000
0010
0000
0100
0000
0001
0000
1000
0000
0001
0000
,  // measure 29
1001
0000
1000
0010
0100
0010
0001
0001
1000
0100
1000
0000
0010
0000
0010
0000
,  // measure 30
1100
0000
0001
0000
0001
1000
0100
1000
0010
0000
0010
0100
0000
0000
1000
0000
,  // measure 31
1001
0000
0010
0100
0110
0001
0001
1000
,  // measure 32
1100
1010
0110
0101
,  // measure 33
1001
2000
0000
0000
,  // measure 34
0001
0010
0000
0010
0000
0000
0100
0000
0000
0000
0000
0000
0000
0000
0000
0000
,  // measure 35
0000
0000
0000
0000
0000
0000
0000
3000
,  // measure 36
0001
0000
0000
0010
0000
0000
0100
0000
0000
0010
0000
0000
1000
0000
0000
0000
0000
0000
0000
0000
0000
0000
0000
0000
1001
0000
0000
0000
0000
0000
0000
0000
0100
0000
0000
0000
0100
0000
0000
0000
0001
0000
0000
0000
0010
0000
0000
0000
,  // measure 37
0001
1000
0000
1000
0000
0010
0100
0000
0100
0001
0000
0001
,  // measure 38
1000
0000
1000
0010
0100
0001
0000
0001
1000
0100
1000
0010
,  // measure 39
0010
0100
0000
0100
0001
0010
0001
1000
0000
1000
0000
0000
,  // measure 40
0110
1000
1100
0000
1001
1000
1001
0000
,  // measure 41
0110
0000
0000
0000
1000
0000
0001
0010
0001
0000
0100
0000
0100
0000
1000
0000
,  // measure 42
0001
0000
0001
0000
0100
0000
0010
0000
0010
0000
0100
1000
0000
0000
0001
0010
,  // measure 43
0100
0010
0000
0000
1100
0000
1100
0000
0001
0000
0010
0000
1001
0000
0000
0100
,  // measure 44
0000
0000
0110
0000
0110
0000
0000
0000
0010
0000
0010
0000
1000
0001
1000
0001
,  // measure 45
1000
0000
1100
1100
0010
0110
0000
0001
,  // measure 46
0000
0000
1000
0001
1000
0001
1000
0000
0100
0000
0010
0100
0010
0000
0000
0000
,  // measure 47
1100
1100
0000
1001
1001
0000
0110
0000
,  // measure 48
0001
0010
0100
0001
0010
0100
1000
0000
0000
0010
0000
0000
0010
1000
0000
0000
,  // measure 49
1001
0002
0000
0000
,  // measure 50
0000
0000
0000
0000
0003
0000
0010
0100
0010
0100
0000
1000
0000
1000
0010
0000
,  // measure 51
1001
0000
0000
0000
0010
0000
0100
1000
0100
0000
0001
0000
0010
0000
0001
0000
,  // measure 52
1000
0100
0000
0100
1000
0000
0001
0000
0010
0000
0100
0000
0100
0000
0010
0000
,  // measure 53
1001
0000
0000
0000
1000
0000
0010
0000
0100
1000
0100
0000
0001
0000
0010
0000
,  // measure 54
0001
0000
1000
0100
0000
0000
1000
0000
0010
0000
0100
0010
0100
0000
0001
0000
,  // measure 55
0010
0000
0001
0000
1000
0001
1000
0000
0100
0000
0010
0000
0100
0000
0001
0000
,  // measure 56
0001
0000
1000
0000
1000
0000
0010
0100
0000
0100
0010
0000
1000
0000
0100
0000
,  // measure 57
1000
0000
0001
0010
0000
0000
0001
0000
0010
0000
0100
0000
0010
0000
1000
0100
,  // measure 58
1000
0000
0001
0010
0001
0000
0000
0000
2000
0000
0000
0000
3000
0000
0000
0000
,  // measure 59
1001
0000
0010
0001
0100
0000
0100
0010
,  // measure 60
0010
1000
0100
1000
0001
0001
1000
1000
,  // measure 61
0010
0100
0110
0000
1001
0000
0010
1000
,  // measure 62
0100
0000
0010
0000
0100
0000
0001
1000
0001
0000
0010
0000
0001
0000
1000
0100
,  // measure 63
1000
0000
0010
0100
0110
0001
1000
1000
,  // measure 64
2001
0000
0001
0100
0100
0000
0010
0000
,  // measure 65
0010
0001
0001
0000
0100
0000
0100
0000
,  // measure 66
0010
0001
0000
0001
0000
0010
0010
0000
,  // measure 67
3001
0000
0000
1000
0000
1000
0100
0000
0100
0001
0000
0001
,  // measure 68
0010
0100
0010
0000
1000
0001
1000
0000
0000
0000
1000
0000
1000
0000
1000
0000
,  // measure 69
0000
0001
0000
0001
0000
0001
0000
0100
0010
0000
1000
1000
0001
0000
0001
0000
,  // measure 70
0000
0010
0100
0010
1000
0000
1000
0000
0000
0010
0100
0000
1000
0000
0000
0000
,  // measure 71
0110
0000
0001
0000
0001
0000
0001
0000
1100
0000
0000
0100
0010
0001
0000
0000
,  // measure 72
0110
0000
0000
0000
0001
0010
0100
0010
0000
0001
0001
1000
0000
1000
0000
0000
,  // measure 73
0110
0000
1000
0000
0000
0010
0100
0000
0110
0000
0001
0000
0001
0000
1000
0000
,  // measure 74
1001
0000
0000
0010
1000
0000
1000
0000
0100
0010
0000
0100
0100
0001
0010
0000
,  // measure 75
1001
0000
0000
0000
0000
0000
0000
0000
0001
0010
0100
0000
2000
0000
3000
0000
;
