#VERSION:0.83;
#TITLE:Metamorphic;
#SUBTITLE:;
#ARTIST:BEMANI Sound Team "Sota Fujimori";
#TITLETRANSLIT:;
#SUBTITLETRANSLIT:;
#ARTISTTRANSLIT:;
#GENRE:;
#ORIGIN:;
#CREDIT:PaperBox440;
#BANNER:Metamorphic.png;
#BACKGROUND:Metamorphic-bg.png;
#PREVIEWVID:;
#JACKET:Metamorphic-jacket.png;
#CDIMAGE:;
#DISCIMAGE:;
#LYRICSPATH:;
#CDTITLE:;
#MUSIC:Metamorphic.mp3;
#OFFSET:0.000000;
#SAMPLESTART:12.300000;
#SAMPLELENGTH:10.500001;
#SELECTABLE:YES;
#BPMS:0.000=200.000;
#STOPS:;
#DELAYS:;
#WARPS:;
#TIMESIGNATURES:0.000=4=4;
#TICKCOUNTS:0.000=4;
#COMBOS:0.000=1;
#SPEEDS:0.000=1.000=0.000=0;
#SCROLLS:0.000=1.000;
#FAKES:;
#LABELS:0.000=Song Start;
#BGCHANGES:;
#KEYSOUNDS:;
#ATTACKS:
;

//---------------dance-single - ----------------
#NOTEDATA:;
#CHARTNAME:;
#STEPSTYPE:dance-single;
#DESCRIPTION:;
#CHARTSTYLE:;
#DIFFICULTY:Hard;
#METER:15;
#RADARVALUES:0.796218,0.853446,0.521500,0.089633,0.619281,684.000000,620.000000,64.000000,11.000000,0.000000,0.000000,0.000000,0.000000,0.000000,0.796218,0.853446,0.521500,0.089633,0.619281,684.000000,620.000000,64.000000,11.000000,0.000000,0.000000,0.000000,0.000000,0.000000;
#CREDIT:;
#NOTES:
0000
0000
0000
0000
,
0000
0000
0000
0000
,
0000
0000
0001
0010
0100
0010
0100
0010
,
1000
0001
1000
0010
0100
0100
0001
0010
,
0010
1000
1000
0100
0010
0100
0001
0010
,
0100
0001
0001
0000
1000
0001
1000
0000
,
0001
0001
1000
0100
0010
0010
0001
1000
,
1000
0000
0100
0010
0100
0001
0001
0000
,
1000
0001
1000
0001
0000
1100
0000
1010
,
0000
0110
1000
1000
0100
0010
0100
0001
,
0001
0000
0000
0000
1001
0000
0000
0000
1000
0100
0000
0000
0001
0000
0000
0000
,
0010
0100
0010
0000
0000
1001
0000
0000
1000
0000
0000
0000
0010
0100
0000
0000
,
0100
0000
0001
0010
0001
0000
1000
0000
0000
0000
1000
0000
0001
0100
0000
0000
,
0100
0010
0000
0000
0010
0000
1000
0100
1000
0000
0001
0000
0001
0000
1000
0000
,
1000
0000
0010
0100
0010
0100
1000
0000
,
1000
0001
0010
0000
0001
0100
0000
0000
0100
0010
0000
0000
0010
0000
1000
0100
,
1000
0000
0001
0000
0001
0000
0000
0000
0100
0010
0000
0000
0001
0000
1000
0100
,
0000
0000
0000
0001
0000
1000
0000
0000
1000
0000
0001
0010
0001
0000
0000
0000
,
0110
0000
0000
0000
1000
0001
0000
0001
0000
0000
0100
0010
0100
0000
0000
0010
,
0000
0000
0010
0000
1000
0000
0100
0000
1000
0001
0000
0000
0001
0000
0000
0000
,
0100
0010
0100
0000
0000
0000
0001
0000
0100
0000
0100
0000
0001
0000
1000
0000
,
0001
0000
0000
0000
1100
0000
0000
0000
0001
0000
0000
0000
0001
0100
0000
0000
,
0100
0010
0000
0000
0010
0000
1000
0100
1000
0001
0000
0000
0001
0000
0100
0010
,
0100
0000
0000
1000
0001
0000
0000
0000
0100
0010
0000
0000
0001
0000
0000
0001
,
0000
0010
0100
0000
0000
1000
0000
1000
0000
0000
0000
0000
1001
0000
0000
0010
,
0100
0000
0000
0000
0110
0000
0000
0001
0000
0000
0001
0000
1000
0100
1000
0000
,
0002
0003
1100
1010
,
0001
0000
0001
0100
0010
0100
0000
0000
1000
0000
0000
1000
0001
0000
0000
0001
,
0000
1000
0000
0000
1000
0000
0100
0000
0010
0100
0000
0000
0110
0000
0000
0000
,
0001
1000
0000
0000
1000
0000
0001
0000
0010
0000
0001
0000
1100
0000
0000
0010
,
0000
0100
0000
0010
0100
0001
0000
0000
0001
0000
0100
1000
0000
0100
1000
0000
,
0001
0000
0010
0000
0000
0010
0001
0000
1100
0000
0000
0000
1010
0000
0000
0000
,
0110
0000
0000
0000
0001
0000
0001
1000
0100
1000
0000
0000
0000
0010
0100
0000
,
0000
0000
0001
0000
0000
0001
0000
0000
0010
0000
2000
0000
0000
0000
0000
0000
,
0000
3000
1001
1100
,
0001
0000
0000
0001
0010
0000
0100
0000
0010
0000
1000
0000
0000
1000
0001
0000
,
0000
0001
0100
0010
0100
0000
0000
0000
0110
0000
0000
0000
1010
0000
0000
0000
,
0100
0000
1000
0001
1000
0000
0000
0000
0011
0000
0000
0000
1010
0000
0000
0000
,
0100
0000
0000
1000
0000
1000
0001
0000
0001
0100
0000
0000
0100
0010
0000
0000
,
0010
0000
1000
0100
1000
0001
0000
0000
0001
0000
0000
0100
0010
0000
0000
0000
,
0110
0000
0010
0100
0001
0001
1000
0000
,
1000
0000
0000
0000
2200
0000
0000
3300
0000
0000
0001
0000
0002
0000
0000
0000
,
0003
0000
0000
0000
1000
0000
0000
1000
0001
0000
0010
0001
0000
0100
0000
0000
,
0100
0010
0000
0000
0010
0000
1000
0000
0001
1000
0000
0000
1001
0000
0000
0000
,
0010
0000
0100
0010
0000
1000
0000
0000
1010
0000
0000
0000
0110
0000
0000
0000
,
0001
0010
0001
0000
1000
0000
1000
0000
0000
0100
0000
0010
0100
0001
0000
0000
,
0001
1000
0000
0000
1000
0000
0000
0000
1001
0000
0000
0000
0100
0000
0000
0010
,
0100
0010
1000
0000
0000
1000
0001
0000
0000
0001
0000
0000
0110
0000
0000
0000
,
0000
1000
0000
0000
0000
1000
0000
0001
0010
0001
0000
0100
0000
0000
0100
0000
,
0010
0000
0010
0000
1000
0100
1000
0000
0001
0010
0000
0000
0010
0001
0000
0000
,
2200
3300
1010
1100
,
0110
1001
1100
1010
,
1000
0000
1000
0000
0001
0000
0001
0000
1000
0000
0100
0000
0001
0000
0000
0001
,
1000
0000
0000
1000
0000
0000
0100
0010
0100
0001
0000
0000
0001
1000
0000
0000
,
1000
0000
0110
0000
1010
0000
0100
0100
,
0001
0010
0001
1000
1000
0001
0000
0001
,
0100
0010
0100
0001
0001
1000
0000
1001
,
0000
0000
0100
0000
0001
0000
0000
0000
0001
0000
1000
0000
0000
0000
0000
0010
,
0100
0010
0001
0000
0000
0000
0100
0000
0010
0000
0100
0000
0001
0000
0000
0000
,
0001
1000
0100
1000
0001
0010
0010
0100
,
0000
0100
1000
0001
1000
0000
0110
0000
,
0001
0000
0001
0000
1000
0000
0000
0000
1001
0000
0000
0000
0100
0000
0000
0100
,
0010
0000
0001
1000
0100
1000
0000
0010
0000
0000
0010
0100
0000
0000
0100
0001
,
0000
0000
0001
0000
0100
0000
0000
0010
0000
0000
0010
0100
0000
0000
0110
0000
,
0001
0000
1000
0000
0000
1000
0100
0000
0001
0000
0001
0000
1000
0100
1000
0000
,
0010
0000
0000
0010
0000
0001
0000
0000
0001
0000
0010
0000
0000
0000
1100
0000
,
1100
0000
0001
0001
0010
0001
0100
0010
,
0010
1000
0100
1000
0000
0001
0001
0010
,
0100
1001
1010
0110
,
1000
1001
0000
0000
,
1100
1100
0000
0000
2002
0000
0000
0000
,
0000
0000
0000
0000
,
3003
0000
0000
0000
1001
0000
0000
0000
0010
0000
0001
0000
0000
0100
0000
0000
,
0110
0000
0001
0000
0000
0001
0000
1000
0000
0000
1000
0000
0001
0010
0001
0000
,
0100
0000
0000
0100
0000
0000
0001
0010
0001
1000
0000
0000
1000
0000
0000
0100
,
0010
0100
0000
0001
0000
0000
0001
0000
1000
0000
0000
1000
0000
0001
0010
0001
,
0000
0100
0000
0000
0100
0010
0000
0000
0010
0000
0000
1000
0100
1000
0001
0000
,
0000
0000
0100
0010
0100
0000
0001
0000
1000
0000
0001
0100
1000
0000
0001
0100
,
1000
0000
0001
0100
1000
0000
0000
0000
0010
0000
0010
0100
0001
0000
0001
0000
,
0000
0000
1000
0000
0001
0000
0000
0000
0100
0010
0100
0000
0000
0000
1001
0000
,
1001
0000
0000
0010
0000
0010
0000
0100
0000
0100
0000
0001
0000
1000
0000
0000
,
0110
0000
0001
0000
0000
0001
0000
1000
0000
0000
1000
0000
0001
0010
0001
0000
,
0000
0100
0000
0000
0100
1000
0000
0000
1000
0001
0000
0000
0001
0000
0000
0000
,
1100
0000
0000
0000
1001
0000
0000
0000
0001
0000
0001
0000
0000
1000
0100
1000
,
0000
0110
0001
0000
0001
1000
0000
1000
,
0001
0010
0001
0000
0000
0000
1000
0100
1000
0000
0001
0000
0010
0000
0001
0000
,
0000
0100
0000
0000
0110
0000
0000
0000
0001
0000
1000
0000
1000
0000
0000
0000
,
0110
0000
0000
0000
1000
0001
0000
0000
0001
0000
0100
0010
0100
0000
0000
0000
,
1001
1001
0000
0000
0100
0010
0100
0001
,
0000
0001
1000
0100
1000
0001
0010
0100
,
0001
1000
0100
1000
0001
0000
0001
0100
,
0010
0100
1000
1000
0001
0010
0001
0100
,
0000
0100
0010
1000
0000
1000
0000
0010
,
0001
0000
0100
1000
0000
1000
0010
0000
,
0100
0000
0010
0001
1000
0000
1000
0000
,
0000
0010
0001
0000
0100
0000
0000
0000
,
0010
0000
2002
0000
,
0000
0000
0000
0000
,
0000
0000
0000
0000
,
0000
0000
0000
3003
;

//---------------dance-single - ----------------
#NOTEDATA:;
#CHARTNAME:;
#STEPSTYPE:dance-single;
#DESCRIPTION:;
#CHARTSTYLE:;
#DIFFICULTY:Medium;
#METER:11;
#RADARVALUES:0.575046,0.650245,0.570390,0.048891,0.000000,494.000000,424.000000,70.000000,6.000000,0.000000,0.000000,0.000000,0.000000,0.000000,0.575046,0.650245,0.570390,0.048891,0.000000,494.000000,424.000000,70.000000,6.000000,0.000000,0.000000,0.000000,0.000000,0.000000;
#CREDIT:;
#NOTES:
0000
0000
0000
0000
,
0000
0000
0000
0000
,
0000
0001
0010
0100
,
1000
0000
0100
0000
0010
0000
0001
0001
,
0010
0100
0010
0000
1000
0000
0100
0000
,
0010
0000
0001
0000
0010
0000
0100
0001
,
0001
0010
0100
0010
1000
0000
0100
0000
,
0010
0100
0010
0001
,
1000
1000
0001
0000
0101
0000
1000
0000
,
1001
0000
0001
0000
0010
0100
0010
0000
,
1000
0000
1001
0000
0100
0010
0100
0000
,
0001
0000
0001
1000
1000
0000
0010
0000
,
0010
0000
0100
0010
0100
0000
0001
0000
,
1010
1100
0010
0001
,
0001
0000
0100
0010
0100
0000
0001
0001
,
1000
1001
0010
0100
,
0010
0000
1000
1000
0001
0000
0110
0000
,
0001
1000
0100
1000
0001
0001
0100
0010
,
0100
0000
1000
1000
0001
0010
0001
0000
,
0100
0000
0001
0010
0001
1000
0000
1000
,
0000
0010
0100
0010
0001
0000
1100
0000
,
1010
0110
1000
0100
,
0001
0010
0001
1000
,
1000
0100
0010
0100
,
0001
0010
0001
0000
1000
0000
1100
0000
,
0001
0000
1001
0000
0100
0000
0000
0010
,
0100
0010
0000
0000
0110
0000
0001
0000
,
0010
1001
0100
0110
,
1010
0001
1001
1000
,
0010
0100
0010
0000
0001
0000
1001
0000
,
0100
0010
0010
0000
1001
0000
0010
0000
,
0100
0001
0001
1100
,
1010
0000
0001
0000
0100
0001
1000
0000
,
2002
0000
0000
3003
0000
0010
0100
0000
,
0000
0000
0100
0010
,
0100
0001
0001
1100
,
1010
0001
1001
1100
,
0100
0001
0010
0110
,
1000
0001
1000
0000
0100
0000
0010
0000
,
1000
0001
1000
0011
,
0011
0100
0100
0010
,
1000
0000
1100
0000
0001
0001
2000
0000
,
3000
0001
0100
1001
,
0010
0000
0100
0000
0010
0000
1000
0001
,
1000
0001
0010
0001
,
0100
0010
0100
0000
0001
1000
0001
0000
,
1000
0000
0100
0010
1000
0000
0001
0000
,
0010
0100
0010
0000
0100
0000
0001
0000
,
0010
1000
0110
1001
,
1000
0001
1001
0010
,
0110
0000
0000
0000
1000
0001
1000
0000
,
1000
0100
0010
0000
0001
0000
0001
0000
,
0001
1000
0001
0000
0100
0010
0000
0010
,
0001
1001
1000
1100
,
0100
0000
0110
0000
0001
1000
0001
0000
,
0100
0000
0100
0010
1000
0100
0000
0000
,
0001
1000
0001
1000
0001
0000
0110
0000
,
1100
0000
1000
0000
0001
0010
0001
1000
,
1000
0100
0010
0001
,
0100
0001
0000
0001
1000
1000
0000
0010
,
0100
0010
0001
0000
1001
0000
1100
0000
,
0010
0001
1000
1000
,
0110
0000
0001
0100
1000
0000
0001
0000
,
1000
0000
0110
0000
0001
1000
0001
0000
,
1000
0000
0100
0001
1000
0000
0010
0000
,
0100
0000
0100
0001
0010
0001
0000
1000
,
1001
0000
0000
0010
0001
0000
0100
0000
,
0010
0000
0100
0000
0001
1000
0001
0000
,
1000
1010
0010
1010
,
1000
0000
1001
0000
0000
0000
1001
1001
,
0000
2002
0000
0000
,
0000
0000
0000
0000
,
3003
0000
1001
0000
0010
0100
0100
0000
,
0001
0000
0100
1000
0010
0000
0010
0000
,
0100
0100
0001
0010
0001
1000
0000
1000
,
0000
0010
0100
0000
0010
0000
0011
0000
,
1000
0000
1000
0000
0010
0100
0010
0000
,
0001
0000
1000
1000
0001
0010
0100
0100
,
1000
1001
1000
0110
,
0001
0000
1100
0000
0010
0100
0010
0000
,
0110
1000
1001
0010
,
0100
0000
0001
1000
0000
1000
0000
0001
,
0000
0100
0010
0100
0001
0000
0001
0000
,
1100
1010
0100
0010
,
0000
0001
0100
0000
0100
0001
1000
0001
,
0000
0110
0001
1000
,
0010
0001
0010
0000
1000
0000
1100
0000
,
0010
0000
1010
0000
0001
0010
0100
0000
,
1001
1001
0000
0100
0010
0100
0000
0000
,
0000
0001
1000
1001
,
0000
1001
1000
0000
,
0100
0110
0000
0001
,
0000
1000
0000
0000
,
0100
0010
0100
0010
0100
0000
1001
0000
,
0100
0000
0110
0000
0000
0000
0000
0001
,
0001
0010
0000
0100
,
0000
0020
0000
0000
,
0000
0000
0000
0000
,
0000
0000
0000
0000
,
0000
0000
0000
0030
;

//---------------dance-single - ----------------
#NOTEDATA:;
#CHARTNAME:;
#STEPSTYPE:dance-single;
#DESCRIPTION:;
#CHARTSTYLE:;
#DIFFICULTY:Easy;
#METER:7;
#RADARVALUES:0.385304,0.567538,0.472609,0.024445,0.000000,331.000000,273.000000,58.000000,3.000000,0.000000,0.000000,0.000000,0.000000,0.000000,0.385304,0.567538,0.472609,0.024445,0.000000,331.000000,273.000000,58.000000,3.000000,0.000000,0.000000,0.000000,0.000000,0.000000;
#CREDIT:;
#NOTES:
// measure 0
0000
0000
0000
0000
,  // measure 1
0000
0000
0000
0000
,  // measure 2
0000
0001
0010
0100
,  // measure 3
1000
0100
0010
0001
,  // measure 4
0001
1000
0001
1000
,  // measure 5
0100
0010
0100
0010
,  // measure 6
1001
0000
0010
1000
,  // measure 7
0000
1000
0001
0010
,  // measure 8
0001
0000
1001
1000
,  // measure 9
1001
0010
0000
1001
,  // measure 10
0000
0100
0010
0100
,  // measure 11
0000
1000
1000
0001
,  // measure 12
0100
0010
0100
0000
,  // measure 13
0011
1100
0000
0010
,  // measure 14
0000
0001
1000
1000
,  // measure 15
0000
1000
0010
0001
,  // measure 16
0000
0010
0100
0100
,  // measure 17
0000
1000
0001
1000
,  // measure 18
1001
0010
0110
0000
,  // measure 19
0001
1000
1000
0000
,  // measure 20
0010
0100
0010
0000
,  // measure 21
1001
1100
0010
0100
,  // measure 22
0001
0000
0001
1000
,  // measure 23
1000
0000
0001
0000
,  // measure 24
0010
0100
0010
1001
,  // measure 25
0100
0110
0001
1001
,  // measure 26
1001
0000
0110
1100
,  // measure 27
0000
0010
0100
0010
,  // measure 28
0000
1001
0000
0100
,  // measure 29
0000
0010
0001
1100
,  // measure 30
0001
1001
0000
1000
,  // measure 31
0001
0001
0000
0100
,  // measure 32
0110
0000
1000
0000
,  // measure 33
0001
0010
0100
1001
,  // measure 34
0000
0110
0000
1010
,  // measure 35
0000
0100
0000
0010
,  // measure 36
0100
0000
1001
0000
,  // measure 37
0011
0000
1000
1000
,  // measure 38
0001
0110
1000
0001
,  // measure 39
0010
0001
0000
1100
,  // measure 40
1001
0000
1000
0001
,  // measure 41
0001
0000
0100
0110
,  // measure 42
0000
1001
1000
0001
,  // measure 43
0010
0100
0001
0000
,  // measure 44
0010
0100
0100
0000
,  // measure 45
1000
0001
1000
0010
,  // measure 46
0110
0000
1000
0001
,  // measure 47
0100
0010
0001
1000
,  // measure 48
0010
0100
0100
0001
,  // measure 49
0010
0001
0000
1000
,  // measure 50
1001
0000
1000
1000
,  // measure 51
0010
0010
0000
0000
,  // measure 52
0100
0010
0100
0110
,  // measure 53
0000
1000
1001
0010
,  // measure 54
0110
0000
0001
0001
,  // measure 55
0000
1000
0001
1000
,  // measure 56
0000
0100
0001
0001
,  // measure 57
1000
1000
0000
0001
,  // measure 58
1001
0000
0010
1000
,  // measure 59
0100
1000
0001
0000
,  // measure 60
0001
0000
1001
0010
,  // measure 61
0000
0110
0000
1000
,  // measure 62
1001
0000
0100
0100
,  // measure 63
0000
0100
0010
0000
,  // measure 64
1000
0100
1000
0000
,  // measure 65
0001
0001
0000
0100
,  // measure 66
0110
0000
1000
0010
,  // measure 67
0010
0000
0100
0100
,  // measure 68
0000
0010
0001
0000
,  // measure 69
1000
1001
0000
0100
,  // measure 70
0110
2002
0000
0000
,  // measure 71
0000
0000
0000
0000
,  // measure 72
3003
0100
0000
0010
,  // measure 73
0100
0010
0000
1000
,  // measure 74
1000
0000
0001
1000
,  // measure 75
0001
0000
0100
0100
,  // measure 76
1001
0000
0010
0100
,  // measure 77
0000
1000
0100
0001
,  // measure 78
0010
0100
0000
1001
,  // measure 79
0000
0110
0001
0001
,  // measure 80
1000
0000
0100
0000
,  // measure 81
0001
0100
0001
0000
,  // measure 82
1000
1000
0000
0110
,  // measure 83
0001
1001
0000
0010
,  // measure 84
0100
0100
0000
0010
,  // measure 85
0001
0000
1000
1000
,  // measure 86
0000
0110
0000
1001
,  // measure 87
0000
0110
0000
0001
,  // measure 88
1001
0000
1000
0000
,  // measure 89
0000
0010
0100
0000
,  // measure 90
1001
0100
0000
0000
,  // measure 91
0100
0110
0000
0001
,  // measure 92
0000
1000
0000
0000
,  // measure 93
0100
0100
0010
1001
,  // measure 94
0100
0110
0000
0000
,  // measure 95
0001
0010
0100
1100
,  // measure 96
0000
1002
0000
0000
,  // measure 97
0000
0000
0000
0000
,  // measure 98
0000
0000
0000
0000
,  // measure 99
0000
0000
0003
0000
;
