#TITLE:Make Magic;
#SUBTITLE:;
#ARTIST:Lite Show Magic;
#TITLETRANSLIT:;
#SUBTITLETRANSLIT:;
#ARTISTTRANSLIT:;
#GENRE:;
#CREDIT:PaperBox440;
#BANNER:Make Magic.png;
#BACKGROUND:Make Magic-bg.jpg;
#LYRICSPATH:;
#CDTITLE:;
#MUSIC:Make Magic.ogg;
#OFFSET:0.000000;
#SAMPLESTART:94.434784;
#SAMPLELENGTH:12.000000;
#SELECTABLE:YES;
#BPMS:0.000000=230.000000
;
#STOPS:
;
#BGCHANGES:;
#KEYSOUNDS:;
#ATTACKS:;

//---------------dance-single - ----------------
#NOTES:
     dance-single:
     :
     Hard:
     16:
     0.875735,1.074414,0.655630,0.540895,0.319620,748.000000,668.000000,80.000000,66.000000,0.000000,0.000000,0.875735,1.074414,0.655630,0.540895,0.319620,748.000000,668.000000,80.000000,66.000000,0.000000,0.000000:
// measure 0
0000
0000
0000
0000
,  // measure 1
0000
0000
0000
0000
,  // measure 2
0220
0000
0030
0320
,  // measure 3
2030
0000
3200
0320
,  // measure 4
0032
0000
0000
0000
,  // measure 5
0003
0000
0000
0000
,  // measure 6
0220
0030
0000
0320
,  // measure 7
0032
0203
0000
0320
,  // measure 8
0032
0000
0000
0000
,  // measure 9
2003
0000
0000
0000
,  // measure 10
3001
0000
0001
0000
0010
0000
0100
0010
,  // measure 11
0001
1000
0001
0000
0110
0000
0100
1000
,  // measure 12
0010
0000
0010
0000
1000
0000
0010
0100
,  // measure 13
0001
1000
0001
0000
0011
0000
0010
0001
,  // measure 14
1000
0000
1000
0000
0010
0000
1000
0001
,  // measure 15
0010
0100
1000
0000
1010
0000
1000
0100
,  // measure 16
0020
0000
0000
0000
0001
0001
0000
0000
,  // measure 17
0001
0001
0030
0001
0100
0010
1000
0010
,  // measure 18
0100
0001
1001
0000
1000
0000
1000
0000
,  // measure 19
0100
0000
0100
1000
0000
1000
0001
0010
,  // measure 20
0001
1000
0001
0100
0110
0000
0010
0000
,  // measure 21
1000
0000
1000
0001
0000
0001
1000
0010
,  // measure 22
1000
0001
0100
0010
1000
1000
0100
0100
,  // measure 23
0010
0000
0010
0000
0001
0000
0001
0000
1000
0001
1000
0001
1000
0001
0100
0010
,  // measure 24
0100
0010
0200
0000
0300
0000
0011
0000
0000
0000
1100
0000
0000
0000
0000
0000
,  // measure 25
1010
0110
0101
0000
,  // measure 26
1000
0000
1000
0000
0001
0000
1000
0000
0010
0000
1000
0000
0100
0010
0001
0010
,  // measure 27
0100
1000
0010
1000
0001
0100
0001
0010
,  // measure 28
0100
0000
0100
0000
0010
0000
0001
0000
1000
0000
0001
0000
0010
0100
1000
0100
,  // measure 29
0010
0011
0101
1100
,  // measure 30
1000
0000
1000
0000
0010
0000
0100
0000
0001
0000
0010
0000
0100
0010
0001
0010
,  // measure 31
0100
1000
0100
0010
0001
0100
0010
1000
,  // measure 32
0010
0010
1000
0001
1000
0100
0010
0010
,  // measure 33
0110
0000
0001
1000
0000
0000
0000
0000
,  // measure 34
0001
0100
0001
0000
1000
0000
0001
0000
0010
0000
0001
0000
0100
0010
1000
0010
,  // measure 35
0100
0001
0010
0001
1000
0010
0100
0010
,  // measure 36
1000
0000
1000
0000
0100
0000
1000
0000
0001
0000
0100
0000
0010
0100
0001
0100
,  // measure 37
0010
2000
3001
0000
0010
0002
1003
0000
,  // measure 38
0010
0100
0010
0000
0100
0000
0010
0000
1000
0000
0001
0000
1000
0100
0010
0100
,  // measure 39
2000
3001
0002
1003
2000
3001
0002
1003
,  // measure 40
2000
0010
3002
0100
2003
0010
3001
0100
,  // measure 41
0110
0110
0000
0000
2002
0000
3003
0000
,  // measure 42
1000
0100
0010
0100
0000
1000
0000
1000
,  // measure 43
0100
0000
0000
0010
0000
0000
0001
0000
0101
0000
0000
0000
1010
0000
0000
0000
,  // measure 44
1000
0100
0010
0100
0000
1000
0000
1000
,  // measure 45
0100
0000
0000
0010
0000
0000
0001
0000
1000
0010
0100
0000
0001
0010
0100
0000
,  // measure 46
1000
0001
0100
0010
0000
0110
0000
1000
,  // measure 47
0010
0000
0000
0100
0000
0000
0001
0000
0011
0000
0000
0000
1100
0000
0000
0000
,  // measure 48
1000
0001
0100
0010
0000
0110
0000
1000
,  // measure 49
0010
0000
0000
0100
0000
0000
0010
0000
1000
0100
0010
0001
1000
0100
0010
0001
,  // measure 50
1000
0010
0100
0010
0000
1000
0000
0100
,  // measure 51
0011
0000
0000
0110
0000
0000
1100
0000
0110
0000
0000
0000
1001
0000
0000
0000
,  // measure 52
0001
0100
0010
0100
0000
0001
0000
0100
,  // measure 53
1010
0000
0000
0000
0000
0000
0000
0000
0000
0110
0000
0000
0000
0000
0000
0000
0000
0000
0101
0000
0000
0000
0000
0000
0010
0000
0000
0000
1000
0000
0000
0000
0001
0000
0000
0000
0010
0000
0000
0000
0100
0000
0000
0000
1000
0000
0000
0000
,  // measure 54
0100
0010
0001
0100
0000
0110
0000
0010
,  // measure 55
0100
0001
0010
0100
0000
0110
0000
0010
,  // measure 56
0100
1000
0010
0001
1000
0100
0001
0010
,  // measure 57
0100
0000
0000
0000
0010
0100
0001
0000
,  // measure 58
2002
0000
3003
0000
0000
0110
0000
0110
,  // measure 59
0000
1000
0001
0000
0100
0001
0010
0001
,  // measure 60
2000
0000
0020
0000
0000
3030
0000
0011
,  // measure 61
0000
0011
0000
0001
0100
0000
0100
0001
,  // measure 62
0010
0001
0200
0000
1000
1300
0000
0110
,  // measure 63
0000
0101
0000
1000
0010
0100
0001
0010
,  // measure 64
0100
0000
1000
0000
2002
3003
0000
0000
0022
0033
0000
0000
0220
0330
0000
0000
,  // measure 65
2200
3300
0000
0000
2002
3003
0000
0000
0000
0000
0000
0000
2010
0000
0000
0000
,  // measure 66
3100
0000
0000
0011
0000
1100
0000
1000
,  // measure 67
0100
0000
0010
0001
0100
0001
0020
0000
,  // measure 68
2000
3030
0000
1010
0000
0110
0000
0010
,  // measure 69
0001
0000
1000
0001
0100
0010
0002
0000
,  // measure 70
1000
1003
0000
0110
0000
1001
0000
1000
,  // measure 71
0100
0000
0010
0001
1000
0002
0200
0000
,  // measure 72
0303
0000
0000
0000
,  // measure 73
0011
0110
1100
0000
,  // measure 74
1000
0000
1000
0000
0001
0000
1000
0000
0010
0000
1000
0000
0100
0010
0001
1000
,  // measure 75
0100
0000
1000
0000
0010
0000
0100
0000
0101
0000
0000
0011
0000
0000
1010
0000
,  // measure 76
1000
0000
0100
0000
0010
0000
0001
0000
0100
0000
0001
0000
0010
0100
1000
0001
,  // measure 77
0010
0001
0101
0000
0010
1000
1100
0000
,  // measure 78
1000
0000
1000
0000
0010
0000
0100
0000
0010
0000
1000
0000
0100
0010
0001
1000
,  // measure 79
0100
0000
1000
0000
0001
0000
0010
0000
0011
0000
0000
1010
0000
0000
1100
0000
,  // measure 80
1000
0001
0100
0010
2000
0100
0100
3100
,  // measure 81
0110
0000
0000
0011
0000
0000
0000
0000
,  // measure 82
0010
0000
1000
0000
0010
0000
1000
0000
0001
0100
0001
0000
1000
0100
1000
0000
,  // measure 83
0001
0100
0010
1000
0100
0010
0000
0000
,  // measure 84
0010
0000
1000
0000
0010
0000
1000
0000
0001
0100
0001
0000
1000
0100
1000
0000
,  // measure 85
0220
0000
0330
0000
,  // measure 86
1000
0000
1000
0000
0010
0000
1000
0000
0010
0000
0100
0000
0010
0100
0001
0000
,  // measure 87
0010
0100
1000
0000
0010
0100
0001
0000
0010
0100
1000
0000
0010
0100
0001
0000
,  // measure 88
0020
0130
0200
0310
0002
1003
2000
3001
,  // measure 89
0010
0010
0000
0000
1100
0000
0011
0000
,  // measure 90
0210
0000
1000
1000
,  // measure 91
0320
0000
0000
0032
,  // measure 92
0023
0000
0000
0000
0200
0000
0330
0000
1000
0000
0000
0001
0100
0000
0000
0000
,  // measure 93
0020
0000
0000
1000
,  // measure 94
0230
0000
0000
0000
0301
0000
0001
0010
0100
0000
0010
0000
0001
0000
0001
0000
,  // measure 95
1000
0000
1000
0000
0001
0000
0001
0010
0100
0000
1000
0000
0001
0000
0001
0000
,  // measure 96
0100
0000
0100
0000
0010
0000
0010
1000
0100
0000
1000
0000
1000
0000
0010
0000
,  // measure 97
0010
0000
0000
0100
0000
0000
1001
0000
0000
0000
0000
0000
0001
0000
0010
0000
0100
0000
1000
0000
0000
0000
0100
0000
,  // measure 98
0010
0101
0010
0101
,  // measure 99
0010
1100
0010
0101
,  // measure 100
0010
1100
0011
0100
,  // measure 101
1010
0100
0011
0100
,  // measure 102
1000
0000
0000
0000
0010
0000
0000
0000
0001
0000
0010
0001
0010
0000
0100
0000
,  // measure 103
1000
0000
0001
0000
0000
0000
0001
0000
0010
0000
0010
0100
1000
0000
0001
0000
,  // measure 104
0100
0000
0001
0000
0010
0000
0001
0000
0010
0000
0010
0100
1000
0000
0001
0000
,  // measure 105
1000
0100
1000
0010
0000
0010
1000
0001
,  // measure 106
0100
0001
0020
0000
0031
0100
1000
1000
,  // measure 107
0100
0010
0100
0010
0100
0010
0100
0010
1000
0100
0010
0001
1000
0100
0010
0000
,  // measure 108
0002
2000
0000
0000
,  // measure 109
0000
3003
0000
0000
,  // measure 110
0000
0000
0000
0000
,  // measure 111
0000
0000
0000
0000
,  // measure 112
1000
0001
0000
0000
0100
0010
0000
0000
1000
0001
0000
0000
0100
0010
1000
0000
,  // measure 113
0100
0010
0001
0000
0100
0010
1000
0000
0100
0010
0001
0000
0100
0010
1000
0001
,  // measure 114
0100
0000
0000
0000
;

//---------------dance-single - ----------------
#NOTES:
     dance-single:
     :
     Medium:
     13:
     0.736413,0.840846,0.631044,0.540895,0.016391,629.000000,552.000000,77.000000,66.000000,0.000000,0.000000,0.736413,0.840846,0.631044,0.540895,0.016391,629.000000,552.000000,77.000000,66.000000,0.000000,0.000000:
0000
0000
0000
0000
,
0000
0000
0000
0000
,
0220
0000
0030
0320
,
2030
0000
3200
0320
,
0032
0000
0000
0000
,
0003
0000
0000
0000
,
0220
0030
0000
0320
,
0032
0203
0000
0320
,
0032
0000
0000
0000
,
2003
0000
0000
0000
,
3001
0000
0001
0000
0010
0000
0100
0010
,
1000
0001
0011
1000
,
0100
0000
0010
0000
0010
0000
1000
0100
,
0001
0001
0011
0010
,
0001
0000
1000
0000
0010
0000
0100
0001
,
0010
1000
1010
1000
,
0020
0000
0000
0000
0100
0100
0000
0000
,
0100
0100
0030
1000
0100
0000
1000
0000
,
0100
1001
1000
1000
,
0100
0000
0100
1000
0000
1000
0001
0010
,
0001
1000
0001
0000
0110
0000
0010
0000
,
1000
0000
1000
0010
0000
0010
1000
0001
,
1000
0000
0100
0010
1000
1000
0100
0100
,
0010
0010
0001
0001
1000
0001
1000
0001
,
0000
0200
0300
0011
0000
1100
0000
0000
,
1010
0110
0101
0000
,
1000
0000
0001
0100
0010
0000
0100
0001
,
0100
0000
0010
1000
0001
0100
0001
0010
,
0100
0000
0010
0000
1000
0001
0010
0000
,
0010
0011
0101
1100
,
0000
1000
0010
0100
0001
0010
0000
0010
,
0100
0001
0100
1000
0100
0000
0010
0000
,
0010
0010
1000
0100
1000
0000
0010
0000
,
0110
0000
0001
1000
0000
0000
0000
0000
,
0001
0001
1000
0001
0010
0001
0100
1000
,
0100
0001
0010
0001
1000
0010
0100
0010
,
1000
0000
0100
1000
0001
0100
0010
0001
,
0010
2000
3001
0000
0010
0002
1003
0000
,
0010
0010
0100
0010
1000
0001
1000
0100
,
0020
0030
0020
0030
0020
0030
0020
0030
,
0020
0030
0010
0100
0000
1000
0010
0100
,
0000
0110
0000
0000
2002
0000
3003
0000
,
1000
0100
0010
0100
0000
1000
0000
1000
,
0100
0000
0000
0010
0000
0000
0001
0000
0101
0000
0000
0000
1010
0000
0000
0000
,
1000
0100
0010
0100
0000
1000
0000
1000
,
0100
0000
0000
0010
0000
0000
0001
0000
1000
0000
0100
0000
0001
0000
0100
0000
,
1000
0001
0100
0010
0000
0110
0000
1000
,
0010
0000
0000
0100
0000
0000
0001
0000
0011
0000
0000
0000
1100
0000
0000
0000
,
1000
0001
0100
0010
0000
0110
0000
1000
,
0010
0000
0000
0010
1000
0010
1000
0010
,
1000
0011
0000
0110
0000
1100
0000
0100
,
0011
0000
0010
0000
1010
0000
1000
0100
,
0010
0100
0010
0100
0000
0011
0000
0011
,
0100
0000
0010
0100
0010
0100
0010
0000
,
0001
1000
0100
0010
0000
0110
0000
0010
,
0100
0001
0010
0100
0000
0110
0000
0010
,
0100
1000
0010
0001
1000
0100
0001
0010
,
0100
0000
0000
0000
0010
0100
0001
0000
,
2002
0000
3003
0000
0000
0110
0000
0110
,
0000
1000
0001
0000
0100
0001
0010
0001
,
2000
0000
0020
0000
0000
3030
0000
0011
,
0000
0011
0000
0001
0100
0000
0100
0001
,
0010
0001
0200
0000
1000
1300
0000
0110
,
0000
0101
0000
1000
0010
0100
0001
0010
,
0100
0000
0000
0000
2002
3003
0000
0000
0022
0033
0000
0000
0220
0330
0000
0000
,
2200
3300
0000
0000
2002
3003
0000
0000
0000
0000
0000
0000
2010
0000
0000
0000
,
3100
0000
0000
0011
0000
1100
0000
1000
,
0100
0000
0010
0001
0100
0001
0020
0000
,
2000
3030
0000
1010
0000
0110
0000
0010
,
0001
0000
1000
0001
0100
0010
0002
0000
,
1000
1003
0000
0110
0000
1001
0000
1000
,
0100
0000
0010
0001
1000
0002
0200
0000
,
0303
0000
0000
0000
,
0011
0110
1100
0000
,
1000
0010
0001
0100
0010
0010
0100
1000
,
0100
0000
0010
0100
0101
0000
0000
1010
,
1000
0100
0010
0001
0100
0001
0010
1000
,
0010
0001
0101
0000
0010
0000
1100
0000
,
1000
1000
0010
0010
0100
0001
0010
0000
,
0100
0000
1000
0000
0001
0000
0010
0000
0011
0000
0000
0100
0000
0000
1100
0000
,
1000
0001
0100
0010
2000
0000
0000
3000
,
0110
0000
0000
0011
0000
0000
0000
0000
,
0010
1000
0010
1000
0001
0001
1000
1000
,
0001
0100
0010
1000
0100
0010
0000
0000
,
0010
1000
0010
1000
0001
0001
1000
1000
,
0220
0000
0330
0000
,
1000
1000
0010
0001
0010
1000
0010
0001
,
0010
1000
0010
0001
0010
1000
0010
0000
,
0020
0030
0200
0302
2003
3020
0030
0200
,
0300
0011
0000
0000
1100
0000
0011
0000
,
0210
0000
1000
1000
,
0320
0000
0000
0032
,
0023
0000
0200
0330
1000
0000
0100
0000
,
0020
0000
0000
1000
,
0230
0000
0301
0001
0100
0010
0001
0001
,
1000
1000
0001
0001
0100
1000
0001
0001
,
0100
0100
0010
0010
0100
1000
1000
0010
,
0010
0100
1001
0000
0001
0000
1000
0000
,
0010
0101
0010
0101
,
0010
1100
0010
0101
,
0010
1100
0011
0100
,
1010
0100
0011
0100
,
1000
0000
0010
0000
0001
0010
0010
0100
,
1000
0001
0000
0001
0010
0010
1000
0001
,
0100
0001
0010
0001
0100
0100
1000
0000
,
1000
0100
1000
0010
0000
0010
1000
0001
,
0100
0001
0020
0000
0031
0100
1000
1000
,
0100
0010
0100
0010
0100
0001
0100
0001
,
2000
0002
0000
0000
0000
0000
0000
0000
,
0000
3003
0000
0000
,
0000
0000
0000
0000
,
0000
0000
0000
0000
,
1000
0000
0100
0000
1000
0000
0100
1000
,
0100
0001
0100
1000
0100
0001
0100
1000
,
0100
0000
0000
0000
;

//---------------dance-single - ----------------
#NOTES:
     dance-single:
     :
     Easy:
     8:
     0.558456,0.653991,0.565481,0.409769,0.000000,477.000000,408.000000,69.000000,50.000000,0.000000,0.000000,0.558456,0.653991,0.565481,0.409769,0.000000,477.000000,408.000000,69.000000,50.000000,0.000000,0.000000:
0000
0000
0000
0000
,
0000
0000
0000
0000
,
0220
0000
0030
0320
,
2030
0000
3200
0320
,
0032
0000
0000
0000
,
0003
0000
0000
0000
,
0220
0030
0000
0320
,
0032
0203
0000
0320
,
0032
0000
0000
0000
,
2003
0000
0000
0000
,
3001
0001
0010
0100
,
1000
0001
0011
1000
,
0100
0010
0010
1000
,
0001
0001
0011
0010
,
0001
1000
0010
0100
,
0010
1000
1010
1000
,
0020
0000
0100
0000
,
0100
0000
0030
1000
0100
0000
1000
0000
,
0100
1001
1000
1000
,
0100
0000
0100
0000
0000
0000
0001
0010
,
0001
0001
0110
0010
,
1000
0000
1000
0010
0000
0010
1000
0000
,
1000
0000
0100
0010
1000
0000
0100
0000
,
0010
0000
0001
0000
1000
0010
1000
0010
,
0000
0200
0300
0001
0000
1001
0000
0000
,
0110
1001
0001
0000
,
1000
0001
0010
0100
,
0100
0010
0001
0001
,
0100
0010
1000
0010
,
0010
0011
0101
1100
,
0000
0100
0010
0000
0001
0000
0000
0010
,
0100
0100
0100
0010
,
0010
0000
1000
0100
1000
0000
0010
0000
,
0110
0000
0001
1000
0000
0000
0000
0000
,
0001
0000
0001
0000
0001
0000
0100
1000
,
0100
0010
1000
0100
,
1000
0000
0100
0000
0001
0000
0010
0100
,
0010
0001
0010
1000
,
0010
0100
1000
1000
,
0020
0000
0000
0000
,
0030
0000
0010
0000
0010
0000
0010
0100
,
0000
0110
0000
0000
1001
0000
0110
0000
,
0000
0000
0010
0000
0000
1000
0000
1000
,
0100
0001
0101
1010
,
1000
0000
0010
0000
0000
1000
0000
1000
,
0100
0000
0000
0001
1000
0000
0000
0100
,
1000
0000
0100
0010
0000
0110
0000
0000
,
0010
0001
0011
1100
,
1000
0000
0100
0010
0000
0110
0000
0000
,
0010
0000
0000
0100
0000
0100
0000
0000
,
0000
0011
0000
0110
0000
1100
0000
0000
,
0011
0010
1010
1000
,
0010
0000
0110
0000
0000
0011
0000
0011
,
0100
0010
0010
0010
,
0001
0100
0010
0010
,
0100
0000
0010
0100
0000
0110
0000
0000
,
0100
0000
0010
0001
1000
0000
0001
0000
,
0100
0000
0000
0000
0010
0100
0001
0000
,
2002
0000
3003
0000
0000
0010
0000
0110
,
0000
1000
0001
0000
0100
0001
0010
0001
,
2000
0000
0020
0000
0000
3030
0000
0011
,
0000
0011
0000
0001
0100
0000
0100
0000
,
0010
0000
0200
0000
1000
0300
0000
0110
,
0000
0101
0000
0000
0010
0100
0001
1000
,
0100
0000
0020
0030
0020
0030
0020
0030
,
0020
0030
0020
0030
0000
0000
2010
0000
,
3100
0000
0000
0011
0000
1100
0000
0000
,
0100
0010
0100
0020
,
2000
3030
0000
0001
0000
1001
0000
1001
,
0000
0010
0000
0100
0000
0110
0002
0000
,
0000
1003
0000
0110
0000
1001
0000
1000
,
0100
0000
0010
0001
1000
0020
0200
0000
,
0330
0000
0000
0000
,
0110
1001
0110
0000
,
1000
0001
0010
0100
,
0100
0010
0101
0000
,
1000
0010
0100
0010
,
0010
0110
0010
1100
,
1000
0010
0100
0010
,
0100
0001
1001
1000
,
1000
0100
0020
0030
,
0110
0000
0000
0011
0000
0000
0000
0000
,
0010
1000
0010
1000
0001
0000
1000
0000
,
0001
0100
0010
0000
0100
0010
0000
0000
,
0010
0000
0010
0000
0001
0001
1000
0000
,
0220
0000
0330
0000
,
1000
0010
0010
0010
,
0010
0100
0010
0100
0010
0100
0010
0000
,
0020
0030
0200
0300
2000
3000
0000
0000
,
0000
0011
0000
0000
1100
0000
0011
0000
,
0210
0000
1000
1000
,
0320
0000
0000
0032
,
0023
0000
0200
0330
1000
0000
0100
0000
,
0020
0000
0000
1000
,
0230
0301
0100
0001
,
1000
0001
1000
0001
,
0100
0010
0100
1000
,
0010
1001
0001
1000
,
0010
1001
0010
1001
,
0010
1001
0010
0110
,
0010
1001
0110
0100
,
1001
0010
0110
0001
,
1000
0000
0010
0000
0001
0000
0010
0100
,
1000
1000
0010
1000
,
0100
0010
0100
1000
,
1000
0000
1000
0010
0000
0010
1000
0000
,
0100
0020
0031
1000
,
0100
0010
0100
0010
0100
0000
0100
0001
,
2000
0002
0000
0000
0000
0000
0000
0000
,
0000
3003
0000
0000
,
0000
0000
0000
0000
,
0000
0000
0000
0000
,
1000
0100
1000
0010
,
0010
0000
0010
0000
0010
0001
0010
1000
,
0010
0000
0000
0000
;

//---------------dance-single - ----------------
#NOTES:
     dance-single:
     :
     Beginner:
     4:
     0.436697,0.653991,0.360597,0.319620,0.000000,373.000000,329.000000,44.000000,39.000000,0.000000,0.000000,0.436697,0.653991,0.360597,0.319620,0.000000,373.000000,329.000000,44.000000,39.000000,0.000000,0.000000:
0000
0000
0000
0000
,
0000
0000
0000
0000
,
0210
0000
0000
0320
,
2030
0000
3200
0320
,
0032
0000
0000
0000
,
0003
0000
0000
0000
,
0210
0000
0000
0320
,
0032
0203
0000
0320
,
0032
0000
0000
0003
,
2000
0000
0000
0000
,
3001
0001
0010
0100
,
1000
0001
1001
1000
,
0100
0010
0000
0010
,
0001
0001
0001
0000
,
0010
0000
0010
0100
,
0010
1000
1001
1000
,
0020
0000
0000
0000
,
0000
0030
1000
1000
,
1000
1001
0010
0010
,
0100
0100
0000
0001
,
0001
0001
0110
0010
,
1000
1000
0000
0100
,
0100
0010
1000
0100
,
0010
0001
1000
1000
,
0000
0010
0000
0000
,
0110
1001
0001
0000
,
1000
0001
0010
0100
,
0100
0010
0001
0001
,
0100
0010
1000
0010
,
0010
0110
1001
0110
,
0000
0010
0001
0000
,
0100
0100
0100
0010
,
0010
1000
1000
0010
,
0110
0001
0000
0000
,
0001
0001
0001
0100
,
0100
0010
1000
0100
,
1000
0100
0001
0010
,
0010
0001
0010
1000
,
0010
0100
1000
1000
,
0020
0000
0000
0000
,
0030
0010
0010
0010
,
0000
0000
1001
0110
,
0000
0010
0000
0000
,
0100
0001
1001
0110
,
0100
0010
0000
0100
,
0110
0000
0000
0000
,
0001
0010
0000
0000
,
0010
0001
1001
0110
,
0010
0100
0000
0000
,
0010
0000
0000
0000
,
0000
0000
0000
0000
,
1001
0001
0110
0010
,
0100
1001
0000
0000
,
0100
0010
0010
0010
,
0001
0100
0010
0010
,
0100
0010
0000
0000
,
0100
0010
1000
0001
,
0100
0000
0010
0001
,
2002
3003
0000
0000
,
0000
0001
0100
0010
,
2000
0000
0020
0000
0000
3030
0000
0000
,
0001
0001
0100
0100
,
0010
0000
0200
0000
1000
0300
0000
0000
,
0100
0100
0010
0001
,
0100
0020
0000
0000
,
0000
0000
0000
0030
0000
0000
2000
0000
,
3001
0000
0010
0010
,
0100
0010
0100
0020
,
0000
0030
0000
0000
0001
0000
0001
0000
,
0001
1001
1000
0002
,
0000
0003
0000
0000
0010
0000
0010
0000
,
0010
0010
0000
0200
,
0300
0000
0000
0000
,
0110
1001
0110
0000
,
1000
0001
0010
0100
,
0100
0010
1001
0000
,
1000
0010
0100
0001
,
0001
1001
0001
1001
,
1000
0010
0100
0010
,
0100
0001
1001
1000
,
1000
0100
0020
0030
,
0110
0000
1001
0000
,
0010
0010
0001
1000
,
0001
0010
0100
0000
,
0010
0010
0001
1000
,
0020
0000
0030
0000
,
1000
0010
0010
0010
,
0010
0010
0010
0010
,
0020
0030
0200
0300
2000
3000
0000
0000
,
0011
0000
1100
0011
,
0200
0000
1000
1000
,
0320
0000
0000
0032
,
0023
0000
0200
0330
0000
0000
0100
0000
,
0020
0000
0000
1000
,
0230
0301
0100
0001
,
1000
0001
1000
0001
,
0100
0010
0100
1000
,
0010
0001
0001
1000
,
0010
1001
0010
1001
,
0010
1001
0010
0110
,
0010
1001
0110
0100
,
1001
0010
0110
0001
,
1000
0010
0001
0010
,
1000
1000
0010
1000
,
0100
0010
0100
1000
,
1000
1000
0010
1000
,
0100
0020
0031
1000
,
0100
0100
0100
0100
,
2000
0000
0000
0000
,
0000
3000
0000
0000
,
0000
0000
0000
0000
,
0000
0000
0000
0000
,
1000
0100
1000
0010
,
0010
0010
0010
0010
,
0010
0000
0000
0000
;
