#VERSION:0.83;
#TITLE:Machine;
#SUBTITLE:;
#ARTIST:sparky;
#TITLETRANSLIT:;
#SUBTITLETRANSLIT:;
#ARTISTTRANSLIT:;
#GENRE:;
#ORIGIN:;
#CREDIT:PaperBox440;
#BANNER:machine.png;
#BACKGROUND:machine-bg.png;
#PREVIEWVID:;
#JACKET:machine-jacket.png;
#CDIMAGE:;
#DISCIMAGE:;
#LYRICSPATH:;
#CDTITLE:;
#MUSIC:Machine.mp3;
#OFFSET:0.000000;
#SAMPLESTART:41.470589;
#SAMPLELENGTH:13.588238;
#SELECTABLE:YES;
#BPMS:0.000=170.000;
#STOPS:;
#DELAYS:;
#WARPS:;
#TIMESIGNATURES:0.000=4=4;
#TICKCOUNTS:0.000=4;
#COMBOS:0.000=1;
#SPEEDS:0.000=1.000=0.000=0;
#SCROLLS:0.000=1.000;
#FAKES:;
#LABELS:0.000=Song Start;
#BGCHANGES:;
#KEYSOUNDS:;
#ATTACKS:
;

//---------------dance-single - ----------------
#NOTEDATA:;
#CHARTNAME:;
#STEPSTYPE:dance-single;
#DESCRIPTION:;
#CHARTSTYLE:;
#DIFFICULTY:Hard;
#METER:13;
#RADARVALUES:0.750323,0.932419,0.264375,0.132188,0.132188,596.000000,566.000000,30.000000,15.000000,0.000000,0.000000,0.000000,0.000000,0.000000,0.750323,0.932419,0.264375,0.132188,0.132188,596.000000,566.000000,30.000000,15.000000,0.000000,0.000000,0.000000,0.000000,0.000000;
#CREDIT:;
#NOTES:
// measure 0
0000
0110
0000
0010
0000
0100
1000
0001
,  // measure 1
0010
0100
0010
1000
0100
1000
0000
0101
,  // measure 2
0000
0100
0010
0001
1000
0100
1000
0001
,  // measure 3
0100
0010
0100
0001
1000
0001
0100
0010
,  // measure 4
0100
0001
0000
1000
0010
0100
0010
0001
,  // measure 5
0001
1000
0100
1000
0010
0000
0100
0010
,  // measure 6
0001
1000
0001
0010
0100
0010
1000
0100
,  // measure 7
1000
0001
0010
0100
0100
0001
0100
0010
,  // measure 8
0000
1000
0001
0100
0010
0000
1000
0100
,  // measure 9
1000
0001
0001
0010
0100
0010
1000
1000
,  // measure 10
0002
0003
1100
0010
0001
1000
0100
1000
,  // measure 11
0110
0001
0010
1000
0100
1000
0001
0100
,  // measure 12
1010
0000
0010
0001
0001
1000
0110
0000
,  // measure 13
0001
0100
0010
0001
1000
0001
0000
1000
,  // measure 14
0010
0100
0000
0010
0001
1000
0100
1000
,  // measure 15
0010
0010
0001
1000
0010
0010
0100
0010
,  // measure 16
2001
3000
0100
0010
0001
1000
0010
0001
,  // measure 17
0100
0000
0100
0000
1000
0000
0001
0000
0010
0100
0010
1000
0000
0001
0100
0010
,  // measure 18
0100
1000
0001
0000
0010
0001
0100
0000
1000
0010
0100
0000
1000
0001
1000
0001
,  // measure 19
1000
0001
1000
0001
1000
0000
0020
0000
0030
0000
0100
0000
0000
0000
0100
0000
,  // measure 20
0000
0100
0100
0010
0000
0010
0001
0001
,  // measure 21
0001
0000
0000
0000
0001
0000
0000
0000
1000
0100
1000
0000
1000
0000
0010
0001
,  // measure 22
0000
0100
0100
0010
0010
0010
0001
0001
,  // measure 23
0000
1000
1000
1000
0000
0010
0010
0110
,  // measure 24
0000
1001
0100
0100
0000
0010
0100
0010
,  // measure 25
0010
1000
1000
0000
0000
0001
0001
0001
,  // measure 26
0010
0100
0100
0100
0000
0001
1000
1000
,  // measure 27
0010
0010
0100
0100
0100
0001
0001
1000
,  // measure 28
1000
1000
1000
0000
0000
0001
1000
0100
,  // measure 29
0000
0000
0000
0110
1000
1010
0001
0001
,  // measure 30
0000
0110
0100
0000
1001
1001
1001
0000
,  // measure 31
0010
1000
0100
0000
0010
0001
0100
0000
1000
0000
1001
0000
0010
0000
0110
0000
,  // measure 32
1000
1100
0000
0100
0011
0001
1100
0000
,  // measure 33
1000
0000
0010
0000
0101
0000
0100
0000
0000
0000
0100
0010
1000
0001
0020
0130
,  // measure 34
0000
1000
1000
0001
0011
0100
0001
1000
,  // measure 35
0100
0000
0010
0000
0010
0000
0001
0000
1100
0000
1000
0000
0000
0000
0000
0010
,  // measure 36
0100
0000
1000
0001
0010
0100
0000
0000
1000
0000
1100
0000
0001
0000
0011
0000
,  // measure 37
0100
0100
1000
1000
0001
0000
0100
0010
,  // measure 38
0001
0001
0001
2000
0000
3200
0000
0300
,  // measure 39
0010
0010
0110
1000
0010
0010
0001
1000
,  // measure 40
0100
0000
1000
0000
0001
0000
0001
0000
0100
0000
0100
0000
0000
0000
1000
0001
,  // measure 41
0010
0100
0010
0000
1000
0000
1000
0000
0001
0000
0001
0000
0010
0000
0100
0000
,  // measure 42
0100
1000
1000
0001
0000
0010
0010
0010
,  // measure 43
0000
0000
0100
0010
1000
0001
0010
0100
0000
0010
0000
0000
1000
0000
0000
0000
,  // measure 44
0001
0001
0010
0100
1000
1000
0000
0000
,  // measure 45
0100
0000
0100
0000
0100
0000
0010
0000
0000
0000
0000
0001
1000
0010
0100
0000
,  // measure 46
1000
0001
0001
0000
1000
1000
0100
0100
,  // measure 47
0010
0000
0010
0000
0001
0000
1000
0000
0010
0001
0100
0000
0010
0000
1000
0000
,  // measure 48
0000
0200
0000
0320
0000
2030
0000
3001
,  // measure 49
0000
0100
0010
0000
1000
0010
0001
0100
,  // measure 50
0010
0000
0100
1000
0010
0000
1000
0001
,  // measure 51
0100
1000
0010
0000
1000
0010
0001
0100
,  // measure 52
0010
0001
0100
1000
0010
0000
0100
0010
,  // measure 53
0000
0001
1000
0010
0100
0001
0010
0000
,  // measure 54
0100
1000
0001
0000
1000
0001
1000
0000
,  // measure 55
0010
1000
0100
0000
0001
0100
1000
0000
,  // measure 56
0001
0010
0100
0000
0010
0000
1000
0001
,  // measure 57
0010
0000
0100
0100
0010
0001
0001
1000
,  // measure 58
1000
0010
0100
0000
0001
0001
1000
1000
,  // measure 59
0010
0100
0010
0001
1000
0100
1000
0010
,  // measure 60
0010
0010
0100
0100
0001
1000
0100
1000
,  // measure 61
0001
0001
0010
0100
0010
1000
1000
0001
,  // measure 62
0010
0100
0100
0010
1000
1000
0001
0010
,  // measure 63
0100
0010
0100
0001
1000
1000
0001
0001
,  // measure 64
0010
0100
0010
1000
1000
0100
0100
0001
,  // measure 65
0010
0010
1000
0001
0011
1000
0100
1000
,  // measure 66
0010
0010
0100
0100
0100
0001
0001
1000
,  // measure 67
0100
1000
0010
0100
0001
2020
3030
0220
,  // measure 68
0330
0000
0100
0010
0000
1000
0001
0100
,  // measure 69
0010
0010
1000
0100
1000
0001
0001
0000
,  // measure 70
0100
0010
0100
1000
0000
1000
0001
0100
,  // measure 71
0010
1000
0000
1000
0001
0010
0100
0010
,  // measure 72
0001
0100
1000
1000
0010
0100
0010
0001
,  // measure 73
0001
0001
1000
0100
0100
0010
0010
0001
,  // measure 74
1000
0010
0100
0100
0001
1000
1000
0001
,  // measure 75
0100
0010
0010
1000
0001
0100
0100
0100
,  // measure 76
0010
1000
0001
0100
0100
0010
0010
1000
,  // measure 77
0100
1000
0001
0001
0100
0100
0000
2002
,  // measure 78
0000
0000
0000
3003
0000
0000
0000
0000
;
