#VERSION:0.83;
#TITLE:MOON;
#SUBTITLE:-Full Version-;
#ARTIST:dj TAKA feat. Erika;
#TITLETRANSLIT:;
#SUBTITLETRANSLIT:;
#ARTISTTRANSLIT:;
#GENRE:;
#ORIGIN:;
#CREDIT:;
#BANNER:MOON -Full Version-.png;
#BACKGROUND:MOON -Full Version--bg.png;
#PREVIEWVID:;
#JACKET:MOON -Full Version--jacket.png;
#CDIMAGE:;
#DISCIMAGE:;
#LYRICSPATH:;
#CDTITLE:cdtitle.png;
#MUSIC:MOON -Full Version-.mp3;
#OFFSET:0.000000;
#SAMPLESTART:80.961540;
#SAMPLELENGTH:25.961540;
#SELECTABLE:YES;
#BPMS:0.000=156.000;
#STOPS:;
#DELAYS:;
#WARPS:;
#TIMESIGNATURES:0.000=4=4;
#TICKCOUNTS:0.000=4;
#COMBOS:0.000=1;
#SPEEDS:0.000=1.000=0.000=0;
#SCROLLS:0.000=1.000;
#FAKES:;
#LABELS:0.000=Song Start;
#BGCHANGES:;
#KEYSOUNDS:;
#ATTACKS:
;

//---------------dance-single - ----------------
#NOTEDATA:;
#CHARTNAME:;
#STEPSTYPE:dance-single;
#DESCRIPTION:;
#CHARTSTYLE:;
#DIFFICULTY:Hard;
#METER:12;
#RADARVALUES:0.517558,0.640862,0.551956,0.518616,0.001852,978.000000,829.000000,149.000000,140.000000,0.000000,1.000000,0.000000,0.000000,0.000000,0.517558,0.640862,0.551956,0.518616,0.001852,978.000000,829.000000,149.000000,140.000000,0.000000,1.000000,0.000000,0.000000,0.000000;
#CREDIT:;
#NOTES:
// measure 0
0000
0000
0000
0000
,  // measure 1
0000
0000
0000
0000
,  // measure 2
0000
0000
0000
0000
,  // measure 3
0000
0000
0000
0000
,  // measure 4
0000
0000
0000
0000
,  // measure 5
0000
0000
0000
0000
,  // measure 6
0000
0000
0000
0000
,  // measure 7
0010
0000
0020
0000
0000
0000
0030
2000
,  // measure 8
0000
0000
3000
0002
0000
0003
0020
0000
,  // measure 9
0000
0000
0030
0000
0200
0000
0000
0310
,  // measure 10
0010
0000
0002
0000
0000
0003
2000
0000
,  // measure 11
0000
3000
0010
0000
0010
0000
0110
0000
,  // measure 12
0110
0001
0001
1001
,  // measure 13
0000
1001
0010
0000
,  // measure 14
0110
0000
1001
0000
,  // measure 15
1100
0000
0110
0000
,  // measure 16
0011
0000
1100
0100
0110
0000
0001
1000
,  // measure 17
0001
1000
0010
0010
1100
0011
0000
0100
,  // measure 18
0100
0000
0010
0000
1010
1100
0001
0010
,  // measure 19
0001
0010
0100
0100
0010
1000
1000
0010
,  // measure 20
0001
0100
0200
0000
2300
0000
3010
0010
,  // measure 21
0010
0220
0330
2002
3003
0000
0010
0100
,  // measure 22
0010
0100
2000
0000
3001
0001
0000
0010
,  // measure 23
0200
0300
1000
1000
1000
0001
0001
0100
,  // measure 24
0010
0100
0000
0010
0020
0000
0030
0100
,  // measure 25
0010
0100
0010
0000
1010
0000
1100
0001
,  // measure 26
0001
0001
0010
0000
1010
0000
1100
0000
,  // measure 27
0010
0100
0010
0001
0001
0000
1000
0001
,  // measure 28
0001
0000
0200
0000
0320
0030
1000
1000
,  // measure 29
1000
1001
0110
0000
0110
0000
1000
0001
,  // measure 30
1000
0001
0001
0010
0110
0000
1000
0000
,  // measure 31
2200
3300
0010
0010
0100
0001
0001
0000
,  // measure 32
1001
0000
0010
0000
1010
0000
1100
0010
,  // measure 33
0010
0000
0100
0000
0101
0000
1001
0100
,  // measure 34
1100
0000
0010
0000
1010
0000
1100
0100
,  // measure 35
0010
0000
0011
0000
1000
1000
0010
0010
,  // measure 36
0000
0110
0000
0001
0010
0001
1000
0100
,  // measure 37
0000
0020
0000
0030
0000
0100
0100
0010
,  // measure 38
0001
2000
3000
0001
0001
0010
0100
0010
,  // measure 39
1000
0000
1100
0000
0010
0010
0100
0001
,  // measure 40
1000
0000
1100
0000
0100
0220
0000
0000
,  // measure 41
0330
0001
0010
0001
0010
0010
0100
0000
,  // measure 42
1100
0000
1000
0000
0001
0001
0010
0000
,  // measure 43
1010
0000
1000
0100
1100
0000
0100
0000
,  // measure 44
0110
0000
0002
0000
0000
0010
0003
0000
,  // measure 45
0020
0000
1000
1030
,  // measure 46
1000
0000
0100
0100
0010
0000
0010
0000
,  // measure 47
0001
0010
0000
1000
0100
0010
0100
0000
,  // measure 48
0110
0000
0002
0000
0003
1000
1000
0001
,  // measure 49
0000
0010
1100
0000
0010
0010
0100
0010
,  // measure 50
1000
0000
0001
0001
1000
0010
0100
0010
,  // measure 51
1000
1100
0010
1010
,  // measure 52
0110
0000
0002
0000
0003
0000
1000
1000
,  // measure 53
0010
0100
0010
0000
1000
0000
1100
0000
,  // measure 54
0100
0000
0110
0010
0000
0001
1000
0001
,  // measure 55
0010
0010
0000
0000
2000
3000
0010
0100
,  // measure 56
0010
0000
0110
0000
0000
0001
0001
0010
,  // measure 57
0100
0010
1000
1000
2002
0000
3003
0000
,  // measure 58
0010
0100
0000
0000
0010
0000
0110
0000
,  // measure 59
0100
0000
0000
0001
0001
0010
0100
0010
,  // measure 60
1000
0010
1010
1000
,  // measure 61
2200
0000
3300
0000
0010
0010
0000
0100
,  // measure 62
0010
1001
0000
0110
0000
1000
0100
1000
,  // measure 63
0100
0110
0001
0011
,  // measure 64
1000
0100
1000
0001
0000
0100
0000
0010
,  // measure 65
0010
0110
2002
3003
,  // measure 66
0010
0010
0100
0010
1000
0000
1000
0001
,  // measure 67
0010
0000
0100
0010
0100
0010
0100
0000
,  // measure 68
1100
0000
0001
0001
0000
0010
0100
0010
,  // measure 69
1000
1000
0001
0020
0000
0000
0030
0000
,  // measure 70
0000
0000
0000
0000
1100
0000
0000
0100
0000
0000
0220
0000
0000
0000
0000
0000
,  // measure 71
0330
0000
1001
0000
1000
0010
0010
0100
,  // measure 72
0010
2000
0000
0000
3000
0000
0001
0001
,  // measure 73
0000
1001
0000
0010
0010
0100
0010
1000
,  // measure 74
0100
0000
0110
0000
0000
0001
0001
0010
,  // measure 75
0100
0010
1000
0000
1000
0000
2020
0000
,  // measure 76
3030
0000
0010
0010
0100
0010
1000
0000
,  // measure 77
0001
0002
0000
0003
0000
0010
0000
0110
,  // measure 78
0000
0100
0100
0000
1000
1000
0002
0000
,  // measure 79
0010
0003
2100
0000
0000
3020
0000
0000
,  // measure 80
0230
0000
0000
0000
0001
0300
0010
0000
,  // measure 81
0010
0000
0002
0000
0000
0020
0003
0000
,  // measure 82
0100
0130
0000
1000
1000
0000
0010
0100
,  // measure 83
0010
0000
1001
0000
0100
0020
0000
0000
,  // measure 84
0000
0030
0000
0000
1000
1000
0010
0100
,  // measure 85
0002
0000
0003
0000
1000
1000
0010
0100
,  // measure 86
0010
0000
1010
1000
1000
0000
1100
0010
,  // measure 87
0110
0000
2002
0000
3003
0000
0010
0010
,  // measure 88
0100
0010
1000
0000
1000
0000
1100
0000
,  // measure 89
0010
0010
0100
0002
0000
1003
1000
0010
,  // measure 90
0100
0010
0000
0000
1000
0100
1100
0000
,  // measure 91
0001
0010
0002
0000
0003
1000
1000
0100
,  // measure 92
0010
0100
0110
0000
2020
0000
3030
0000
,  // measure 93
0010
0010
0100
0010
1000
0000
1000
0000
,  // measure 94
2002
0000
3003
0000
0010
0100
0010
0100
,  // measure 95
0010
0010
0100
1000
1010
0000
0100
0101
,  // measure 96
0000
2001
0100
3010
,  // measure 97
0110
0000
1000
1000
0000
0001
0010
0001
,  // measure 98
0010
0000
0110
0000
1000
1000
0010
0100
,  // measure 99
0010
0000
1010
0000
0001
0001
0010
0100
,  // measure 100
0010
0000
2020
0000
3030
0110
0000
0000
,  // measure 101
0100
0100
0001
0010
0001
1000
0000
1000
,  // measure 102
2020
0000
3030
0000
0100
0010
0100
0100
,  // measure 103
0010
0001
1000
0001
1000
0000
1100
0000
,  // measure 104
0110
0022
0033
0000
,  // measure 105
0000
0000
1000
0000
1100
0010
0220
0000
,  // measure 106
0330
0000
0001
0001
0000
1000
0001
1000
,  // measure 107
0100
0010
0220
0330
,  // measure 108
1000
2000
0000
0000
3010
0100
0010
0000
,  // measure 109
0011
0000
1001
0000
1100
0010
0220
0330
,  // measure 110
0220
0330
0000
0000
0002
1000
0100
0103
,  // measure 111
0000
0020
1000
0030
0000
0200
0000
0000
,  // measure 112
0310
0020
0000
0000
0030
2000
0000
0001
,  // measure 113
3001
0110
1010
1100
,  // measure 114
0110
0000
1001
0000
0001
0001
0010
0100
,  // measure 115
0010
0000
2010
0000
0000
0001
3001
0000
,  // measure 116
0010
0000
2020
3030
1000
0200
0300
0000
,  // measure 117
0000
0010
0010
0100
0010
1000
0001
1000
,  // measure 118
0002
0000
0003
0010
0010
0100
0010
0100
,  // measure 119
0000
2200
0000
3300
0010
0020
0030
0001
,  // measure 120
0002
0003
2002
0000
3003
1001
0000
0000
,  // measure 121
0000
1010
1100
0110
,  // measure 122
0001
1000
0001
0010
0010
0000
0110
1000
,  // measure 123
1000
1000
0010
0000
1010
0000
1100
0001
,  // measure 124
0001
0001
0010
0100
0010
0100
1000
1000
,  // measure 125
0010
0000
0002
0000
2003
0000
3010
0010
,  // measure 126
0110
0000
1001
0010
0100
0000
1000
1000
,  // measure 127
0010
0010
0010
0100
0010
0200
0000
0300
,  // measure 128
0010
0001
1000
0100
0100
0020
0000
0030
,  // measure 129
0010
0010
0001
1000
0001
2000
0000
0010
,  // measure 130
3010
0010
1000
0000
1100
0010
0110
1000
,  // measure 131
1000
1000
1001
0000
0011
0000
0110
1000
,  // measure 132
1000
1000
0001
0010
0100
0100
0010
0001
,  // measure 133
1000
0020
0000
0230
0000
0300
0001
0001
,  // measure 134
1001
0000
0110
0010
1010
0000
1000
0001
,  // measure 135
1000
0001
0001
1000
1100
0000
1010
0000
,  // measure 136
0010
0001
1000
0100
0100
0010
0010
0001
,  // measure 137
0001
0000
1100
0000
0110
0001
0011
0000
,  // measure 138
1000
0100
0020
0000
0130
0100
0000
0101
,  // measure 139
0000
0011
2000
0000
3010
0010
0100
0010
,  // measure 140
1000
0000
1001
0000
0010
0010
0100
0010
,  // measure 141
1000
0000
2200
3300
0010
0010
0001
1000
,  // measure 142
0001
0010
0220
0330
1000
0001
0001
0001
,  // measure 143
1000
0100
0010
0100
0010
0000
1010
0000
,  // measure 144
1100
0000
0001
0001
0010
0100
0010
0000
,  // measure 145
1100
0000
0110
0000
0011
0000
1000
1000
,  // measure 146
0020
0000
0130
0000
1000
1000
0001
0010
,  // measure 147
0100
0010
1000
0000
1100
0010
0010
0001
,  // measure 148
1000
0001
1000
0000
1100
0010
0010
1000
,  // measure 149
0001
1000
1020
0000
0030
0100
0100
0010
,  // measure 150
0010
0001
1000
0100
0020
0000
0030
0000
,  // measure 151
0100
0002
0000
1000
2003
0000
3000
0010
,  // measure 152
0010
0000
1000
0001
1000
0001
0010
0000
,  // measure 153
1010
0000
1000
1000
0010
0100
0001
0001
,  // measure 154
1000
0000
2200
0000
0000
0000
0300
0100
,  // measure 155
0020
0000
0032
0000
0000
3000
0000
0000
,  // measure 156
2003
0000
0000
0000
0010
0000
0010
0020
,  // measure 157
3000
0200
0000
0300
2000
0030
0000
0002
,  // measure 158
3003
0020
0200
0030
2300
0000
0002
0000
,  // measure 159
0000
3000
0000
0023
0000
0200
0030
0000
,  // measure 160
0000
0310
0020
0000
0000
1000
0000
0000
,  // measure 161
0200
0300
2000
0000
0000
0030
3002
0000
,  // measure 162
0000
0000
0010
0000
1000
0000
1003
0020
,  // measure 163
0100
0100
0100
1000
1000
1000
0000
0030
,  // measure 164
1000
0001
1002
1000
0010
0100
0013
1000
,  // measure 165
0002
2003
0000
0020
3000
0100
0100
0130
,  // measure 166
2000
0000
0001
0000
3001
0200
0010
0010
,  // measure 167
0010
0000
0001
0000
1300
0002
0000
0010
,  // measure 168
0000
1003
1000
0200
0000
0010
0310
0010
,  // measure 169
0002
0000
0100
0200
0003
0310
0000
0110
,  // measure 170
0100
0100
2002
0000
0000
0000
0000
0000
,  // measure 171
0000
0000
0000
0000
,  // measure 172
0000
0000
0000
0000
,  // measure 173
3003
0000
0000
0000
;
