#TITLE:Love 2 Shuffle;
#SUBTITLE:;
#ARTIST:BEMANI Sound Team "Sota F." feat. Starbitz;
#TITLETRANSLIT:;
#SUBTITLETRANSLIT:;
#ARTISTTRANSLIT:;
#GENRE:;
#CREDIT:;
#BANNER:Love 2 Shuffle.png;
#BACKGROUND:Love 2 Shuffle-bg.png;
#LYRICSPATH:;
#CDTITLE:;
#MUSIC:Love 2 Shuffle.mp3;
#OFFSET:0.000000;
#SAMPLESTART:79.849625;
#SAMPLELENGTH:7.218040;
#SELECTABLE:YES;
#BPMS:0.000000=133.000000
;
#STOPS:
;
#BGCHANGES:;
#KEYSOUNDS:;
#ATTACKS:;

//---------------dance-single - ----------------
#NOTES:
     dance-single:
     :
     Hard:
     14:
     0.737020,0.752856,0.774696,0.354382,0.473883,626.000000,532.000000,94.000000,43.000000,0.000000,0.000000,0.737020,0.752856,0.774696,0.354382,0.473883,626.000000,532.000000,94.000000,43.000000,0.000000,0.000000:
0000
0000
0000
0000
,
0000
0000
0000
0000
,
0000
0000
0000
0000
1001
0000
0101
0100
,
0010
0000
0000
1000
0010
0000
0000
0000
0100
0000
0001
0000
0000
0000
1000
0001
0000
0000
0011
0000
0000
0100
0010
0000
,
0100
0110
2002
3003
0110
0000
1010
0010
,
1000
0000
0000
0001
0100
0000
0000
0000
0010
0000
1000
0000
0000
0000
0010
0100
0000
0000
1010
0000
0000
0001
0100
0000
,
0001
0011
0220
0330
1100
0000
1001
0001
,
0100
0000
0000
0010
0100
0000
0000
0000
0010
0000
1000
0000
0000
0000
0100
0010
0000
0000
0011
0000
0000
0000
0001
0000
,
1000
0100
0220
0330
0012
0010
1000
1000
,
0100
0100
1000
1003
2010
0010
0001
0001
,
0100
0000
0100
0000
0001
0000
3001
0000
0100
0001
0100
0001
0100
0001
0100
0001
,
0000
0010
1000
0010
1000
0010
1000
0010
1000
0000
1100
0000
0001
0000
0101
0000
,
0010
0000
0100
0010
0000
0000
2002
0000
0000
3003
0000
0000
0001
0000
0000
0010
0000
0000
0110
0000
0000
0010
0001
0000
,
0000
0000
0010
0001
0000
0000
0100
0000
0000
0101
0000
0000
0010
0000
0000
1000
0000
0000
1100
0000
0100
1000
0000
0000
,
0010
0000
0000
0100
0010
0000
0000
0000
1000
0001
0000
0000
1000
0000
0000
0100
0000
0000
0110
0000
0000
1000
0100
0000
,
0000
0000
1000
0100
0000
0000
0010
0000
0000
0100
1000
0000
0001
0000
0000
0100
0000
0000
0010
0000
0000
1000
0000
0000
,
0001
0000
1000
0001
1000
0000
0100
0000
0010
0100
0010
0000
0002
0000
0000
0000
0000
0000
0103
0000
0000
0010
1000
0000
,
0000
0000
0001
1000
0000
0000
0100
0000
0000
0110
0000
0000
0010
0000
0000
0001
0000
0000
0101
0000
0001
0010
0000
0000
,
0100
0000
0000
0010
0100
0000
0000
0000
1000
0001
0000
0000
0010
0000
0000
0100
0000
0000
1001
0000
0000
0100
0010
0000
,
0000
0000
0010
0100
0000
0000
0010
0000
0000
1000
0001
0000
1000
0000
0000
0100
0000
0000
0001
0000
0100
1000
0000
0000
,
0001
0000
0000
0100
0010
0000
0200
0000
0000
0000
0000
0000
0301
0000
0000
0010
0000
0000
1100
0000
0000
0101
0000
0000
,
1000
0000
0000
0010
0000
0000
0101
0000
0000
1100
0000
0000
0010
0000
0100
0000
1000
0000
0001
0000
1000
0001
0000
0000
,
0100
0000
0000
0001
0000
0000
0010
0000
0100
1000
0000
0000
0001
0000
0000
0100
0000
0000
1010
0000
0000
0011
0000
0000
,
1000
0000
0000
0100
0000
0000
0011
0000
0000
1010
0000
0000
0100
0000
0010
0000
0001
0000
0010
0000
0001
1000
0000
0000
,
0200
0000
0000
1000
0000
0000
0010
0000
0000
0301
0000
0000
0220
0000
0000
0330
0000
0000
1001
0000
0001
0100
0000
0000
,
0010
0000
0000
1000
0000
0000
1100
0000
0000
0110
0000
0000
0010
0000
0001
0000
0100
0000
0010
0000
0100
0010
0000
0000
,
1000
0000
0000
0001
0000
0000
0010
0000
0100
1000
0000
0000
0001
0000
0000
0100
0000
0000
0010
0000
1000
0001
0000
0000
,
2002
0000
3003
0000
2002
0000
3003
0000
0000
0020
0000
0000
1030
0000
0100
0000
0010
0000
0100
0000
0001
0100
1000
0000
,
0001
1001
0200
0000
0301
0010
1000
0010
,
0001
0010
0100
0000
1200
0310
0201
0310
,
1200
0000
0000
0310
0000
0000
0201
0000
0000
0310
0000
0000
0100
0000
0000
1000
0001
0000
0000
0000
0100
0001
0000
0000
,
1000
0000
0000
0001
1000
0000
0000
0000
0100
1000
0000
0000
0010
0000
0000
0100
0000
0000
0001
0000
0100
0001
0000
0000
,
1000
0000
0010
1000
0001
0000
0010
0000
0100
1000
0010
0000
0200
0000
0000
0000
0000
0000
0310
0000
0000
0000
0000
0000
,
1000
0010
0001
0000
1020
0130
0021
0130
,
1020
0000
0000
0130
0000
0000
0021
0000
0000
0130
0000
0000
0010
0000
0000
1000
0010
0000
0000
0000
0100
0001
0000
0000
,
0010
0000
0000
0001
0010
0000
0000
0000
0100
1000
0000
0000
0002
0000
0000
0000
0000
0000
0010
0000
0000
0000
0000
0000
,
1000
0000
0103
0000
0110
0000
1000
0010
,
0100
0000
1000
0010
0100
0000
1010
0000
,
1000
0100
0001
0100
1000
0000
0001
0010
,
0100
0000
0001
0010
0100
0000
0011
0100
,
0001
0100
1000
0100
0010
0000
1100
0001
,
0010
0000
0101
1000
0010
0000
1010
0001
,
0100
0000
0000
0000
0011
0000
1000
0000
0100
0010
0100
0010
0100
0010
0100
0010
,
0001
1000
0001
1000
0001
1000
0001
1000
0000
0000
0000
0000
1000
0000
0000
0000
,
1001
0000
0010
0100
0101
0001
1100
1000
,
0101
0000
0000
0010
0000
0000
1100
0000
0000
0010
0000
0000
1001
0000
0110
1001
0000
0000
0000
0000
0010
0100
0000
0000
,
0010
0000
1000
0100
0000
0000
2100
0000
0000
0000
0000
0000
3010
0000
0000
0001
0000
0000
1200
0000
0000
0000
0000
0000
,
1300
0000
0000
0100
0000
0000
0001
0000
0000
1000
0001
0000
0000
0000
1000
0001
0000
0000
0010
0000
0000
0100
0000
0000
,
0010
0000
0100
0010
0000
0000
0011
0000
0000
0001
0000
0000
1010
0000
0000
1000
0000
0000
0011
0000
0000
0100
0000
0000
,
1010
0000
0000
0100
0000
0000
0110
0000
0000
0000
1001
0000
0000
0000
0000
0110
0000
0000
0000
0000
0010
0100
0000
0000
,
0100
0000
0000
0000
0000
0000
0000
0000
0000
0100
0001
0000
0102
0000
0000
0003
0000
0000
0010
0000
0000
1000
0000
0000
,
0201
0000
0000
0000
0000
0000
0301
0000
0000
0010
0000
0000
1000
0000
0000
0001
1000
0000
0000
0000
0001
1000
0000
0000
,
0010
0100
0110
0000
0201
0000
1000
0000
,
0301
0000
1000
0100
0001
0100
1000
0010
,
0001
0010
0110
0000
0010
1000
0100
0010
,
0001
0100
0010
1000
0100
0001
0010
1000
,
0100
0001
0010
0100
0110
0000
0001
0100
,
0001
0000
0000
1000
0000
0000
0100
0000
1000
0100
0010
0000
0001
0000
0000
0100
0000
0000
0001
0000
0000
0010
0000
0000
,
0100
0000
0000
1000
0000
0000
0001
0000
1000
0001
1000
0000
0010
0000
0000
0100
0000
0000
1010
0000
0000
1000
0000
0000
,
0100
0000
0000
0010
0000
0000
0011
0000
0010
1000
0000
0000
0110
0000
0000
0000
1001
0000
0000
0000
0000
0110
0000
0000
,
0010
0000
1000
0100
0010
0000
0002
0000
0000
0000
0000
0000
2003
0000
0000
0000
3000
0000
0220
0000
0000
0330
0002
0000
,
2003
0000
3002
0000
0003
0000
1001
0000
0000
0000
0000
0000
0001
0000
0000
0010
0000
0000
0110
0000
0100
1000
0000
0000
,
1000
0000
0000
0010
0000
0000
0110
0000
0100
0001
0000
0000
0001
0000
0000
0010
0000
0000
1001
0000
0010
1000
0000
0000
,
1000
0000
0000
0010
0000
0000
1001
0000
0010
0001
0001
0000
0100
0000
0000
1000
0100
0000
0001
0000
0000
1000
0010
0000
,
0001
0000
0000
0001
0010
0000
1000
0000
0000
0100
0010
0000
0001
0000
0000
0101
0000
0000
1000
0000
0000
1100
0000
0000
,
0010
0110
1001
0000
0000
0000
0000
0000
;

//---------------dance-single - ----------------
#NOTES:
     dance-single:
     :
     Medium:
     10:
     0.566305,0.591529,0.568659,0.337899,0.057690,481.000000,412.000000,69.000000,41.000000,0.000000,0.000000,0.566305,0.591529,0.568659,0.337899,0.057690,481.000000,412.000000,69.000000,41.000000,0.000000,0.000000:
0000
0000
0000
0000
,
0000
0000
0000
0000
,
0000
0000
0000
0000
1001
0000
0101
0100
,
0010
1000
0010
0100
0001
0000
0011
0100
,
0010
0110
2000
3000
0110
0000
1010
0010
,
1000
0000
0000
0001
0000
0000
0001
0000
0000
0000
0100
0000
0000
0000
0100
0000
0000
0000
1010
0000
0000
0001
0000
0000
,
0001
0010
0020
0030
1100
0000
1001
0001
,
0100
0000
0000
0010
0000
0000
0000
0000
0010
0000
0000
0000
0000
0000
0100
0010
0000
0000
0011
0000
0000
0001
0000
0000
,
1000
0100
0200
0300
0012
0013
1000
1000
,
0100
0100
1000
1000
0210
0310
0001
0001
,
0100
0100
0001
0001
0100
0100
0100
0100
,
0000
0010
0010
0010
0010
0001
0100
0010
,
0000
1000
2002
3003
0001
0010
0100
0010
,
0000
0000
0001
0000
0100
0010
0100
0000
0000
0000
1000
0000
0001
0000
1000
0000
,
0010
0100
0000
0001
1000
0100
0110
1000
,
0000
0100
0010
0100
0001
0100
0010
1000
,
0001
0000
0001
0000
0100
0010
0100
0000
0002
0000
0000
0000
0103
0000
0010
0000
,
1000
1000
0100
0010
0010
0001
0101
0010
,
0100
0000
1000
0001
0010
0100
1001
0100
,
0000
0000
0010
1000
1000
0100
0001
1000
,
0001
0000
0200
0000
0301
0000
1100
0011
,
1000
0000
0101
0000
0010
0000
0001
0001
,
1000
0001
1000
0001
0001
0100
1010
0000
,
1000
0100
0011
0000
0100
0000
0010
1000
,
0200
0010
0010
0301
0220
0330
1001
1000
,
0010
0000
1100
0110
0010
0000
0010
0010
,
1000
0001
0010
1000
0001
0100
0010
0001
,
2002
0000
3003
0000
2002
0000
3003
0000
0000
0020
0000
0000
1030
0000
0000
0000
0000
0000
0100
0000
0000
0100
0000
0000
,
0001
1001
0200
0000
0301
0010
1000
0010
,
0001
0010
0100
0000
0200
0310
0200
0310
,
0200
0310
0200
0310
1000
1000
0000
0001
,
1000
0000
0001
0000
0000
0000
1000
0000
0010
0000
0100
0000
0001
0010
0001
0000
,
1000
0100
1000
0000
0010
0000
1000
0000
0200
0000
0000
0000
0310
0000
0000
0000
,
1000
0010
0001
0000
0020
0130
0020
0130
,
0020
0130
0020
0130
0010
1000
0000
0001
,
0100
0001
0000
1000
0002
0000
0010
0000
,
1000
0000
0103
0000
0110
0000
1000
0010
,
0100
0000
1000
0010
0100
0000
1010
0000
,
1000
0010
0001
0010
1000
0000
0001
0010
,
0100
0000
0001
0010
0100
0000
1001
0100
,
0001
0100
1000
0100
0010
0000
1100
0001
,
0010
0000
0101
1000
0010
0000
1010
0001
,
0100
0000
0011
0000
0100
0100
0100
0100
,
0010
0010
0010
0010
0010
0000
1000
0000
,
1001
0010
0101
1100
,
0101
0010
1100
0010
1001
1001
0000
0100
,
0020
0000
0030
0000
0010
0001
1200
0000
,
1300
0001
0001
1000
0000
0001
0010
0100
,
0020
0000
0031
0001
1010
0000
0010
0100
,
1010
0100
0110
0000
1001
0110
0000
0100
,
0100
0000
0000
0100
0102
0003
0010
1000
,
0201
0000
0301
0010
1000
0001
0000
0001
,
0000
0110
0201
1000
,
0301
0000
1000
0100
0001
0100
1000
0000
,
0001
0010
0110
0000
0010
1000
0100
0010
,
0001
0000
0010
1000
0100
0001
0010
0000
,
0100
0001
0000
0100
0110
0000
0001
0100
,
0001
0000
1000
0000
0100
1000
0100
0000
0001
0000
0100
0000
0001
0000
0010
0000
,
0100
0000
0000
1000
0000
0000
0001
0000
1000
0001
0000
0000
0010
0000
0000
0100
0000
0000
1010
0000
0000
1000
0000
0000
,
0100
0000
0000
0000
0000
0000
0011
0000
0000
0010
0000
0000
0110
0000
0000
0000
1001
0000
0000
0000
0000
0110
0000
0000
,
0010
0000
0000
0100
0000
0000
0002
0000
0000
0000
0000
0000
2003
0000
0000
0000
3000
0000
0220
0000
0000
0330
0002
0000
,
2003
0000
3002
0000
0003
0000
1001
0000
0000
0000
0000
0000
0001
0000
0000
0010
0000
0000
0110
0000
0000
1000
0000
0000
,
1000
0010
0110
0001
0001
0010
1001
1000
,
1000
0010
1001
0001
0100
1000
0001
1000
,
0001
0001
1000
0100
0001
0101
1000
1100
,
0010
0110
1001
0000
0000
0000
0000
0000
;

//---------------dance-single - ----------------
#NOTES:
     dance-single:
     :
     Beginner:
     2:
     0.231938,0.323889,0.247243,0.049449,0.000000,197.000000,167.000000,30.000000,6.000000,0.000000,0.000000,0.231938,0.323889,0.247243,0.049449,0.000000,197.000000,167.000000,30.000000,6.000000,0.000000,0.000000:
0000
0000
0000
0000
,
0000
0000
0000
0000
,
0000
0000
0001
0001
,
0000
0100
0100
0000
,
1000
1001
0010
0000
,
1000
0010
0000
0100
,
0100
0000
1001
0000
,
0100
0010
0010
0000
,
1000
1001
0010
0000
,
0100
0000
1000
0001
,
1000
0000
0010
0100
,
0010
0000
0100
0100
,
0000
1000
1001
0000
,
0010
0010
1000
0000
,
0001
0010
0010
0000
,
0100
0010
1000
0000
,
0100
0100
0000
0010
,
0000
0100
0000
0001
,
0001
0000
1000
0000
,
0000
0100
0000
0000
,
1000
0010
0110
0001
,
0000
0100
0000
0010
,
0000
0100
0000
0010
,
0000
0001
0000
1000
,
0001
0002
0003
1001
,
0000
0010
0000
0100
,
0000
0010
0000
1000
,
0000
1001
0000
0010
,
0000
0110
0000
0100
,
0000
0010
0000
1000
,
0000
0001
0000
0010
,
0000
0100
0000
0100
,
0000
0000
0001
1001
,
0000
1000
0000
0010
,
0000
0100
0000
0100
,
0000
0001
0000
0010
,
0010
1000
1001
0000
,
0010
0010
0000
1000
,
1000
0000
0001
0010
,
0000
0100
0100
0000
,
0001
0000
1001
0010
,
0010
0010
0010
0010
,
0010
0010
0010
0020
,
0000
0030
1000
1001
,
1001
1001
0000
0010
,
0000
0001
1000
0002
,
0003
0000
1001
0000
,
0110
0001
1000
0001
,
0000
0000
0001
1000
,
0000
0010
0010
0100
,
1001
0000
0001
1001
,
0010
0110
1000
2002
,
0000
3003
0020
0000
,
0000
0100
0000
0130
,
0000
1000
0001
1000
,
0000
1000
0001
0000
,
1001
0000
0010
0110
,
1000
1001
0010
0100
,
0100
0001
0000
1000
,
0000
0010
0110
0010
,
0000
0000
1001
1000
,
1001
0000
1001
0010
,
0010
0010
0010
0010
,
0010
0010
0110
0000
,
1001
0000
0100
0010
,
0001
1000
1001
0000
;

//---------------dance-single - ----------------
#NOTES:
     dance-single:
     :
     Easy:
     6:
     0.361446,0.458842,0.362623,0.090656,0.000000,307.000000,263.000000,44.000000,11.000000,0.000000,0.000000,0.361446,0.458842,0.362623,0.090656,0.000000,307.000000,263.000000,44.000000,11.000000,0.000000,0.000000:
// measure 0
0000
0000
0000
0000
,  // measure 1
0000
0000
0000
0000
,  // measure 2
0000
0000
0001
0001
,  // measure 3
0010
0100
0100
0001
,  // measure 4
1000
1001
0010
0010
,  // measure 5
1000
0010
0010
1000
,  // measure 6
2000
3000
1001
1000
,  // measure 7
0100
0000
0010
0100
0010
0000
0100
0000
,  // measure 8
1000
1001
0010
0010
,  // measure 9
0100
0010
0100
0000
0001
0000
0001
0000
,  // measure 10
1000
0010
1000
0000
0001
0000
0001
0000
,  // measure 11
0001
1000
0001
0000
0100
0010
0100
0000
,  // measure 12
0110
1000
1001
0000
,  // measure 13
0010
0010
1000
0100
,  // measure 14
0001
0010
0010
0110
,  // measure 15
0100
0000
0010
0000
1000
0001
0000
0000
,  // measure 16
0100
0000
0100
0001
0010
0000
0010
0000
,  // measure 17
0000
0000
0100
0000
0100
0000
0001
1000
,  // measure 18
0001
0000
0000
0001
1000
0000
1000
0000
,  // measure 19
0010
0100
0100
0001
,  // measure 20
1000
0010
0110
0001
,  // measure 21
0001
0000
0100
0010
0100
0000
0001
0000
,  // measure 22
1000
0100
0100
0010
,  // measure 23
1000
0001
0010
1000
,  // measure 24
0001
0002
0003
1001
,  // measure 25
1000
0011
0100
1100
,  // measure 26
0010
0000
0110
0001
0000
0000
1000
0000
,  // measure 27
1000
0000
1001
0000
0100
0000
0010
0010
,  // measure 28
0100
0000
0110
0000
0000
0100
0100
0000
,  // measure 29
0001
0010
0110
1000
,  // measure 30
2000
0000
3001
0010
0000
0000
0110
0000
,  // measure 31
0000
1000
0100
0000
0010
0000
0100
0010
,  // measure 32
0100
0010
0001
1001
,  // measure 33
0100
0000
0110
0000
0100
0010
0010
0000
,  // measure 34
0000
0100
0001
0100
,  // measure 35
0010
2002
3003
0010
,  // measure 36
0010
1000
1001
0110
,  // measure 37
1000
0001
0000
0100
0010
0000
1000
0000
,  // measure 38
1000
0000
0001
0000
1001
0000
0000
0010
,  // measure 39
0010
0100
0110
0001
,  // measure 40
1001
0000
1000
0000
1001
0000
0100
0100
,  // measure 41
0001
0001
1000
1000
0100
0100
0001
0001
,  // measure 42
1000
1000
0001
0001
0100
0000
0020
0000
,  // measure 43
0000
0030
1000
1001
,  // measure 44
1001
1001
1000
0001
,  // measure 45
1000
0001
1000
0002
,  // measure 46
0003
1000
1001
0010
,  // measure 47
0110
0001
1000
0001
,  // measure 48
0002
0000
0003
0000
1000
0001
1000
0000
,  // measure 49
0100
0010
0010
0100
,  // measure 50
1001
0000
0001
1001
,  // measure 51
0010
0110
1000
2002
,  // measure 52
0000
3003
0020
0000
,  // measure 53
0000
0100
1000
0130
,  // measure 54
0000
1000
0001
0001
,  // measure 55
1001
1000
0010
0000
,  // measure 56
1001
1000
0010
0110
,  // measure 57
1000
0000
1001
0000
0010
0000
0100
0010
,  // measure 58
0100
0001
1000
1000
,  // measure 59
0100
0010
0110
0010
,  // measure 60
0100
0000
1001
1000
,  // measure 61
1001
0000
0001
0000
1001
0000
0010
0010
,  // measure 62
0100
0100
0001
0001
1000
1000
0100
0100
,  // measure 63
0001
0001
0100
0000
0110
0000
1000
0000
,  // measure 64
1001
0000
1000
0000
0100
0010
0100
0000
,  // measure 65
0001
1000
1001
0000
;
