#TITLE:Lacrima Mosa Est;
#SUBTITLE:;
#ARTIST:Gabba front Berlin;
#TITLETRANSLIT:;
#SUBTITLETRANSLIT:;
#ARTISTTRANSLIT:;
#GENRE:;
#CREDIT:PaperBox440;
#BANNER:Lacrima Mosa Est.png;
#BACKGROUND:Lacrima Mosa Est-bg.png;
#LYRICSPATH:;
#CDTITLE:;
#MUSIC:Lacrima Mosa Est.mp3;
#OFFSET:0.000000;
#SAMPLESTART:158.475006;
#SAMPLELENGTH:15.824997;
#SELECTABLE:YES;
#BPMS:0.000000=200.000000
;
#STOPS:
;
#BGCHANGES:;
#KEYSOUNDS:;
#ATTACKS:;

//---------------dance-single - ----------------
#NOTES:
     dance-single:
     :
     Hard:
     12:
     0.667044,0.863375,0.866940,0.433470,0.039925,1228.000000,1000.000000,228.000000,114.000000,0.000000,0.000000,0.667044,0.863375,0.866940,0.433470,0.039925,1228.000000,1000.000000,228.000000,114.000000,0.000000,0.000000:
// measure 0
0000
0000
0000
0000
,  // measure 1
0000
0000
0000
0000
,  // measure 2
0000
0000
0000
0000
,  // measure 3
0000
0000
0000
0000
,  // measure 4
0000
0000
0000
0000
,  // measure 5
0000
0000
0000
0000
,  // measure 6
0000
0000
0000
0000
,  // measure 7
0000
0100
0100
0010
,  // measure 8
2000
3000
0010
0002
,  // measure 9
0003
0100
2000
3000
,  // measure 10
0010
1000
0010
0100
,  // measure 11
0001
0020
0030
1000
,  // measure 12
0002
0003
0010
1000
,  // measure 13
2000
3000
0010
0100
,  // measure 14
0100
1000
0010
0002
,  // measure 15
0003
0100
0200
0300
,  // measure 16
0010
2000
3000
0001
,  // measure 17
0010
0100
1100
1000
,  // measure 18
1001
0001
0011
0010
,  // measure 19
1010
1000
1100
0110
,  // measure 20
0000
0001
0001
0000
0011
0000
0010
0000
,  // measure 21
1010
0000
1000
0000
0001
0000
0100
0100
,  // measure 22
0001
1001
1000
0100
,  // measure 23
0110
0000
0001
0010
0010
0000
1001
0000
,  // measure 24
0010
1000
1100
0100
,  // measure 25
0110
0010
0011
0001
,  // measure 26
0110
0000
0100
0000
1100
0000
1000
0001
,  // measure 27
0001
0011
0110
1100
,  // measure 28
1001
0000
0011
0010
0110
0000
1010
0000
,  // measure 29
1100
1001
0101
0110
,  // measure 30
1010
1000
1001
0000
0110
0000
1010
0000
,  // measure 31
0110
0011
0110
1100
,  // measure 32
1010
0011
0110
1100
,  // measure 33
1001
0000
0011
0010
0110
0000
1010
0000
,  // measure 34
1001
0011
0110
1100
,  // measure 35
1001
0001
0011
0000
1010
0000
0110
0000
,  // measure 36
0011
0000
1001
0000
0110
0000
1010
1000
,  // measure 37
1001
0011
1100
0110
,  // measure 38
0101
1100
0110
0011
,  // measure 39
0110
1100
1001
0101
,  // measure 40
0110
0100
1100
0000
0110
0000
0011
0000
,  // measure 41
1010
0000
0110
0000
1100
0000
1001
0001
,  // measure 42
0011
0110
1100
1001
,  // measure 43
0101
0000
0110
0000
1010
1000
1001
0000
,  // measure 44
0011
1100
1010
0110
,  // measure 45
0011
1001
1100
1010
,  // measure 46
0110
0000
0011
0000
1001
0000
1100
0100
,  // measure 47
0101
0110
0011
0110
,  // measure 48
1100
0000
0110
0010
0011
0000
1100
0000
,  // measure 49
1001
0011
0101
0110
,  // measure 50
1010
1000
1100
0000
1010
0000
0011
0000
,  // measure 51
0110
0000
0000
0000
1100
0000
0000
0000
0011
0000
0000
0000
0110
0000
2000
3000
,  // measure 52
0000
0000
2020
3030
0000
0000
0202
0303
0000
0000
0022
0033
0000
0000
2200
3300
,  // measure 53
0000
0000
0000
0010
0110
0000
0000
0000
,  // measure 54
0000
1001
0000
0000
,  // measure 55
0010
0010
0010
0000
0000
1001
0000
0000
,  // measure 56
0000
0000
0000
0000
0100
0000
0010
0110
,  // measure 57
0000
0000
0000
1001
,  // measure 58
0000
0110
0000
0000
1001
0000
1001
0000
,  // measure 59
0000
0000
0000
0000
0000
0000
0000
0100
,  // measure 60
0100
0110
0001
0001
,  // measure 61
0001
0100
0001
0000
0010
0010
1010
0000
,  // measure 62
0010
0000
0010
1000
0010
0000
0010
0000
,  // measure 63
0010
0000
0100
0100
0101
0000
0001
0000
,  // measure 64
0001
0000
0001
1000
0001
0000
0001
0000
,  // measure 65
0001
0100
0001
0000
2002
0000
0000
0000
,  // measure 66
0000
3003
0000
0000
,  // measure 67
0100
0010
0010
2000
,  // measure 68
3001
0100
0010
0002
,  // measure 69
1003
0010
2000
3001
,  // measure 70
0010
0100
0110
0001
,  // measure 71
0100
2000
3001
0100
,  // measure 72
0020
0130
0010
2000
,  // measure 73
3001
0100
0001
0010
,  // measure 74
0100
1000
0200
0310
,  // measure 75
0001
2000
3001
0010
,  // measure 76
0200
1300
0000
0000
,  // measure 77
0010
0000
0000
0110
,  // measure 78
0000
0000
1001
1001
,  // measure 79
1001
0000
0010
0110
0001
0000
0010
1000
,  // measure 80
1001
0000
0010
0100
1000
0001
0010
0001
,  // measure 81
0100
0100
0010
1000
0100
1000
0001
1000
,  // measure 82
0001
0100
0010
0010
1000
0100
1001
0010
,  // measure 83
0100
0000
0011
0100
0100
0011
1000
0100
,  // measure 84
0001
0001
1000
0100
1000
0010
0100
0100
,  // measure 85
0001
1000
0010
1000
0100
0001
0010
0100
,  // measure 86
1000
0000
0110
0000
0001
1000
0100
0010
,  // measure 87
0001
0100
1000
0000
1000
0001
0100
0010
,  // measure 88
0010
1000
0100
1000
0001
0000
0001
0100
,  // measure 89
0010
1000
1000
0000
1100
0010
0001
0110
,  // measure 90
0000
1000
0011
0001
0100
0010
1000
0100
,  // measure 91
1000
0010
0001
0100
0010
1000
0100
0100
,  // measure 92
0010
0001
0010
0100
1000
0000
1001
0100
,  // measure 93
0010
0000
0000
0000
0110
0000
0000
0000
0000
0000
0001
0010
0001
0000
0100
0000
,  // measure 94
1000
0010
0010
0001
0100
0010
1000
0100
,  // measure 95
1000
0000
0010
0000
0001
0000
0001
0000
0100
0000
0010
0000
1000
0100
1000
0000
,  // measure 96
0011
0100
0000
1100
0010
0001
1010
0001
,  // measure 97
0100
0000
0010
0000
1000
0001
0100
0000
1000
0000
0001
0000
0100
0000
0010
0000
,  // measure 98
0010
0000
1000
0000
0100
0001
1000
0000
0010
0000
0001
0000
0100
0000
0100
0000
,  // measure 99
0010
0000
1000
0000
0100
0000
1000
0000
0010
0000
0001
0100
0001
0000
2200
0000
,  // measure 100
3300
0000
0000
0000
0010
0000
0010
0000
0010
0000
1000
0000
0100
0000
0001
0100
,  // measure 101
0001
0000
0010
0000
1000
0000
0100
0000
0010
0000
0100
0000
0100
0000
0001
1000
,  // measure 102
0001
0010
0100
1000
0100
0100
0011
1000
,  // measure 103
0001
0110
0000
1000
0010
0100
0110
0001
,  // measure 104
1000
0000
0100
0000
1000
0000
0010
0001
0010
0000
0100
0000
0100
0000
0001
0000
,  // measure 105
0010
0100
0010
0000
1000
0000
0100
0000
1000
0000
0010
0000
0001
0000
0001
0000
,  // measure 106
0010
2200
3300
0000
0110
0000
0020
0000
,  // measure 107
0130
0000
1000
0000
,  // measure 108
1000
0000
0001
0000
,  // measure 109
0010
0000
0100
0002
,  // measure 110
0000
0003
1000
0000
,  // measure 111
0010
0000
0010
0000
,  // measure 112
0100
0000
1000
0000
,  // measure 113
0200
0000
0300
0000
,  // measure 114
0001
0000
0010
0000
,  // measure 115
1000
0000
0000
0100
,  // measure 116
0000
1000
0020
0000
,  // measure 117
0030
0100
0000
0010
,  // measure 118
0000
1000
0000
0100
,  // measure 119
0000
0000
0010
0000
0000
2000
0000
0000
,  // measure 120
0000
3000
0000
0000
0010
0000
0000
0000
,  // measure 121
0010
0000
0000
0100
,  // measure 122
0000
0000
1000
0000
,  // measure 123
0200
0000
0000
0000
0000
0300
0000
0000
,  // measure 124
0001
0000
0010
0000
,  // measure 125
1000
0000
0010
0000
,  // measure 126
0100
0000
0002
0000
,  // measure 127
1003
0000
0000
0000
,  // measure 128
0000
0000
0000
0000
,  // measure 129
0000
0110
0000
0000
,  // measure 130
0000
0000
0000
0000
,  // measure 131
0000
0000
0000
0000
,  // measure 132
0000
1000
1000
0100
0010
0100
0001
0001
,  // measure 133
0010
1000
0100
1000
0010
0100
0100
0001
,  // measure 134
1000
0010
0100
0000
1001
0010
0100
1001
,  // measure 135
0000
0010
1100
0010
0001
0010
0100
0010
,  // measure 136
1000
0001
1000
0010
1000
0100
1000
0010
,  // measure 137
0010
1000
0100
0010
0001
0001
1000
0100
,  // measure 138
1000
0010
0100
0000
0100
0010
0001
0100
,  // measure 139
1000
0010
0100
0010
0100
1000
0001
0100
,  // measure 140
1000
0010
0001
0010
0100
0100
1000
0010
,  // measure 141
0010
0000
1001
0010
0010
1100
0000
0001
,  // measure 142
0110
0000
1000
1000
0010
0100
0001
0010
,  // measure 143
0010
1000
0100
1000
0010
0100
0001
1000
,  // measure 144
0010
0010
0100
0001
1000
0100
1000
0010
,  // measure 145
0110
0000
0000
0000
0000
0000
0000
0000
1000
0010
1000
0000
0100
0000
1000
0000
,  // measure 146
0001
0000
0001
0100
0010
0000
0100
0000
0010
0000
0001
0000
0100
0000
1000
0010
,  // measure 147
1000
0000
0100
0000
0010
0000
0010
0000
0001
1000
0100
0000
1000
0000
1000
0000
,  // measure 148
0011
0100
0000
1010
0001
0010
0100
1000
,  // measure 149
1001
0000
0010
0000
0100
1000
0010
0000
0001
0000
0001
0000
1000
0000
0100
0000
,  // measure 150
0010
0000
0010
0100
0001
0000
1000
0000
0100
0000
1000
0000
0010
0100
0010
0000
,  // measure 151
0001
0000
0010
0000
0100
0000
1000
0000
1000
0010
0000
0000
2002
0000
3003
0000
,  // measure 152
0010
0000
0010
0000
0001
0100
1000
0000
0100
0000
1000
0000
0010
0100
0010
0000
,  // measure 153
0001
0000
0100
0000
0010
0000
1000
0000
1000
0010
0001
0000
0100
0000
0010
0000
,  // measure 154
0001
0000
0010
0000
0100
0000
1000
0001
1000
0000
0000
0000
0011
0000
0100
0000
,  // measure 155
0000
1010
0100
0001
1100
0000
0010
0010
,  // measure 156
1000
0100
1000
0001
0001
0010
0100
0010
,  // measure 157
1000
1000
0001
0010
0100
0001
1000
0100
,  // measure 158
0011
0000
0110
0000
2020
3030
0001
0001
,  // measure 159
0020
0130
2000
3100
0020
0031
2000
3010
,  // measure 160
0200
0301
0020
0030
1000
0001
0100
1000
,  // measure 161
0001
0010
1000
0100
0010
1000
0001
0010
,  // measure 162
0010
0020
0030
2000
3100
0001
0020
0130
,  // measure 163
1000
0002
0103
0010
2000
3000
0020
0130
,  // measure 164
0001
2000
3010
0200
0301
0000
0020
0031
,  // measure 165
2200
3300
0000
0000
0010
0010
1000
0100
,  // measure 166
0001
0001
0010
1000
0100
0010
0100
0100
,  // measure 167
0001
1000
0010
0100
0100
0001
1000
0100
,  // measure 168
0011
0000
0100
1010
0001
0100
1001
0000
,  // measure 169
0010
0100
0010
1000
0100
0002
1003
0020
,  // measure 170
2030
3100
0012
0003
0100
1000
0020
0030
,  // measure 171
0020
0030
0020
0130
0000
0001
0200
0310
,  // measure 172
1000
2000
3001
0010
0200
1300
0010
0002
,  // measure 173
0013
0100
2000
3010
0100
0020
0031
1000
,  // measure 174
2000
3100
0002
0003
1001
0000
0010
0200
,  // measure 175
0300
1000
0002
0003
0200
0310
1000
0010
,  // measure 176
0020
0030
0001
2100
3000
0010
0010
0200
,  // measure 177
0300
0001
0010
2100
3000
0010
0201
0300
,  // measure 178
1020
0030
0001
0010
0200
1300
0001
0210
,  // measure 179
0300
1000
0010
0002
0003
0120
1030
0100
,  // measure 180
0012
0003
2010
3000
0100
1020
0030
0010
,  // measure 181
0201
0300
2000
3000
0011
0200
0300
0110
,  // measure 182
2000
3000
0011
0100
0020
1030
0100
1000
,  // measure 183
0012
0003
0100
0010
2100
3000
0001
0010
,  // measure 184
0100
0100
2001
0010
3100
0000
1001
0000
,  // measure 185
0000
0000
1001
1001
,  // measure 186
1001
0001
0011
0011
,  // measure 187
0011
0010
0010
0000
0110
0000
0010
0000
,  // measure 188
0110
0001
1001
0110
,  // measure 189
0010
1010
1000
1000
,  // measure 190
1001
0001
0011
0010
,  // measure 191
0110
0100
1100
1000
,  // measure 192
1001
0001
0011
0010
,  // measure 193
0110
0000
1000
0000
2002
3003
0010
0000
,  // measure 194
0110
0100
1100
1001
,  // measure 195
0000
1010
0000
0000
0110
0000
0100
0000
,  // measure 196
0101
0001
1001
2000
,  // measure 197
0000
3001
0001
0000
1001
0000
0000
0000
,  // measure 198
0010
0000
0110
0000
0001
0010
0001
0000
,  // measure 199
1001
0010
0000
0200
,  // measure 200
0310
1000
0100
0002
,  // measure 201
1003
0010
0200
0310
,  // measure 202
0001
0100
1010
0100
,  // measure 203
0001
2000
3001
0100
,  // measure 204
0020
0130
0001
2000
,  // measure 205
3001
0010
0100
0001
,  // measure 206
0010
1000
0200
0310
,  // measure 207
0001
0010
0002
1003
,  // measure 208
0100
2000
3100
0020
,  // measure 209
0000
0032
0000
0000
,  // measure 210
0000
0000
0000
0000
,  // measure 211
0000
0000
0000
0000
,  // measure 212
0000
0000
0000
0000
,  // measure 213
0000
0003
0000
0000
,  // measure 214
0000
0000
0000
0000
,  // measure 215
0000
0000
0000
0000
,  // measure 216
0000
0110
0000
0000
;
