#VERSION:0.83;
#TITLE:LOVE SHINE BMS;
#SUBTITLE:;
#ARTIST:Unknown artist;
#TITLETRANSLIT:;
#SUBTITLETRANSLIT:;
#ARTISTTRANSLIT:;
#GENRE:;
#ORIGIN:;
#CREDIT:PaperBox440;
#BANNER:LOVE SHINE.png;
#BACKGROUND:LOVE SHINE-bg.png;
#PREVIEWVID:;
#JACKET:LOVE SHINE-jacket.png;
#CDIMAGE:;
#DISCIMAGE:;
#LYRICSPATH:;
#CDTITLE:;
#MUSIC:LOVE SHINE.ogg;
#OFFSET:0.000000;
#SAMPLESTART:5.762712;
#SAMPLELENGTH:4.745762;
#SELECTABLE:YES;
#BPMS:0.000=177.000;
#STOPS:;
#DELAYS:;
#WARPS:;
#TIMESIGNATURES:0.000=4=4;
#TICKCOUNTS:0.000=4;
#COMBOS:0.000=1;
#SPEEDS:0.000=1.000=0.000=0;
#SCROLLS:0.000=1.000;
#FAKES:;
#LABELS:0.000=Song Start;
#BGCHANGES:;
#KEYSOUNDS:;
#ATTACKS:
;

//---------------dance-single - ----------------
#NOTEDATA:;
#CHARTNAME:;
#STEPSTYPE:dance-single;
#DESCRIPTION:;
#CHARTSTYLE:;
#DIFFICULTY:Hard;
#METER:9;
#RADARVALUES:0.342922,0.535101,0.329474,0.329474,0.117669,51.000000,44.000000,7.000000,7.000000,0.000000,0.000000,0.000000,0.000000,0.000000,0.342922,0.535101,0.329474,0.329474,0.117669,51.000000,44.000000,7.000000,7.000000,0.000000,0.000000,0.000000,0.000000,0.000000;
#CREDIT:;
#NOTES:
// measure 0
0000
0000
0000
0000
,  // measure 1
0000
0000
0000
0000
,  // measure 2
0000
0000
0000
0000
,  // measure 3
0000
0000
0000
0000
,  // measure 4
0000
0000
0100
0000
0010
0000
0100
0010
,  // measure 5
0100
0000
0010
0000
0010
0000
1000
0001
,  // measure 6
1000
0000
0001
0001
0001
0001
1000
0020
,  // measure 7
0000
0130
1000
1001
,  // measure 8
0010
0000
0100
0000
0010
0000
0000
0000
1000
0100
0000
0000
0001
0010
0000
0000
,  // measure 9
0100
0010
0000
0000
0001
1000
0000
0000
0100
0010
0000
0000
0000
0000
0100
0000
,  // measure 10
0110
0000
1000
1001
0000
0010
0110
0000
,  // measure 11
0000
1000
2002
3003
,  // measure 12
0010
0220
0330
1000
,  // measure 13
2002
0000
0000
3003
0000
0000
0000
0000
;

//---------------dance-single - ----------------
#NOTEDATA:;
#CHARTNAME:;
#STEPSTYPE:dance-single;
#DESCRIPTION:;
#CHARTSTYLE:;
#DIFFICULTY:Medium;
#METER:6;
#RADARVALUES:0.255510,0.336534,0.329474,0.047068,0.000000,38.000000,31.000000,7.000000,1.000000,0.000000,0.000000,0.000000,0.000000,0.000000,0.255510,0.336534,0.329474,0.047068,0.000000,38.000000,31.000000,7.000000,1.000000,0.000000,0.000000,0.000000,0.000000,0.000000;
#CREDIT:;
#NOTES:
0000
0000
0000
0000
,
0000
0000
0000
0000
,
0000
0000
0000
0000
,
0000
0000
0000
0000
,
0000
0000
0100
0010
0100
0000
0000
1001
,
0000
0000
0010
0100
0010
0000
0000
1001
,
0000
0000
0100
0000
0100
0010
0000
0000
,
0002
0003
1000
0000
1000
0000
0000
0000
,
0010
0100
0000
0000
0010
0000
0010
0000
,
0010
0010
0000
0010
,
1001
1000
0000
0001
,
0000
0110
0010
1010
,
1000
1001
0000
0010
,
0110
0000
0000
0000
;

//---------------dance-single - ----------------
#NOTEDATA:;
#CHARTNAME:;
#STEPSTYPE:dance-single;
#DESCRIPTION:;
#CHARTSTYLE:;
#DIFFICULTY:Easy;
#METER:3;
#RADARVALUES:0.242062,0.367128,0.329474,0.094135,0.000000,36.000000,29.000000,7.000000,2.000000,0.000000,0.000000,0.000000,0.000000,0.000000,0.242062,0.367128,0.329474,0.094135,0.000000,36.000000,29.000000,7.000000,2.000000,0.000000,0.000000,0.000000,0.000000,0.000000;
#CREDIT:;
#NOTES:
0000
0000
0000
0000
,
0000
0000
0000
0000
,
0000
0000
0000
0000
,
0000
0000
0000
0000
,
0000
0010
0100
0010
,
0000
1000
0001
1000
,
0000
0010
0100
0010
,
2002
3003
0000
0000
0100
0000
0000
0000
,
0001
1000
0001
0001
,
0001
0001
0001
0010
,
0010
0100
0100
0010
,
0000
1001
1001
0000
,
0110
0110
0000
1001
,
1001
0000
0000
0000
;

//---------------dance-single - ----------------
#NOTEDATA:;
#CHARTNAME:;
#STEPSTYPE:dance-single;
#DESCRIPTION:;
#CHARTSTYLE:;
#DIFFICULTY:Beginner;
#METER:1;
#RADARVALUES:0.121031,0.197684,0.094135,0.000000,0.000000,18.000000,16.000000,2.000000,0.000000,0.000000,0.000000,0.000000,0.000000,0.000000,0.121031,0.197684,0.094135,0.000000,0.000000,18.000000,16.000000,2.000000,0.000000,0.000000,0.000000,0.000000,0.000000,0.000000;
#CREDIT:;
#NOTES:
0000
0000
0000
0000
,
0000
0000
0000
0000
,
0000
0000
0000
0000
,
0000
0000
0000
0000
,
0000
0010
0000
0000
,
0000
0100
0000
0000
,
0000
0001
0000
0000
,
1001
0000
0010
0000
,
0100
0100
0100
0000
,
0100
0100
0000
0010
,
0000
0100
0000
0001
,
0000
1000
1001
0000
,
0010
0000
0000
0000
;

//---------------dance-single - ----------------
#NOTEDATA:;
#CHARTNAME:;
#STEPSTYPE:dance-single;
#DESCRIPTION:;
#CHARTSTYLE:;
#DIFFICULTY:Challenge;
#METER:11;
#RADARVALUES:0.564812,0.865751,0.564812,0.423609,0.564812,84.000000,65.000000,12.000000,9.000000,0.000000,7.000000,0.000000,0.000000,0.000000,0.564812,0.865751,0.564812,0.423609,0.564812,84.000000,65.000000,12.000000,9.000000,0.000000,7.000000,0.000000,0.000000,0.000000;
#CREDIT:;
#NOTES:
0000
0000
0000
0000
,
0000
0000
0000
0000
,
0000
0000
0000
0000
,
0000
0000
0000
0000
,
0000
0000
0000
0000
0010
0100
0000
0100
0010
0000
0000
0000
0001
0000
1000
0000
,
1001
0000
0000
0000
0100
0000
0001
1000
0000
1000
0001
0000
1000
0000
1001
0000
,
0000
0010
0100
1001
0010
0100
1001
0010
0100
1001
0010
0100
1000
0000
0000
0000
,
0020
0000
0000
0200
0000
0000
0330
0000
0000
0000
0000
0000
0000
0000
1000
0000
0000
0000
0000
0000
1000
0000
0000
0000
0001
0000
0000
0000
0000
0000
0000
0000
0001
0000
0000
0000
0000
0000
0000
0010
0000
0000
0100
0000
0000
0010
0000
0000
,
0000
0000
1000
0000
1000
0000
0001
0000
0100
0010
0100
0000
0010
0100
0010
0000
,
1000
0001
0000
0000
1000
0001
0000
1000
0001
0000
0010
0000
0000
1110
0000
0000
,
0111
0000
0000
1110
0000
0000
0111
0000
0000
1000
0000
0000
1101
0000
0000
0000
,
0010
0000
0222
0000
0000
0333
1000
0000
,
2220
0000
0000
3330
0000
0000
0000
0000
0001
0000
0000
0000
2000
0000
0000
0000
,
0000
3000
0010
0000
0000
0100
0000
0000
;
