#VERSION:0.83;
#TITLE:LOVE ♡ SHINE;
#SUBTITLE:-Full Version-;
#ARTIST:小坂りゆ;
#TITLETRANSLIT:LOVE LOVE SHINE;
#SUBTITLETRANSLIT:;
#ARTISTTRANSLIT:RIYU KOSAKA;
#GENRE:;
#ORIGIN:;
#CREDIT:;
#BANNER:LOVE LOVE SHINE -Full Version-.png;
#BACKGROUND:LOVE LOVE SHINE -Full Version--bg.png;
#PREVIEWVID:;
#JACKET:LOVE LOVE SHINE -Full Version--jacket.png;
#CDIMAGE:;
#DISCIMAGE:;
#LYRICSPATH:;
#CDTITLE:cdtitle.png;
#MUSIC:LOVE LOVE SHINE -Full Version-.mp3;
#OFFSET:0.000000;
#SAMPLESTART:11.524774;
#SAMPLELENGTH:21.354729;
#SELECTABLE:YES;
#BPMS:0.000=177.010;
#STOPS:;
#DELAYS:;
#WARPS:;
#TIMESIGNATURES:0.000=4=4;
#TICKCOUNTS:0.000=4;
#COMBOS:0.000=1;
#SPEEDS:0.000=1.000=0.000=0;
#SCROLLS:0.000=1.000;
#FAKES:;
#LABELS:0.000=Song Start;
#BGCHANGES:;
#KEYSOUNDS:;
#ATTACKS:
;

//---------------dance-single - ----------------
#NOTEDATA:;
#CHARTNAME:;
#STEPSTYPE:dance-single;
#DESCRIPTION:;
#CHARTSTYLE:;
#DIFFICULTY:Hard;
#METER:11;
#RADARVALUES:0.649203,0.647163,0.586377,0.272969,0.000000,899.000000,783.000000,116.000000,54.000000,0.000000,0.000000,0.000000,0.000000,0.000000,0.649203,0.647163,0.586377,0.272969,0.000000,899.000000,783.000000,116.000000,54.000000,0.000000,0.000000,0.000000,0.000000,0.000000;
#CREDIT:;
#NOTES:
// measure 0
0000
0000
0000
0000
,  // measure 1
0000
0000
0000
0000
,  // measure 2
0000
0000
0000
0000
,  // measure 3
0000
0000
0000
0000
,  // measure 4
0000
0000
0000
0000
0010
0100
0000
0100
,  // measure 5
0010
0000
0100
0010
0100
0010
0000
0001
,  // measure 6
0000
0001
1000
0000
1000
0010
0100
0000
,  // measure 7
0100
0000
0010
0000
0010
0100
1000
0000
,  // measure 8
0002
0000
2003
0000
3000
0010
0010
0001
,  // measure 9
0000
0001
1000
1000
0010
0000
0110
0010
,  // measure 10
0000
1100
0000
0110
,  // measure 11
0000
0000
0011
0000
0000
0001
1000
0001
,  // measure 12
1000
0100
0200
0000
0001
1300
0000
0000
,  // measure 13
0010
0000
0020
0100
0000
0130
1000
0000
,  // measure 14
1001
0000
0010
0000
0100
0100
0010
0000
,  // measure 15
1000
0001
0010
0001
0000
1000
1000
1000
,  // measure 16
0110
0000
0000
0000
0001
0010
0001
0010
,  // measure 17
0110
0000
1000
0000
1000
0001
0010
0100
,  // measure 18
0000
0100
0010
0010
0001
1000
0100
1000
,  // measure 19
0000
1000
0001
0010
0001
0000
1100
0000
,  // measure 20
1010
0110
0002
1000
,  // measure 21
1003
0000
0010
0100
1000
0000
0010
0100
,  // measure 22
0100
0000
0110
0010
1001
0000
0010
1000
,  // measure 23
0000
1000
0001
0010
0100
0010
0100
0000
,  // measure 24
2000
0000
0001
0001
3001
0000
0110
0000
,  // measure 25
0001
0010
1000
0100
1000
0001
0000
0001
,  // measure 26
0010
0100
0010
1000
1000
0100
0002
0000
,  // measure 27
1000
0000
1003
0010
0010
0000
1100
0000
,  // measure 28
1010
0110
0002
0000
,  // measure 29
1003
0000
1000
1000
0020
0100
0000
0130
,  // measure 30
0000
0001
0001
0010
0100
0010
0100
0000
,  // measure 31
2000
0000
0001
3001
0001
0000
0010
0010
,  // measure 32
0110
0000
1000
0000
1100
0010
0010
0000
,  // measure 33
1000
0000
1100
0000
0010
0100
0010
0000
,  // measure 34
1001
0010
0100
0000
0011
0000
0110
0000
,  // measure 35
1100
0000
1000
0001
1000
0000
0100
0010
,  // measure 36
0100
0001
0001
0010
1000
1001
0000
0010
,  // measure 37
0100
0010
0000
1000
2000
0000
3001
0000
,  // measure 38
0010
0010
0100
0010
1000
0000
1100
0000
,  // measure 39
0110
0000
0011
0000
1001
0000
0100
0010
,  // measure 40
1000
0100
0001
0020
0030
0100
0100
0010
,  // measure 41
1000
0100
0001
0000
0010
0100
0010
1000
,  // measure 42
1000
0000
1001
0000
0010
0010
0100
0001
,  // measure 43
1000
0100
1000
0010
0100
0000
0100
0000
,  // measure 44
0110
0000
0010
0000
0001
0001
0010
1000
,  // measure 45
0100
1000
0010
0000
0010
1000
1000
0000
,  // measure 46
2002
0000
3003
0000
0010
0100
0100
0000
,  // measure 47
1000
0010
0100
0000
0110
0000
1001
1001
,  // measure 48
1001
0000
0010
0000
0100
0100
0010
1000
,  // measure 49
0000
0010
0100
0100
0001
0002
2003
3002
,  // measure 50
0000
0000
1003
0000
1100
0000
0010
0010
,  // measure 51
0100
0001
1000
0000
0020
0000
0230
0000
,  // measure 52
0320
0000
0130
0000
0110
0000
1000
1000
,  // measure 53
0001
0000
1001
0000
1000
1000
0010
0100
,  // measure 54
0010
0200
0000
0300
0010
0010
0000
0001
,  // measure 55
1000
0001
1000
0001
1000
0100
0010
0001
,  // measure 56
2000
0000
3001
0001
1001
0000
0010
0010
,  // measure 57
0100
0010
0100
1000
0000
1000
0001
0010
,  // measure 58
0000
0010
0100
1000
2000
0000
3001
0000
,  // measure 59
1001
0000
0010
0001
0100
1000
0000
1000
,  // measure 60
0010
0100
0010
0001
1000
0010
0010
0000
,  // measure 61
0100
0000
1001
0000
0010
0010
1000
0000
,  // measure 62
0010
0010
0100
0001
1100
0000
0010
0000
,  // measure 63
0010
0100
0100
0001
1000
0100
0010
0100
,  // measure 64
0000
1001
1001
1001
0000
0010
0010
1000
,  // measure 65
0010
0200
0000
0300
0010
0000
0001
0001
,  // measure 66
1000
0100
1000
0010
0100
0020
0000
0000
,  // measure 67
0100
0130
0000
0001
1000
0001
0001
0000
,  // measure 68
0010
0110
1100
0002
,  // measure 69
1003
0000
1000
0100
1100
0000
0010
0100
,  // measure 70
0010
0100
0010
0001
0001
1000
0000
2200
,  // measure 71
0000
3300
0010
0010
0000
1000
1001
1001
,  // measure 72
0000
0010
0100
0000
2002
3003
0000
0100
,  // measure 73
0000
0110
0000
0001
0002
0000
0003
0000
,  // measure 74
0100
0010
0000
0100
0100
1000
0000
1000
,  // measure 75
0011
0100
0001
0000
0011
1000
1000
0010
,  // measure 76
0200
0300
0010
0010
0000
0110
0000
1000
,  // measure 77
0001
0000
0010
0010
1000
0001
1000
0100
,  // measure 78
0100
0010
0001
1000
0100
0000
1100
0000
,  // measure 79
0110
0000
0011
0000
1001
0000
1100
0010
,  // measure 80
0100
0010
0100
0010
0010
0000
1001
0000
,  // measure 81
0100
0010
0000
1001
1001
0000
0000
0010
,  // measure 82
0100
0001
0000
0100
0010
0001
0000
0001
,  // measure 83
1000
0010
0100
0100
0001
0010
0001
1000
,  // measure 84
1000
0000
0100
0010
0100
0110
0000
0000
,  // measure 85
0001
1001
0000
0000
0010
0110
0000
1000
,  // measure 86
1000
0100
0001
0010
0100
0010
1010
0000
,  // measure 87
1100
0000
0110
0000
0011
0000
1000
0100
,  // measure 88
0010
0100
0020
0030
1000
0000
1100
0000
,  // measure 89
0100
0110
0010
0011
,  // measure 90
0001
0000
2002
3003
0010
0010
0100
0010
,  // measure 91
1000
1100
0100
0010
,  // measure 92
0010
0001
0001
0000
0110
0000
1000
1000
,  // measure 93
0100
0001
0100
0010
0100
0000
0010
0000
,  // measure 94
1001
0000
0010
0010
0000
0100
0010
0100
,  // measure 95
0001
1000
1000
0100
0010
0000
1001
1001
,  // measure 96
1001
0000
0010
0100
0000
0001
0001
0010
,  // measure 97
0100
0010
1000
1000
0100
0020
0000
0130
,  // measure 98
0100
0010
0100
0010
2000
0000
3001
0000
,  // measure 99
0002
0000
0000
0010
0100
1003
0100
0010
,  // measure 100
0100
0010
0100
0000
0110
0000
1000
1000
,  // measure 101
1000
0001
0010
0100
0000
1000
0100
0010
,  // measure 102
0000
0100
0010
0001
0000
0001
1000
1000
,  // measure 103
0010
0000
0110
0000
1100
0000
0010
0010
,  // measure 104
0200
0300
0010
0010
0110
0000
0001
1000
,  // measure 105
0001
1000
0002
0000
0003
0000
0100
0010
,  // measure 106
0100
0000
0110
0000
0000
1000
0001
1000
,  // measure 107
0001
0010
0100
0100
0010
1000
0100
0001
,  // measure 108
0010
0100
0100
0000
0010
0010
1000
1000
,  // measure 109
0001
0001
0010
0100
0010
1000
1000
0010
,  // measure 110
0100
0001
0000
0011
2000
0000
3010
0010
,  // measure 111
0100
0010
1000
1000
0001
0001
0010
0100
,  // measure 112
0010
2000
0001
3001
0000
0020
0000
0030
,  // measure 113
0100
0010
1100
0000
1000
0001
0000
0011
,  // measure 114
1000
0000
0100
0010
0100
0000
0001
0001
,  // measure 115
0010
1000
0010
0000
0110
0000
1100
0000
,  // measure 116
1001
0000
0010
0010
0100
2000
0000
3000
,  // measure 117
0010
0001
0000
0200
0000
0310
0000
1010
,  // measure 118
0000
0100
0010
0001
0001
0000
0110
0000
,  // measure 119
1100
0000
0001
0010
1000
0000
1010
0000
,  // measure 120
0100
0010
0100
0020
0000
0130
1000
0000
,  // measure 121
1000
0001
0010
0010
0100
0001
1000
0100
,  // measure 122
0000
0100
0010
0100
0011
0000
0010
0000
,  // measure 123
0110
0000
0100
0000
1100
0001
0001
1001
,  // measure 124
0000
0000
0010
0010
0020
0000
0030
0100
,  // measure 125
1000
0001
0000
0010
0010
0000
0100
0000
,  // measure 126
1100
0001
0011
1010
,  // measure 127
1100
1001
0011
1001
,  // measure 128
0100
0010
0200
0000
0310
0010
0000
1000
,  // measure 129
0001
0000
0010
0100
0100
0010
1000
0001
,  // measure 130
0020
0030
0000
0100
0100
0010
1000
0000
,  // measure 131
1010
0000
0100
1000
0000
0001
0011
0000
,  // measure 132
1100
0000
0010
0010
0200
0000
0300
0001
,  // measure 133
0001
0000
0000
1000
0001
1000
0001
0010
,  // measure 134
0010
0100
0010
0100
0010
0000
0001
0000
,  // measure 135
0001
0011
1010
1100
,  // measure 136
1000
0001
1000
0001
0010
0200
0000
0310
,  // measure 137
0000
0000
1000
1000
0001
0010
0000
0100
,  // measure 138
0001
1000
1000
0010
0002
0000
1003
0000
,  // measure 139
0020
0000
0130
0000
2000
0000
3001
0001
,  // measure 140
0010
0010
0100
0100
0001
0000
0011
0000
,  // measure 141
0100
0100
0110
0000
0001
0001
0001
1000
,  // measure 142
0000
0010
0110
0000
0000
0000
0000
0000
;
