#VERSION:0.83;
#TITLE:LOVE IS THE POWER;
#SUBTITLE:-Reborn--Full Version-;
#ARTIST:NM;
#TITLETRANSLIT:;
#SUBTITLETRANSLIT:;
#ARTISTTRANSLIT:;
#GENRE:;
#ORIGIN:;
#CREDIT:;
#BANNER:LOVE IS THE POWER -Reborn--Full Version-.png;
#BACKGROUND:LOVE IS THE POWER -Reborn--Full Version--bg.png;
#PREVIEWVID:;
#JACKET:LOVE IS THE POWER -Reborn--Full Version--jacket.png;
#CDIMAGE:;
#DISCIMAGE:;
#LYRICSPATH:;
#CDTITLE:cdtitle.png;
#MUSIC:LOVE IS THE POWER -Reborn--Full Version-.mp3;
#OFFSET:0.000000;
#SAMPLESTART:84.000000;
#SAMPLELENGTH:24.000008;
#SELECTABLE:YES;
#BPMS:0.000=125.000;
#STOPS:;
#DELAYS:;
#WARPS:;
#TIMESIGNATURES:0.000=4=4;
#TICKCOUNTS:0.000=4;
#COMBOS:0.000=1;
#SPEEDS:0.000=1.000=0.000=0;
#SCROLLS:0.000=1.000;
#FAKES:;
#LABELS:0.000=Song Start;
#BGCHANGES:;
#KEYSOUNDS:;
#ATTACKS:
;

//---------------dance-single - ----------------
#NOTEDATA:;
#CHARTNAME:;
#STEPSTYPE:dance-single;
#DESCRIPTION:;
#CHARTSTYLE:;
#DIFFICULTY:Hard;
#METER:15;
#RADARVALUES:0.578102,0.687098,0.287267,0.268532,0.665085,648.000000,602.000000,46.000000,43.000000,0.000000,0.000000,0.000000,0.000000,0.000000,0.578102,0.687098,0.287267,0.268532,0.665085,648.000000,602.000000,46.000000,43.000000,0.000000,0.000000,0.000000,0.000000,0.000000;
#CREDIT:;
#NOTES:
// measure 0
0000
0000
0000
0000
,  // measure 1
0000
0000
0000
0000
,  // measure 2
0000
0000
0000
0000
,  // measure 3
0000
0000
0000
0000
,  // measure 4
0000
0000
2002
0000
3003
0000
0010
0010
,  // measure 5
0000
0000
0100
0010
0000
0000
2000
0000
,  // measure 6
0000
3001
0000
0010
0100
0000
0001
0001
,  // measure 7
0000
0000
0010
0000
0100
0000
0100
0000
0010
0000
0000
0000
1002
0000
0000
0100
,  // measure 8
0103
0100
0000
0000
0010
0000
0010
0000
0100
1000
0000
0100
0001
0000
0000
0001
,  // measure 9
0000
0000
0001
0000
0010
0000
0010
0000
0000
0100
0000
0000
0100
0001
0000
0010
,  // measure 10
0000
0001
0000
0000
1000
0000
1000
0000
0001
0000
0100
0000
0010
0100
0000
0000
,  // measure 11
0110
0000
0000
0000
1000
0000
1000
0000
0100
0000
0010
0000
0100
0010
0000
0001
,  // measure 12
0000
0001
0000
0000
0110
0000
0000
0000
0100
0001
0000
0010
0001
0000
1000
0000
,  // measure 13
1000
0000
0000
0000
1001
0000
0000
0000
0001
0010
0100
0000
0100
0000
0010
0000
,  // measure 14
0010
0000
0000
0001
0100
0000
0100
0000
0001
0010
0001
0000
1000
0000
1000
0010
,  // measure 15
0000
0100
0010
0000
0000
0000
1001
0000
0000
0000
1000
0000
0100
0010
0000
0100
,  // measure 16
0010
0000
0001
0000
1001
0000
0000
0010
0000
1000
0010
0000
0100
0010
0001
0000
,  // measure 17
0001
0000
0100
0000
0110
0000
0000
0000
1000
0001
0000
0000
0001
0010
0000
0100
,  // measure 18
0010
0000
1000
0000
1001
0000
0000
0100
0000
0010
0000
0000
0010
0000
0001
0000
,  // measure 19
1000
0000
1000
0000
0000
0010
0100
0000
0100
0000
0001
0010
0000
0001
1000
0000
,  // measure 20
1000
0000
0000
0000
0110
0000
0001
1000
0001
1000
0000
0000
1001
0000
1001
0000
,  // measure 21
0000
0000
0010
0000
0100
0000
0100
0001
0000
0010
0001
0000
1000
0000
1000
0000
,  // measure 22
0010
0010
0000
0000
0100
0010
0100
0010
0100
0000
0000
0000
1001
0000
1001
0000
,  // measure 23
0000
0100
0000
0000
0010
0100
0020
0000
0000
0000
0030
0000
0000
0001
0000
1000
,  // measure 24
2000
3000
0000
0000
0001
1000
0001
1000
0001
0000
0000
0000
1001
0000
1001
0000
,  // measure 25
0000
0000
0100
0000
0100
0010
0000
0000
0010
1000
0000
0001
1000
0100
0000
0000
,  // measure 26
0010
0010
0000
0000
0000
0100
0010
0100
0010
0100
0000
0000
1001
0000
1001
0000
,  // measure 27
0100
0010
0000
0100
0110
0000
0001
1000
,  // measure 28
1010
0000
0000
0000
1000
0000
1000
0001
0010
0001
0100
0000
0100
0010
1000
0100
,  // measure 29
1000
0001
0000
0001
0010
0100
0010
1000
0000
1000
0001
0010
0100
0010
0000
0000
,  // measure 30
0110
0000
0000
0000
1000
0000
1000
0001
0010
0000
0001
0100
0000
0100
0010
0000
,  // measure 31
0000
0000
1000
0000
0001
0000
0001
0010
0000
0010
0100
0000
1000
0100
0000
0010
,  // measure 32
0000
0000
0000
0000
1001
0000
0000
0000
0010
1000
0000
0100
1000
0001
0000
0010
,  // measure 33
0000
0010
0000
0000
0100
0000
0100
0000
0010
0000
0010
1000
0001
1000
0000
0010
,  // measure 34
0100
0010
0000
0000
1000
0000
1000
0001
0000
0001
0010
0000
0010
0100
0000
0100
,  // measure 35
0010
0000
0010
1000
0000
1000
0001
0000
0001
0000
0010
0000
0010
0000
1000
0000
,  // measure 36
1000
0000
0100
0000
0110
0000
0000
0000
0001
0010
0001
0000
0100
0010
0100
0000
,  // measure 37
1000
0000
1001
0000
0000
0000
0010
0000
0010
0100
0010
1000
0100
0000
0010
0000
,  // measure 38
0002
0000
0000
0000
0100
0000
0003
0000
1000
0000
1000
0010
0000
0100
0000
0000
,  // measure 39
0110
0000
0000
0001
0000
0001
1000
0100
1000
0000
0010
0000
0010
0100
0000
0100
,  // measure 40
0001
0000
0010
0000
0110
0000
0000
0100
1000
0000
1000
0001
0010
0000
0100
0000
,  // measure 41
0100
0000
0000
0001
0010
0000
0010
0100
0000
1000
0000
1000
0002
0000
0000
0003
,  // measure 42
0000
0010
0000
0010
0000
0010
0000
0000
1000
0100
1000
0000
0001
0000
0001
0010
,  // measure 43
0000
0000
0100
0010
0100
0000
0000
1000
0001
0100
1000
0001
0000
0100
0010
0100
,  // measure 44
0010
0100
0000
0000
2001
0000
0000
0000
0010
0000
0000
0000
3001
0000
0002
0000
,  // measure 45
0000
0000
0013
0000
0020
0000
0000
0000
0100
0000
0100
0000
0030
0001
0000
0000
,  // measure 46
1000
0100
0200
0000
0010
0310
0001
0002
,  // measure 47
0010
0000
0023
0000
0000
0000
0030
0000
0100
0000
0001
1000
0001
0000
0100
0000
,  // measure 48
0100
0000
2001
0000
0010
0000
0010
3010
,  // measure 49
0001
0000
0010
0000
0000
0000
2000
0000
0100
0000
0000
0001
0000
3001
0000
0000
,  // measure 50
0010
0000
0020
0000
1000
0000
1000
0030
0200
0000
0000
0000
0010
0000
0310
0000
,  // measure 51
0000
0000
0001
2000
0000
0000
0000
0000
3010
0000
0000
0000
0010
0000
0000
0000
,  // measure 52
0110
0000
0000
0000
0002
0000
0000
0000
0000
0000
0000
0000
1003
0100
0000
0000
,  // measure 53
0010
0020
0000
2030
0000
0000
0010
3000
,  // measure 54
0001
0010
0001
0000
0200
0000
0000
0000
0000
0000
0300
0000
0010
0002
0000
0000
,  // measure 55
1000
0003
0200
0000
0000
0000
0000
0010
0000
0300
0000
0000
0010
0000
0001
0000
,  // measure 56
1001
0000
0000
0000
0210
0000
0000
0000
0300
0000
0000
0000
0010
0100
0010
0000
,  // measure 57
0000
0001
0001
1000
2000
0000
3002
0000
,  // measure 58
0003
0000
0000
0010
0100
0020
0000
0000
0000
0030
0000
0000
1000
0000
2000
0000
,  // measure 59
3001
0010
0002
0000
0000
0003
0000
0000
0010
0000
0010
0000
0010
1000
0000
1000
,  // measure 60
0000
1000
0000
0000
1001
0000
0000
0010
0000
0100
0010
0100
0010
0000
0001
1000
,  // measure 61
0001
1000
0010
0000
0110
0000
0100
0000
0101
0000
0001
0000
1001
0000
0100
0010
,  // measure 62
0100
0000
0000
1000
0000
1000
0000
1001
0000
0010
0100
0010
0100
0001
0000
0001
,  // measure 63
0000
1001
0000
0010
0000
0010
1000
0100
1000
0001
0000
0000
0010
0000
0010
0100
,  // measure 64
0000
0100
0000
0000
0110
0000
0000
0001
2000
0000
0010
3000
0020
0000
0000
0000
,  // measure 65
0100
0030
0000
0000
0100
0010
0200
0000
0000
0000
0010
0000
0310
0000
0000
0000
,  // measure 66
0001
0000
0001
1000
0100
0000
1000
1000
0010
0100
0001
0000
0010
0100
0010
0100
,  // measure 67
0000
1000
0000
1000
0010
0100
0010
0001
0000
0001
1000
0000
1000
0100
0100
0010
,  // measure 68
0000
0010
0000
0000
1000
0001
1000
0001
1000
0000
0010
0100
0010
0100
0010
0000
,  // measure 69
1000
0100
1000
0100
1000
0001
0010
0001
0010
0002
0000
0000
0000
0000
0000
0000
,  // measure 70
1003
0000
1000
0100
0010
0100
0010
0000
0001
0001
1000
0100
0000
1000
0000
1000
,  // measure 71
0000
0000
0100
0010
0100
0000
0001
0000
0020
0000
0000
0030
0000
0100
0000
0100
,  // measure 72
0010
0100
0010
0000
1001
0000
0000
0010
0100
0010
0100
0000
0000
0001
0010
0001
,  // measure 73
0100
1000
0000
1000
0000
0001
2002
0000
0000
3000
0000
0010
0020
0000
0000
0033
,  // measure 74
0100
0000
0010
0100
0010
0100
0000
0000
0001
0000
1001
0000
0010
0000
0110
0000
,  // measure 75
1000
0000
1000
0100
0000
0200
0000
0000
0000
0000
0300
0000
0001
0020
0000
0000
,  // measure 76
0130
0000
0100
0000
1001
0000
0100
0000
0001
0010
0001
0010
0001
0000
0010
0100
,  // measure 77
0000
0100
0000
0000
0110
0000
0000
1000
0001
0010
0001
0000
0100
0010
0100
0000
,  // measure 78
0100
0000
1000
0000
1001
0000
0010
0000
0010
0000
0100
0000
0100
0001
0010
0001
,  // measure 79
1000
0000
1000
0000
0110
0000
0001
0000
0001
1000
0100
1000
0000
0010
0200
0000
,  // measure 80
0300
0001
0000
0001
2000
0000
0000
0000
0000
0000
0000
0000
0000
0000
0000
0000
,  // measure 81
0000
0000
3000
0000
;
