#TITLE:L'amour et la liberte IIDX ver;
#SUBTITLE:;
#ARTIST:Naoki underground;
#TITLETRANSLIT:;
#SUBTITLETRANSLIT:;
#ARTISTTRANSLIT:;
#GENRE:;
#CREDIT:PaperBox440;
#BANNER:L'amour et la liberte(Darwin & DJ Silver remix).png;
#BACKGROUND:L'amour et la liberte(Darwin & DJ Silver remix)-bg.png;
#LYRICSPATH:;
#CDTITLE:;
#MUSIC:L'amour et la liberté IIDX ver.mp3;
#OFFSET:0.000000;
#SAMPLESTART:47.467979;
#SAMPLELENGTH:17.793106;
#SELECTABLE:YES;
#BPMS:0.000000=140.000000
,48.000000=145.000000
;
#STOPS:
;
#BGCHANGES:0.000=L'amour et la liberté IIDX ver.mp4=1.000=0=0=0=StretchNoLoop====,
99999=-nosongbg-=1.000=0=0=0 // don't automatically add -songbackground-
;
#KEYSOUNDS:;
#ATTACKS:;

//---------------dance-single - ----------------
#NOTES:
     dance-single:
     :
     Hard:
     12:
     0.579267,0.747587,0.432770,0.056448,0.286945,431.000000,385.000000,46.000000,6.000000,0.000000,0.000000,0.579267,0.747587,0.432770,0.056448,0.286945,431.000000,385.000000,46.000000,6.000000,0.000000,0.000000:
0000
0000
0000
0000
,
0000
0000
0000
0000
,
0000
0000
0000
0000
,
0000
0000
0000
0000
0000
0000
0000
1000
,
1000
0000
0010
0000
1001
0000
0000
0000
0010
0000
1000
0001
1000
0000
0010
0000
,
1000
0000
1000
0000
0001
0000
0001
0000
0010
0100
0000
0000
1000
0010
0000
0000
,
0100
0000
0100
0010
0000
0000
0001
0000
0000
0000
0001
0000
0010
0000
0100
0000
,
0010
0000
0000
0000
1000
0100
0000
0000
0010
0100
0000
0000
1000
0000
0000
0000
,
1000
0010
0000
0000
1000
0000
1100
0000
0010
0000
0000
0000
0000
0000
1001
0000
,
0000
0000
0000
0000
0001
0010
0000
0000
1000
0010
0000
0000
0100
0000
0100
0000
,
0000
1000
1001
0000
0010
0000
1100
0000
,
0000
0000
1000
0000
1000
0010
0000
0000
0100
0000
0100
0001
0000
0000
1000
0000
,
1001
1000
0010
0010
0100
0100
0010
0002
,
0000
0000
0000
1000
0100
0010
0100
0100
,
1000
0003
2000
0000
0010
0000
0010
0001
,
0100
0100
0010
0000
0010
0001
3001
0000
,
0001
0010
1000
0000
0000
0000
0010
0000
0010
0000
0100
0000
1000
0000
1000
0000
,
0001
0010
0000
0000
0100
0000
0000
0100
0010
0000
1000
0001
0000
0000
0001
0000
,
0000
0010
0100
0000
0000
1000
0000
0000
1000
0000
0001
0000
0001
0000
0010
0100
,
0010
0000
1000
0000
0000
1000
0010
0000
0000
0010
0000
0001
1000
0000
0000
1000
,
0010
0000
0010
0100
0000
0000
0000
0000
1100
0000
0000
0000
0010
0000
0010
0000
,
1001
0000
0010
0000
1100
0000
0100
0010
,
0110
0001
1001
0100
,
1100
0000
0001
0000
1001
0000
1000
0001
,
1001
0100
0101
0010
,
1100
0000
0001
0000
1001
0000
0100
0010
,
0110
1000
1001
0110
,
0100
0010
0100
0000
0010
1000
0000
1000
0001
0000
0001
0010
0100
0000
0100
0000
,
0010
0001
1000
0001
1000
0000
0000
0000
1001
0000
0000
0000
0010
0000
1000
0000
,
1001
0000
0010
1000
0100
1000
0011
0000
,
0001
1000
0000
1000
0010
0100
1001
0000
,
0010
0010
1000
0100
1000
0001
0000
0001
,
0100
0100
0010
0000
0010
0010
0100
1000
,
0001
1000
0001
0000
0100
0010
0100
0001
,
0001
1000
1100
0000
1001
0000
0100
0000
,
0010
0000
0100
0000
0010
0000
1000
0000
0000
0000
1000
0000
0001
0000
0010
0100
,
0010
0000
1000
0001
1000
0000
0000
0000
0001
0000
1100
0000
0010
0000
0000
0000
,
1001
0000
0010
0100
0010
1000
0000
0100
,
0001
0000
0010
0000
0100
0000
0100
0000
0000
0000
0010
0000
1000
0001
1000
0001
,
0000
1000
0001
0000
1000
0000
0000
0000
1001
0000
0000
0000
0010
0000
0100
0000
,
0001
0001
0000
0110
0000
0001
1000
1000
,
0010
0000
0001
0000
0000
0000
0001
0100
0000
0000
0100
0010
0000
0000
0010
1000
,
0001
1000
0001
0000
0000
0000
1000
0000
1000
0000
0000
0000
1001
0000
0000
0000
,
0100
0000
0001
0100
0010
0010
1001
0000
,
1100
0000
0000
0000
0110
0000
0001
0000
0001
0000
0010
0100
1000
0001
0010
0001
,
0000
0000
0100
0010
0001
0000
1000
0100
1000
0000
0001
0010
0100
0010
0001
0000
,
1000
0100
0010
0100
1000
0000
0001
0000
0001
0100
0000
0000
1001
0000
0000
0000
,
0000
0000
0100
0010
0100
0000
1000
0000
0001
0010
0001
0000
1000
0000
1000
0010
,
0000
0010
0100
0000
0001
0010
0001
0000
1000
0000
0000
0000
1001
0000
0000
0000
,
0000
0000
0000
0000
0001
0000
0001
0000
0010
0100
0010
1000
0000
0000
1000
0001
,
0000
0001
0100
0110
0000
1000
0001
0001
,
0100
0010
0000
0000
0010
0000
1000
0100
1000
0000
0001
0000
0010
0000
0001
0100
,
0000
0000
0100
0000
0010
1000
0000
0000
2002
0000
0000
0000
0000
0000
3003
0000
,
0010
0010
0000
0100
0010
0001
0001
0000
,
1001
0000
1000
1000
0000
1001
0000
0100
,
0000
0010
0000
0010
0001
1000
1000
0000
,
0110
0000
0000
1001
1001
0000
1000
1001
,
0000
0100
0110
0000
0001
0000
1001
0000
,
0100
0100
0001
1000
0010
0010
0002
0100
,
1000
1000
0003
0100
0010
1000
2000
0001
,
0001
0010
0100
0000
3100
0000
0010
0000
0001
0000
0000
0000
0010
0000
0100
0000
,
0000
0100
0000
0000
0000
0000
0000
0000
;

//---------------dance-single - ----------------
#NOTES:
     dance-single:
     :
     Medium:
     10:
     0.399170,0.546313,0.348098,0.056448,0.000000,297.000000,260.000000,37.000000,6.000000,0.000000,0.000000,0.399170,0.546313,0.348098,0.056448,0.000000,297.000000,260.000000,37.000000,6.000000,0.000000,0.000000:
0000
0000
0000
0000
,
0000
0000
0000
0000
,
0000
0000
0000
0000
,
0000
0000
0000
0000
0000
0000
0000
1000
,
1000
0000
0110
0000
1000
0001
1000
0100
,
0001
0010
0100
0010
1001
0000
1100
0010
,
0100
0010
1001
0000
0000
0000
0010
0100
,
0010
0000
0100
0010
0100
0001
0000
0001
,
0000
1000
1001
0000
0100
0000
0110
0000
,
0001
0000
1100
0000
1001
0100
0110
0000
,
1000
1001
0100
0110
,
1000
1000
0000
0001
0001
0010
0100
0010
,
2000
0000
0000
0000
0000
0000
3000
0002
,
0000
0000
0000
0000
,
0000
0003
0200
0000
0000
0000
0000
0000
,
0000
0000
0300
0000
0000
0000
0001
0010
,
0100
0000
1000
0001
1000
0010
0000
0010
,
1000
0100
0001
0001
0010
1000
1000
0100
,
0000
0001
0000
1000
0000
0001
0001
1000
,
0100
1000
0010
0100
0010
0001
0001
1000
,
0100
0010
0110
0000
1000
0000
0001
0000
,
1001
0000
1000
0000
1100
0000
0100
0010
,
0110
0001
1001
0100
,
0110
0000
1000
0000
1001
0000
0100
0100
,
1001
0100
0110
0001
,
1001
0000
0100
0000
0110
0000
1000
0001
,
1001
0100
0110
0001
,
0010
1000
0100
1000
0001
0001
0100
0010
,
0100
0000
1001
0000
0010
0000
0000
0100
,
1000
0000
0001
1000
0010
0000
0100
0000
,
0010
0000
0010
1000
0100
1000
0000
0010
,
0000
0100
0000
0001
0000
0000
1000
0000
,
0010
0000
0100
0000
1000
0001
0000
0001
,
0100
0010
0100
0100
,
0001
0000
0001
0000
1000
0100
1000
0000
,
0010
0100
0010
1000
0000
1000
0001
0000
,
0001
0000
0110
0000
0001
0001
1000
0000
,
1000
0000
0001
0000
0000
0100
0000
0000
,
0010
0000
0000
0000
1000
1000
0001
0010
,
0001
0100
0000
0000
0000
1001
0000
0000
,
0010
0000
0100
0000
0000
0001
0001
0000
,
0000
0000
1000
1000
0001
0010
0001
0000
,
0000
0100
0000
0010
0000
1001
0000
0000
,
0000
0010
0000
0010
0000
0001
1000
0001
,
1000
0000
0000
0100
0100
0001
0010
0001
,
1000
1000
0100
0010
0100
0001
0001
0000
,
1001
0100
0110
0000
,
1001
0000
1000
0001
0001
0100
0010
0001
,
1000
0001
1000
0100
0100
0000
0110
0000
,
0000
0000
0001
0001
1000
0000
0010
0100
,
1000
0001
0001
0000
0100
0010
0100
1000
,
1000
0001
0010
0001
0100
0100
0000
0010
,
0001
0000
1000
0000
1001
0000
0000
0100
,
0000
0001
0000
0010
0000
1000
0000
1000
,
0000
0100
0000
0100
0000
0000
1001
0000
,
0000
0010
0000
0100
0000
0100
0000
0000
,
0110
0000
0000
1001
0000
1001
0200
0000
,
0000
0000
0000
0000
,
0000
0000
0300
0000
1000
0002
0000
0000
,
0000
0000
0003
0000
0100
0020
0000
0000
,
0000
0000
0000
0030
0000
0000
0000
0010
,
0000
0100
0000
0000
0000
0000
0000
0000
;

//---------------dance-single - ----------------
#NOTES:
     dance-single:
     :
     Easy:
     5:
     0.255361,0.400077,0.235201,0.112897,0.000000,190.000000,165.000000,25.000000,12.000000,0.000000,0.000000,0.255361,0.400077,0.235201,0.112897,0.000000,190.000000,165.000000,25.000000,12.000000,0.000000,0.000000:
// measure 0
0000
0000
0000
0000
,  // measure 1
0000
0000
0000
0000
,  // measure 2
0000
0000
0000
0000
,  // measure 3
0000
0000
0000
0000
0000
0000
0000
1000
,  // measure 4
1000
1001
0100
0010
,  // measure 5
0000
0100
0100
0000
0000
0001
0001
0000
,  // measure 6
0000
1000
1000
0000
0100
0000
0010
0000
,  // measure 7
0000
0001
0001
0000
1000
1000
0000
0000
,  // measure 8
0001
1001
0100
0110
,  // measure 9
0001
0000
1001
0000
0100
0100
0010
0000
,  // measure 10
1000
0001
1000
1001
,  // measure 11
0100
0010
0100
0000
0100
0000
0010
0000
,  // measure 12
2000
0000
0000
3000
,  // measure 13
0200
0000
0000
0000
,  // measure 14
0000
0300
0002
0000
0000
0000
0000
0000
,  // measure 15
0000
0000
0003
0000
,  // measure 16
2000
0000
0000
0000
,  // measure 17
3000
0002
0000
0000
0000
0000
0000
0000
,  // measure 18
0000
0000
0003
0200
0000
0000
0000
0000
,  // measure 19
0000
0000
0000
0000
,  // measure 20
0300
0010
0110
1000
,  // measure 21
1001
0100
0110
1000
,  // measure 22
1001
0100
0110
0010
,  // measure 23
1010
1000
1001
0001
,  // measure 24
1001
0100
0110
0010
,  // measure 25
1010
0100
0110
1000
,  // measure 26
1001
0010
1000
0001
,  // measure 27
1000
0001
1000
0100
,  // measure 28
0010
0100
0000
0010
,  // measure 29
0000
0001
0000
1000
,  // measure 30
0000
0100
0000
0010
,  // measure 31
0000
0000
0002
0000
0000
0003
2000
0000
,  // measure 32
0000
3000
0020
0000
0000
0030
1000
0000
,  // measure 33
1000
0001
1000
0001
,  // measure 34
0001
0100
0010
0100
,  // measure 35
1000
0010
0100
0100
,  // measure 36
0001
1001
0010
0000
,  // measure 37
1000
0000
0100
0010
,  // measure 38
0010
0000
0001
0000
,  // measure 39
1000
0000
1000
0100
,  // measure 40
0100
0000
0100
0000
,  // measure 41
0010
0000
0001
1000
,  // measure 42
1000
0010
0010
0100
,  // measure 43
0100
1000
0001
0001
,  // measure 44
1000
1001
0000
0001
,  // measure 45
0010
0100
1000
0100
,  // measure 46
0010
0001
1001
0000
,  // measure 47
0001
0010
0100
1000
,  // measure 48
0100
0010
0001
0110
,  // measure 49
0000
0001
0010
0100
,  // measure 50
1000
0100
0010
0001
,  // measure 51
0010
0100
1000
0001
,  // measure 52
1001
1000
1001
0000
,  // measure 53
0010
0100
0000
0100
,  // measure 54
0001
0000
0001
0000
,  // measure 55
1000
0000
1000
0000
,  // measure 56
0110
0000
1001
2000
,  // measure 57
0000
0000
0000
0000
,  // measure 58
0000
0000
0000
0000
3000
0001
0002
0000
,  // measure 59
0000
0000
0000
0000
0003
0100
0200
0000
,  // measure 60
0000
0000
0000
0300
;
