#VERSION:0.83;
#TITLE:Koisuru uchuu sensou!! Abababa mix INF;
#SUBTITLE:;
#ARTIST:ARM (IOSYS);
#TITLETRANSLIT:;
#SUBTITLETRANSLIT:;
#ARTISTTRANSLIT:;
#GENRE:;
#ORIGIN:;
#CREDIT:PaperBox440;
#BANNER:Koisuru uchuu sensou!! Abababa mix INF.png;
#BACKGROUND:Koisuru uchuu sensou!! Abababa mix INF-bg.png;
#PREVIEWVID:;
#JACKET:Koisuru uchuu sensou!! Abababa mix INF-jacket.png;
#CDIMAGE:;
#DISCIMAGE:;
#LYRICSPATH:;
#CDTITLE:;
#MUSIC:Koisuru uchuu sensou!! Abababa mix INF.mp3;
#OFFSET:0.000000;
#SAMPLESTART:52.800003;
#SAMPLELENGTH:21.599998;
#SELECTABLE:YES;
#BPMS:0.000=200.000;
#STOPS:;
#DELAYS:;
#WARPS:;
#TIMESIGNATURES:0.000=4=4;
#TICKCOUNTS:0.000=4;
#COMBOS:0.000=1;
#SPEEDS:0.000=1.000=0.000=0;
#SCROLLS:0.000=1.000;
#FAKES:;
#LABELS:0.000=Song Start;
#BGCHANGES:;
#KEYSOUNDS:;
#ATTACKS:
;

//---------------dance-single - ----------------
#NOTEDATA:;
#CHARTNAME:;
#STEPSTYPE:dance-single;
#DESCRIPTION:;
#CHARTSTYLE:;
#DIFFICULTY:Hard;
#METER:17;
#RADARVALUES:0.823978,0.906872,0.425639,0.147671,0.786129,664.000000,615.000000,49.000000,17.000000,0.000000,0.000000,0.000000,0.000000,0.000000,0.823978,0.906872,0.425639,0.147671,0.786129,664.000000,615.000000,49.000000,17.000000,0.000000,0.000000,0.000000,0.000000,0.000000;
#CREDIT:;
#NOTES:
// measure 0
0000
0000
0000
0000
,  // measure 1
0000
0000
0000
0000
0000
2000
0000
3000
,  // measure 2
0001
0000
0001
0010
0000
0010
0100
0000
0100
1000
0000
1000
,  // measure 3
0001
0000
0001
0100
0000
0100
0002
0000
0000
0000
0003
0000
,  // measure 4
1000
0000
1000
0001
0000
0001
0100
0000
0100
0010
0000
0010
,  // measure 5
1000
0000
1000
0001
0000
0001
0200
0000
0000
0300
0000
0000
,  // measure 6
1000
0000
1000
0001
0000
0001
0100
0000
0100
0010
0000
0010
,  // measure 7
1000
0001
1000
0100
0000
0100
0010
0000
0010
1000
0100
1000
,  // measure 8
0001
0000
0001
0100
0000
0110
1000
0000
1000
0001
0000
0001
,  // measure 9
0010
1000
0000
1000
0100
0000
0001
0000
0000
0010
0000
0110
,  // measure 10
0000
1000
0000
1000
0001
0000
0001
0100
0000
0010
0000
0010
,  // measure 11
1000
0100
1000
0001
0000
0001
0200
0000
0000
0300
0000
0000
,  // measure 12
0010
0000
0010
1000
0000
1000
0001
0000
0001
0100
0010
0100
,  // measure 13
0000
1000
0000
1000
0001
0000
2000
0000
0000
3000
0000
0000
,  // measure 14
0001
0000
0001
1000
0000
1000
0001
0000
0010
0001
0000
0100
,  // measure 15
0000
0100
0010
0000
0001
0000
0010
0100
0000
0100
0001
0000
,  // measure 16
0001
0000
1000
0000
0000
0000
1001
0000
0000
0000
0000
0000
1100
0000
0000
0000
0000
0000
0100
0000
0000
0100
0000
0000
,  // measure 17
0000
0000
0011
0000
1001
0000
0100
0100
,  // measure 18
0000
1000
0001
0001
0010
0100
0010
0000
,  // measure 19
0100
0000
1010
0000
1100
0001
0000
0001
,  // measure 20
0010
0100
0100
0010
0001
0010
1001
0000
,  // measure 21
1000
1000
0010
0100
0100
0001
0010
0001
,  // measure 22
1000
0000
1000
0001
0010
0100
0100
0001
,  // measure 23
0010
0001
1000
0000
1001
0000
0010
0100
,  // measure 24
0100
0001
0010
0001
1000
1000
0010
0100
,  // measure 25
0010
0001
1001
1010
,  // measure 26
1100
0000
0001
0000
0001
1000
0000
1000
0010
0000
0010
0100
0000
0100
0001
0000
,  // measure 27
0001
0000
1000
0100
1000
0000
0001
0010
0001
0000
0100
0000
0100
0010
0000
1000
,  // measure 28
0100
1000
0001
0000
0001
0100
0010
0100
0000
1000
0000
1000
0001
0000
0001
0000
,  // measure 29
0010
0100
0000
0100
0010
0000
1000
0000
1000
0000
0001
0000
0010
0000
0001
0000
,  // measure 30
1001
0000
0000
0100
0000
0100
0010
0000
0010
0000
1000
0001
1000
0000
0000
0000
,  // measure 31
0110
0000
1000
0000
0001
0000
0001
0000
1100
0000
0000
0010
0100
0001
0000
0001
,  // measure 32
0000
0010
0100
0000
0100
0000
0001
0010
0001
0000
1000
0000
1000
0000
0010
0100
,  // measure 33
0010
0000
0001
0000
1001
0000
0000
0100
0001
0000
0001
0000
1000
0100
0010
0000
,  // measure 34
0000
0000
1001
0000
0000
0000
0100
0000
0010
0000
0001
0000
0000
0000
0001
0010
,  // measure 35
0000
0100
1000
0000
0000
0000
1000
0000
0100
0000
0010
0000
0000
0000
0010
0100
,  // measure 36
0000
0000
1001
0000
0000
0000
0100
0000
0001
0000
1000
0000
0000
0001
1000
0000
,  // measure 37
0000
0000
0011
0000
0000
0000
0001
0000
1000
0000
0100
0000
0000
0010
0100
0000
,  // measure 38
0000
0000
0001
0000
0000
0000
0001
0000
0010
0000
0100
0010
0000
0000
1000
0000
,  // measure 39
0000
0000
1001
0000
0000
0000
0010
0000
0100
0000
0010
0000
0000
0000
0100
0001
,  // measure 40
0000
1000
0100
0000
0000
0000
0001
0000
1000
0000
0001
0000
0000
0000
1000
0000
,  // measure 41
2002
0000
0000
0000
,  // measure 42
0000
0000
0000
0000
0000
0000
3003
0000
0000
0000
1000
0001
1000
0001
1000
0000
,  // measure 43
0000
0010
0000
0010
0100
0000
0100
0001
0000
0001
1000
0000
,  // measure 44
1000
0000
0001
0010
0001
0000
1000
0000
1000
0010
0000
0000
0010
0000
0100
0001
,  // measure 45
0100
1000
0010
0010
1100
0001
1000
0001
,  // measure 46
0000
0100
0010
0100
0001
0000
0001
0000
1000
0000
0100
0000
1000
0000
0000
0000
,  // measure 47
1001
0000
0000
0000
0100
0010
0100
0000
0001
0000
0001
0000
1000
0000
1000
0000
,  // measure 48
0001
0010
0001
0000
0100
0000
0010
0000
0010
0000
1000
0100
1000
0000
0001
0000
,  // measure 49
0001
0100
0000
0000
0100
0000
0001
0010
0001
0000
1000
0000
1000
0000
0000
0000
,  // measure 50
1001
0000
0000
0000
0100
0001
0000
0000
0001
0000
0100
0010
0100
0000
0000
0000
,  // measure 51
1100
0000
0010
0000
1010
0000
0000
0000
1000
0001
1000
0001
1000
0000
0001
0000
,  // measure 52
1001
0000
0000
0000
0100
0001
0000
0000
0001
0000
0010
0100
0010
1000
0000
0000
,  // measure 53
1000
0001
0010
0000
0001
0100
0000
0000
0100
0000
0000
0010
0001
0000
0100
0000
,  // measure 54
0100
0001
0010
0000
1000
0000
1000
0000
0001
0010
0001
0000
0100
0000
0100
0000
,  // measure 55
0010
0000
0010
0000
1000
0100
1000
0000
0001
0000
0001
0000
0100
0010
0000
0000
,  // measure 56
0010
0000
1000
0100
1000
0000
0000
0001
0010
0000
0001
0000
0100
0000
0010
0000
,  // measure 57
0010
0000
1000
0100
1000
0000
0001
0000
0001
0000
0000
0000
1001
0000
0000
0000
,  // measure 58
1100
0000
0000
0000
1010
0000
0000
0000
0001
0000
0001
0010
0100
0010
1000
0000
,  // measure 59
1000
0000
0001
0000
0010
0000
0000
0000
0001
0010
0100
1000
0010
0100
0010
0100
,  // measure 60
0000
0000
0000
1001
0000
0000
0000
0000
1000
0000
0000
0000
1000
0000
0010
0000
0100
0000
0010
0000
0000
0000
0001
0000
,  // measure 61
0000
0001
1000
0100
1000
0010
0000
0010
0100
0100
0001
0000
,  // measure 62
0002
0000
0000
0100
0000
0000
0100
0000
0000
0000
0003
0010
,  // measure 63
0000
0010
0100
2000
0000
0000
0000
0000
0000
3000
0001
0000
,  // measure 64
0001
0010
0100
0010
1000
0000
1001
0000
1000
0010
0000
0010
,  // measure 65
0200
0000
0000
0300
0010
0000
0010
0001
0000
0001
1000
0000
,  // measure 66
1000
0200
0000
0320
0000
0032
0000
2003
,  // measure 67
0000
3010
0010
0000
0001
1001
1000
0010
,  // measure 68
1200
0000
0000
0000
0000
1000
0000
1000
,  // measure 69
0001
0000
0001
1000
0000
1000
0010
0010
,  // measure 70
0300
1000
0001
0000
0001
1000
0100
1000
,  // measure 71
0001
0010
0000
0000
0001
1000
0000
0000
0001
0000
0000
0000
0010
0000
0100
0000
,  // measure 72
0110
0000
1000
0001
0010
0001
0000
1000
,  // measure 73
1001
0000
0010
1000
1100
0001
0000
0010
,  // measure 74
1000
0000
0000
1000
0001
0000
0000
0001
0100
0000
0000
0100
0000
0001
0000
0000
,  // measure 75
1001
0000
0000
0000
0100
0000
0100
0000
0100
0000
0001
0010
1000
0100
0000
0000
,  // measure 76
0001
0000
0010
1000
0000
1000
0000
0001
0010
0001
0000
0100
0100
0000
0010
0000
,  // measure 77
0010
0000
1000
0000
1000
0001
0000
0000
0001
0100
0000
0000
0100
0000
0010
0000
,  // measure 78
0001
1000
0000
1000
0001
0000
0001
0000
0000
0100
0010
0100
0001
0000
0001
0000
,  // measure 79
1000
0100
1000
0010
0000
0000
0010
0000
0001
0000
0100
0000
0100
0000
0001
0000
,  // measure 80
0001
0000
1000
0100
1000
0000
0001
0000
0001
0000
0100
0010
0100
0000
0000
0000
,  // measure 81
1100
1010
1001
0001
,  // measure 82
1001
0000
0000
0000
0010
0000
1000
0100
1000
0001
0000
0000
0001
0000
0100
0000
,  // measure 83
0110
0000
0000
1000
0001
0000
0001
0000
1010
0000
0000
0010
0100
0010
0000
0000
,  // measure 84
1001
0000
1100
0000
0000
0010
0000
0000
0110
0000
1000
0000
1000
0001
0000
0000
,  // measure 85
0001
0000
0010
0100
0010
1000
0000
0000
1000
0000
0000
0000
0001
0000
0000
0000
,  // measure 86
2002
0000
0000
0003
,  // measure 87
3001
0000
0000
0000
;
