#TITLE:Kaleidoscope;
#SUBTITLE:;
#ARTIST:U-F SEQUENCER;
#TITLETRANSLIT:;
#SUBTITLETRANSLIT:;
#ARTISTTRANSLIT:;
#GENRE:;
#CREDIT:PaperBox440;
#BANNER:Kaleidoscope.png;
#BACKGROUND:Kaleidoscope-bg.png;
#LYRICSPATH:;
#CDTITLE:cdtitle.png;
#MUSIC:Kaleidoscope.mp3;
#OFFSET:0.000000;
#SAMPLESTART:38.598728;
#SAMPLELENGTH:17.961784;
#SELECTABLE:YES;
#BPMS:0.000000=157.000000
;
#STOPS:416.000000=0.100000,
416.500000=0.100000,
417.500000=0.100000,
418.000000=0.100000,
418.250000=0.100000
;
#BGCHANGES:;
#KEYSOUNDS:;
#ATTACKS:;

//---------------dance-single - ----------------
#NOTES:
     dance-single:
     :
     Challenge:
     16:
     0.779451,1.024985,0.662468,0.207021,0.443946,1186.000000,1042.000000,144.000000,45.000000,0.000000,0.000000,0.779451,1.024985,0.662468,0.207021,0.443946,1186.000000,1042.000000,144.000000,45.000000,0.000000,0.000000:
// measure 0
0000
0000
0000
0000
,  // measure 1
0000
0000
0000
0000
,  // measure 2
0000
0000
0000
0000
0000
0000
0000
0000
0000
0000
0000
0000
0010
0001
0100
0000
,  // measure 3
0000
0000
0000
0000
0000
0000
0000
0000
0000
0000
0000
0100
0100
0010
1000
0000
,  // measure 4
0000
0000
0000
0000
0010
0100
0001
1000
0000
0000
0000
0000
1000
0010
0100
0001
,  // measure 5
0000
0000
0000
0000
0000
0000
0000
0000
0000
0000
0000
0000
1000
0001
0100
0010
,  // measure 6
0000
0000
0000
0000
0000
0000
0000
0000
0000
0000
0000
0000
0100
0010
0100
0010
,  // measure 7
0000
0000
0000
0000
1000
0000
0000
0000
1000
0001
0100
0010
0000
0000
0000
0000
,  // measure 8
0110
0100
1010
0010
0110
0100
0101
0000
,  // measure 9
1000
0010
0100
0000
1001
0000
0010
0000
0000
0100
1000
0000
0011
0000
0100
0000
,  // measure 10
0000
0001
0010
0000
0101
0000
1000
0000
0000
0010
0100
0000
0110
0000
0001
1000
,  // measure 11
0000
0000
0100
0000
1010
0000
0001
0100
0000
0000
1000
0000
0101
0000
0010
0000
,  // measure 12
0000
0001
0100
0000
1010
0000
0001
0000
0000
0100
0010
0000
1001
0000
0100
0010
,  // measure 13
0000
0000
0001
0000
1100
0000
0010
0001
0000
0000
1000
0000
0110
0000
0001
0000
,  // measure 14
0000
0010
1000
0000
0101
0000
0010
0000
0000
0100
1000
0000
0011
0000
0000
0000
,  // measure 15
0210
0001
0001
0010
,  // measure 16
0020
0000
0000
0030
0002
0000
0003
0000
,  // measure 17
0310
0000
1100
0000
0100
0000
0011
0010
,  // measure 18
0010
0000
0011
0000
0001
0000
1001
1000
,  // measure 19
1000
0000
1100
0000
0100
0000
0100
0010
,  // measure 20
0110
0000
0000
0000
0110
0000
0000
0000
1010
0000
0000
0000
1000
0001
1000
0001
,  // measure 21
0000
0000
1000
0100
1100
0000
0100
0000
,  // measure 22
0110
0110
0001
0000
0011
1000
1001
1000
,  // measure 23
0100
0010
1000
0001
0000
0010
0100
0001
1000
0000
0010
0000
0000
0100
0010
0001
,  // measure 24
1000
0000
0100
0000
0100
0010
0001
0100
2000
0000
3000
0000
0010
0100
0010
0001
,  // measure 25
1000
1001
0001
0101
,  // measure 26
0100
0000
0101
0000
1001
0000
1000
0100
,  // measure 27
1010
0110
0101
0001
,  // measure 28
1001
0000
1100
0020
0001
0000
0100
0130
,  // measure 29
1000
0000
0101
1000
0100
0000
0110
0001
,  // measure 30
0010
0000
1010
0100
1000
0000
1001
0010
,  // measure 31
0010
0100
1010
0001
0010
1000
0110
0100
,  // measure 32
0100
0010
0101
1000
0001
0001
1010
0100
,  // measure 33
1000
1000
0011
0100
0010
0001
1100
1000
,  // measure 34
0010
0100
0110
1000
0001
0010
1001
0000
,  // measure 35
0010
0100
1100
0000
0001
0010
1001
0000
,  // measure 36
0010
0010
1100
0000
1010
0010
0110
1000
,  // measure 37
0001
0001
1010
0010
0100
1000
1001
0000
,  // measure 38
0010
0000
0100
0000
0110
0000
0000
0000
1000
0010
0100
0000
1000
0000
0010
0000
,  // measure 39
0001
0000
0100
1000
0010
0000
0001
0000
1000
0100
1000
0000
0010
0000
0100
0000
,  // measure 40
1010
0000
0001
0000
0100
0010
0100
0000
1000
0000
0000
0000
0100
0010
0001
1000
,  // measure 41
0000
0010
1000
0000
1001
1001
0100
0010
,  // measure 42
0001
0000
1000
0000
0110
0000
1000
0001
0100
0000
0000
0000
1000
0010
1000
0000
,  // measure 43
0100
0010
0100
0000
0001
0000
0010
0000
1100
0000
1000
0000
1000
0000
0001
0000
,  // measure 44
0010
0000
0100
0000
0100
0000
1000
0000
1000
0001
0010
0100
0100
0010
0000
0000
,  // measure 45
1000
0000
0100
0100
0010
0000
0010
0001
1000
0000
0000
0100
0010
0100
0001
0000
,  // measure 46
0010
0000
0100
0001
1000
0000
0010
0000
0110
0000
0001
0000
1000
0010
0100
0001
,  // measure 47
0001
0000
1000
0000
0010
0100
0000
0010
1000
0100
1000
0100
1000
0100
1000
0000
,  // measure 48
0010
0001
0100
0000
0010
0001
0100
0000
1000
0000
1000
0010
0100
0010
0100
0000
,  // measure 49
0001
1000
0000
1000
0010
0100
0002
0000
0000
0000
0000
0000
0000
0000
0000
0000
,  // measure 50
0000
0000
0000
0000
0000
0000
0000
0000
1000
0000
0100
0010
0103
0000
0010
0000
,  // measure 51
0010
0000
1000
1000
0110
0000
0100
0000
,  // measure 52
1010
0011
0001
0100
,  // measure 53
1001
0000
0110
0000
1010
0000
0110
0110
,  // measure 54
0110
0000
0011
0000
1001
0000
1100
1100
,  // measure 55
1100
0000
0000
0000
1010
0000
0001
0010
1000
0000
0100
0001
0010
1000
0100
0010
,  // measure 56
0001
0100
1000
0001
0010
1000
0100
0010
0001
0100
1000
0000
0020
0000
0000
0000
,  // measure 57
0130
0001
0100
0100
1000
0010
0001
0100
,  // measure 58
0010
0001
0010
0000
1000
0000
0100
0000
1000
0000
0001
0000
0001
0000
0010
0000
,  // measure 59
0100
0000
0001
0000
1000
0000
0010
0001
0010
0000
0100
0000
0001
0000
1000
0000
,  // measure 60
1000
0000
0100
0000
1000
0000
0010
0000
0001
0000
0100
1000
0100
0000
0010
0000
,  // measure 61
0001
0000
0001
0000
0100
0010
0100
0010
0100
0000
1000
0000
0010
0100
0010
0100
,  // measure 62
0010
0000
0001
0000
0100
0000
1000
0010
1000
0001
1000
0000
0010
0100
0010
1000
,  // measure 63
0010
0100
0012
0010
0100
0100
0103
0000
,  // measure 64
2002
0000
0000
0000
3003
0000
0000
0000
2200
0000
0000
0000
3300
0000
0000
0000
2020
0000
0000
0000
3030
0000
0000
0000
0220
0000
0000
0000
0330
0000
0000
0000
0000
0000
0000
0000
0002
0000
0000
0003
0000
0000
0200
0000
0000
0302
0000
0000
,  // measure 65
0003
0000
0000
0200
0000
0000
0000
0000
0000
0000
0000
0000
0010
0000
0000
0000
0000
0000
0001
0000
0300
0000
0000
0000
0010
0000
0000
0000
1000
0000
0000
0000
0000
0000
0000
0000
0010
0000
0000
1000
0000
0000
0001
0000
0000
0000
0000
0000
,  // measure 66
0100
0000
0010
0100
0010
0000
1000
0001
0100
0000
1000
0010
0001
0100
0001
0000
,  // measure 67
0010
1000
0001
0000
0100
1000
0010
0000
0100
0000
1000
0010
0001
0100
1000
0000
,  // measure 68
0010
0001
0100
1000
0010
0100
0001
0000
1000
0010
0100
0000
0010
0000
0100
0001
,  // measure 69
0000
1000
0010
0000
0100
0010
0001
1000
0000
0100
1000
0000
0001
0010
0001
0000
,  // measure 70
0010
0001
0010
0000
1000
0100
1000
0000
0100
0010
0200
0000
0300
0000
0010
0000
,  // measure 71
0100
0000
0010
0000
0001
0000
1000
0100
1000
0100
1000
0000
0010
0100
0001
1000
,  // measure 72
0010
0100
0010
1001
0100
1000
0010
0100
0002
0000
0000
0000
0000
0000
0000
0000
,  // measure 73
0000
0000
0000
0003
0002
0003
0002
0003
,  // measure 74
0002
0003
0002
0003
0002
0003
0002
0003
,  // measure 75
0002
0003
0002
0003
0001
0000
0001
0000
,  // measure 76
0001
0001
0001
1001
,  // measure 77
0020
0000
0000
0000
0000
0000
0000
0030
,  // measure 78
0200
0000
0000
0000
0000
0300
2000
0001
,  // measure 79
0001
0001
0010
0010
0010
0000
3000
0000
,  // measure 80
0200
0000
0320
2030
,  // measure 81
0000
3000
0100
0110
0000
0000
1010
0000
,  // measure 82
0001
0000
1001
0000
0000
0110
0110
0000
,  // measure 83
1000
1010
0100
0101
,  // measure 84
0010
1010
1000
1001
,  // measure 85
0001
0000
0110
1000
0001
0001
0010
0100
,  // measure 86
0010
0000
0110
0000
1000
0000
1001
0100
,  // measure 87
0010
0010
0001
0100
0010
1000
0100
1000
0010
0001
1000
0100
0010
0001
1000
0010
,  // measure 88
0100
1000
0100
0010
0001
1000
0100
1000
0000
0010
0100
0010
0100
0010
0001
1000
,  // measure 89
0002
0000
0100
0000
0013
0000
0100
0010
,  // measure 90
0100
0000
1000
1100
0010
0000
0011
0100
,  // measure 91
1000
0000
1000
1001
0000
0010
0100
0010
,  // measure 92
0000
0001
1001
0000
0110
0000
1000
0100
,  // measure 93
1000
0000
0010
0010
1100
0000
0100
0010
,  // measure 94
0100
0000
0101
0000
1100
0001
1001
0010
,  // measure 95
0010
0010
1000
0000
0100
0010
0100
0000
,  // measure 96
0010
0000
0100
0000
0001
0000
1000
0100
,  // measure 97
2002
0000
3000
0000
1003
0000
1000
0100
,  // measure 98
1000
0010
0100
1000
0001
0000
0100
0010
,  // measure 99
0001
1000
0100
1000
0010
0010
0100
0100
,  // measure 100
0001
0000
1000
0000
0010
0001
0010
0000
0100
1000
0000
0000
2002
0000
0000
0000
,  // measure 101
0000
0000
3003
0000
0000
0000
1001
0100
0010
1000
0100
0010
0001
0010
0001
1000
,  // measure 102
0100
1000
0010
0100
0001
0010
1000
0100
1000
0000
0100
0010
0001
0100
1000
0000
,  // measure 103
0100
0010
0001
1000
0010
0100
0010
0001
1000
0010
0100
0010
0001
0000
0000
0000
,  // measure 104
1100
0000
1001
0000
0000
0000
0110
0000
1100
0220
0330
0000
0000
0000
0001
0000
,  // measure 105
1010
0100
0100
0010
1100
0001
0010
0010
,  // measure 106
1001
0100
0010
0010
0101
1000
0100
1000
,  // measure 107
0110
0001
0010
0010
1001
0100
0010
0100
,  // measure 108
1010
0100
1001
1001
1001
0100
0010
0100
,  // measure 109
0110
0001
0001
1000
1010
0100
0010
0001
,  // measure 110
0100
0100
0010
0010
1000
0100
1000
0001
,  // measure 111
0100
0010
0010
1000
0100
1000
0010
0001
,  // measure 112
0100
0100
0010
1000
0100
1000
0010
0100
,  // measure 113
0010
0001
0001
1000
0100
1000
0010
0100
,  // measure 114
0010
0001
0001
1000
0100
1000
0010
0100
,  // measure 115
0010
0010
1000
0100
1000
0001
0001
0010
,  // measure 116
0001
1000
0100
1000
0010
0100
0010
0010
,  // measure 117
0001
1000
0100
1000
0010
0001
0100
0010
,  // measure 118
0010
1000
0100
1000
0001
0100
0010
0100
,  // measure 119
1000
1000
0001
0001
0010
0100
0010
0001
,  // measure 120
1000
0000
1000
0000
0011
0000
0100
0000
0010
1000
0000
0000
0100
0000
0010
0000
,  // measure 121
0001
0000
1000
0000
0100
0001
0100
0000
0010
0000
0001
0010
0001
0000
0100
0000
,  // measure 122
0010
0000
0100
0000
0010
0000
0001
0000
1000
0100
1000
0100
1000
0000
0010
0000
,  // measure 123
0100
0000
0010
0000
0100
0000
0000
0000
0001
1000
0001
1000
0011
0000
0000
0000
,  // measure 124
1010
0100
0100
0010
0100
0010
0100
1000
,  // measure 125
0010
0000
0001
0000
0100
0000
0100
0000
1000
0001
1000
0001
1000
0000
0010
0000
,  // measure 126
0100
0001
1000
0100
0010
0010
1000
0100
,  // measure 127
1000
0001
0100
0100
0010
1000
0100
1000
,  // measure 128
0001
0010
0100
0100
0010
1000
0100
1000
,  // measure 129
0110
0000
0001
0000
0010
0000
1000
0000
1001
0000
0100
0010
0100
0010
0100
0000
,  // measure 130
1000
0001
0100
0010
0101
0101
1000
0010
,  // measure 131
1010
0000
0000
0000
0100
0010
0100
0000
0001
0000
1000
0000
0100
0000
1000
0000
,  // measure 132
0010
0000
0100
0000
0100
0000
0001
1000
0001
1000
0001
0000
0100
0000
0100
0000
,  // measure 133
1010
0000
0000
0000
1100
0000
1000
0000
0010
0100
0010
0001
1000
0100
1000
0010
,  // measure 134
0000
0100
0010
0000
0100
1000
0001
0010
0100
0000
0010
1000
0100
1000
0001
0001
,  // measure 135
0010
0100
0010
0001
1000
0100
1000
0010
0001
0000
0100
0010
1000
0100
1000
0001
,  // measure 136
0010
0000
0100
0001
0010
1000
0100
0000
2002
0000
0000
0000
3003
0000
0000
0000
,  // measure 137
0010
0010
1100
0000
0100
0100
0011
0000
,  // measure 138
1000
1000
0101
0000
0010
0010
1100
0000
,  // measure 139
0001
0001
1010
0000
0000
0000
0000
0000
;
