#VERSION:0.83;
#TITLE:KISS KISS KISS;
#SUBTITLE:~super euro version~;
#ARTIST:NAOKI with B4 Z4 BEAT;
#TITLETRANSLIT:;
#SUBTITLETRANSLIT:;
#ARTISTTRANSLIT:;
#GENRE:;
#ORIGIN:;
#CREDIT:;
#BANNER:KISS KISS KISS -super euro version-.png;
#BACKGROUND:KISS KISS KISS -super euro version--bg.png;
#PREVIEWVID:;
#JACKET:KISS KISS KISS -super euro version--jacket.png;
#CDIMAGE:;
#DISCIMAGE:;
#LYRICSPATH:;
#CDTITLE:cdtitle.png;
#MUSIC:KISS KISS KISS -super euro version-.mp3;
#OFFSET:0.000000;
#SAMPLESTART:41.714287;
#SAMPLELENGTH:13.523808;
#SELECTABLE:YES;
#BPMS:0.000=157.500;
#STOPS:;
#DELAYS:;
#WARPS:;
#TIMESIGNATURES:0.000=4=4;
#TICKCOUNTS:0.000=5;
#COMBOS:0.000=1;
#SPEEDS:0.000=1.000=0.000=0;
#SCROLLS:0.000=1.000;
#FAKES:;
#LABELS:0.000=Song Start;
#BGCHANGES:;
#KEYSOUNDS:;
#ATTACKS:
;

//---------------dance-single - ----------------
#NOTEDATA:;
#CHARTNAME:;
#STEPSTYPE:dance-single;
#DESCRIPTION:;
#CHARTSTYLE:;
#DIFFICULTY:Challenge;
#METER:14;
#RADARVALUES:0.579211,0.663906,0.381190,0.173268,0.046205,351.000000,318.000000,33.000000,15.000000,0.000000,0.000000,0.000000,0.000000,0.000000,0.579211,0.663906,0.381190,0.173268,0.046205,351.000000,318.000000,33.000000,15.000000,0.000000,0.000000,0.000000,0.000000,0.000000;
#CREDIT:;
#NOTES:
// measure 0
0000
0000
0000
0000
,  // measure 1
0000
0000
0000
0000
,  // measure 2
0000
0000
0000
0000
,  // measure 3
0000
0000
0000
0000
,  // measure 4
0000
0001
0001
1000
0100
1000
0010
0010
,  // measure 5
0100
0001
0010
1000
1000
0100
0100
0010
,  // measure 6
0100
0001
0010
1000
0100
1000
0010
0100
,  // measure 7
0001
0001
1100
1000
0010
0110
0100
0001
,  // measure 8
1001
0000
1000
1000
0001
0100
1000
0010
,  // measure 9
0100
0010
0001
1000
1000
0010
0100
0010
,  // measure 10
0001
1000
0100
0100
0001
0010
1000
0100
,  // measure 11
0010
0110
1001
0100
1010
0001
0101
1100
,  // measure 12
0100
0000
0010
1000
0100
0001
0010
1000
,  // measure 13
1000
0010
0001
0000
1100
0000
0010
0010
,  // measure 14
0100
0000
0101
0001
1000
0000
0011
0100
,  // measure 15
0010
0000
0100
0010
1000
0100
0001
0000
,  // measure 16
0110
0001
0010
0100
1000
0001
0100
0010
,  // measure 17
1000
0000
0011
0000
0001
1000
0100
0000
,  // measure 18
1010
0000
0010
0001
0100
0001
1000
0000
,  // measure 19
0010
0100
0001
1000
0000
0010
0010
0100
,  // measure 20
0010
1000
1001
0000
0100
0100
0010
1000
,  // measure 21
0001
1001
0000
0000
0010
0000
1000
0010
,  // measure 22
0100
0100
0001
1000
1000
0010
0100
0000
,  // measure 23
0001
0100
0010
1000
1000
0000
0010
0100
,  // measure 24
0010
0100
1001
0000
0010
1000
0100
1000
,  // measure 25
0100
0000
1001
0000
0010
1000
0100
1000
,  // measure 26
0010
0100
0001
0001
1000
0100
1000
0010
,  // measure 27
0001
1100
1010
0110
,  // measure 28
0101
0000
0010
0010
1000
0100
1000
0010
,  // measure 29
0100
0010
0001
1000
0100
0200
0300
0000
,  // measure 30
0020
0000
0000
0000
0130
1000
0001
0001
,  // measure 31
0010
1100
0011
1000
,  // measure 32
0200
0000
0300
0000
0010
1000
1000
0000
,  // measure 33
0100
1000
0001
0001
0000
0010
0100
0010
,  // measure 34
1000
1000
0022
0033
2200
3300
0000
0000
,  // measure 35
2001
0010
3100
0110
,  // measure 36
1010
0000
0001
0001
0100
1000
0001
0010
,  // measure 37
0100
0100
1000
0000
2020
3030
0000
0000
,  // measure 38
0200
0000
0000
0000
0300
0001
0100
0010
,  // measure 39
0010
1100
1010
0001
,  // measure 40
0200
0000
0300
1000
0001
0010
0000
1000
,  // measure 41
0100
0000
0000
0000
1000
0000
0100
0000
0001
0000
0010
0000
1000
0001
1000
0001
,  // measure 42
0000
0010
0100
0001
0001
0100
1000
1000
,  // measure 43
0100
0020
0000
0000
0000
0030
0000
0000
,  // measure 44
1000
0001
1000
0010
0100
0100
0010
0010
,  // measure 45
1000
0100
1000
0001
0010
0001
1000
0100
,  // measure 46
0100
0010
1000
0100
1000
0001
0100
0010
,  // measure 47
0010
0000
1000
0100
1000
0000
0010
0100
0010
0001
1000
0000
0100
0000
1000
0010
,  // measure 48
0001
0001
0100
0010
1000
0100
1000
0010
,  // measure 49
0001
0100
0100
0010
0100
1000
0010
0100
,  // measure 50
0001
0001
1000
0100
1000
0010
0010
0001
,  // measure 51
0100
0000
0010
1000
0100
0000
1000
0000
0010
0100
0001
0000
1000
0000
1000
0000
,  // measure 52
2002
3003
0000
0000
;

//---------------dance-single - ----------------
#NOTEDATA:;
#CHARTNAME:;
#STEPSTYPE:dance-single;
#DESCRIPTION:;
#CHARTSTYLE:;
#DIFFICULTY:Hard;
#METER:14;
#RADARVALUES:0.572610,0.572002,0.369639,0.092410,0.000000,347.000000,315.000000,32.000000,8.000000,0.000000,0.000000,0.000000,0.000000,0.000000,0.572610,0.572002,0.369639,0.092410,0.000000,347.000000,315.000000,32.000000,8.000000,0.000000,0.000000,0.000000,0.000000,0.000000;
#CREDIT:;
#NOTES:
0000
0000
0000
0000
,
0000
0000
0000
0000
,
0000
0000
0000
0000
,
0000
0000
0000
0000
,
1000
0100
0010
0100
0010
0001
1000
0100
,
1000
0100
1000
0010
0001
0100
0010
0010
,
1000
0100
1000
0001
0100
0010
0010
0100
,
1000
0100
0001
0010
0100
1000
0100
0010
,
0001
0000
1000
1000
0010
0001
1000
0010
,
0100
0100
0001
0001
1000
0100
0010
0010
,
1000
0100
1000
0001
0001
0010
0100
0010
,
1000
1000
0001
0010
0100
1000
0100
0010
,
0001
0000
1100
0000
0010
1000
0100
0000
,
0011
0100
0001
0010
1000
0000
0110
0000
,
0010
0000
1100
0010
1000
0100
0001
0100
,
0010
0000
1000
0000
1100
0001
0100
0000
,
0110
0001
0100
0000
1010
0001
0000
0100
,
0011
0000
0100
0010
0001
0000
0110
0001
,
1000
0100
1000
0000
0110
0000
0001
0000
,
0110
0000
1010
0000
1100
0000
0001
0010
,
0100
0010
1001
0000
0100
1000
0010
0001
,
0100
0100
2020
3030
0000
0001
0010
0100
,
0010
0001
1100
0000
1000
0010
0100
0010
,
0001
0000
0001
1000
0010
0100
0010
0000
,
0100
1010
0000
0001
1000
0000
1000
0010
,
0100
1001
0000
0000
1000
0010
0001
0000
,
0001
0000
0100
0010
1000
0000
1000
0010
,
0010
1000
0100
0010
,
0001
0000
1001
0000
0100
1000
0010
0100
,
0001
0001
1000
0100
1000
0010
0001
0100
,
0000
1000
0100
0010
1000
1000
0011
0000
,
0110
0000
1010
0000
1100
0000
0010
0100
,
0001
0001
0010
0100
0100
0000
1000
0000
,
0001
0010
0100
0010
1000
1000
0001
0000
,
0001
0100
0010
0100
1000
0010
0010
0100
,
0002
0000
0000
0003
1000
0000
1100
0010
,
0101
0000
0010
1000
0100
1000
0001
0100
,
0010
0010
1100
0000
2020
0000
3030
0000
,
0002
0000
0003
1000
0100
1000
0010
0001
,
0100
0100
1010
0000
0110
1000
0001
0010
,
0001
0100
1010
0000
0010
1000
0100
1000
,
0010
0001
0100
0010
1100
0000
1000
0010
,
0100
0010
0000
0001
1000
0010
0100
0000
,
1000
0020
0000
0000
0000
0000
0000
0000
,
0030
0100
0100
0010
0001
0100
0010
1100
,
1000
0001
0010
0100
0010
1000
1000
0001
,
0100
0010
0010
1000
0100
1000
0001
0100
,
0010
0010
1000
0100
0010
0001
0010
0100
,
1000
0010
0100
1000
0010
0001
0001
0100
,
1000
0100
0010
0010
0001
1000
0100
0010
,
1000
0010
0100
1000
0001
0010
0100
0010
,
1000
1000
0001
0010
0100
1000
0100
0010
,
0002
0003
0000
0000
0000
0000
0000
0000
;

//---------------dance-single - ----------------
#NOTEDATA:;
#CHARTNAME:;
#STEPSTYPE:dance-single;
#DESCRIPTION:;
#CHARTSTYLE:;
#DIFFICULTY:Medium;
#METER:10;
#RADARVALUES:0.430695,0.480530,0.346536,0.046205,0.000000,261.000000,231.000000,30.000000,4.000000,0.000000,0.000000,0.000000,0.000000,0.000000,0.430695,0.480530,0.346536,0.046205,0.000000,261.000000,231.000000,30.000000,4.000000,0.000000,0.000000,0.000000,0.000000,0.000000;
#CREDIT:;
#NOTES:
0000
0000
0000
0000
,
0000
0000
0000
0000
,
0000
0000
0000
0000
,
0000
0000
0000
0000
,
0001
0010
1000
0000
0100
1000
0010
0000
,
0100
0010
0100
0000
0001
0100
1000
0000
,
0100
0010
1000
0000
0010
0100
1000
0001
,
0100
0000
0001
0010
0100
1000
0100
0010
,
0001
0000
1000
0000
0100
0010
0100
0000
,
0010
1000
0001
0100
0000
0010
1000
0100
,
1000
0001
0001
0100
0010
1000
1000
0000
,
0100
0010
0001
0010
0100
1000
0100
0010
,
0000
1001
0100
0010
,
0100
0001
0001
1000
,
0100
1000
0010
1010
,
0001
0100
0010
0001
,
1100
0110
1000
0110
,
1000
0100
1000
0001
,
0001
0110
1000
1010
,
0110
0011
0110
0100
,
1000
1010
0001
0010
,
0100
0000
2002
3003
0000
0000
0001
0000
,
0110
0010
1000
0100
,
1000
0001
0001
0110
,
0100
1010
0001
0010
,
0100
1010
0001
0010
,
0100
0000
1000
0010
,
0100
0000
0001
0001
,
0001
0010
1000
0001
,
0110
1100
1010
0100
,
1000
0001
0010
0010
,
0100
1100
0011
0100
,
0100
1010
0100
0010
,
0001
1000
0010
0010
,
0001
0100
1000
0010
,
0010
2000
0000
3000
,
0100
0110
1000
0001
,
0010
0100
0110
0100
,
0011
1000
0010
0100
,
0101
1000
1100
0001
,
0010
0100
0110
0001
,
0010
1000
0100
1000
,
0011
0010
1100
0100
,
1000
0020
0000
0030
,
1000
0100
0010
0100
0001
0000
1000
0100
,
1000
0010
0100
0000
0001
0001
1000
0010
,
0100
0000
0100
0010
0001
1000
1000
0100
,
0010
0000
0001
0010
0100
1000
0100
0010
,
0001
0100
0001
1000
0100
0010
0100
0000
,
0001
1000
0100
1000
0010
0000
0100
0001
,
1000
0010
0010
0100
1000
0001
0100
0100
,
0010
0000
1000
0100
0010
0001
0010
0100
,
1000
0000
0000
0000
;

//---------------dance-single - ----------------
#NOTEDATA:;
#CHARTNAME:;
#STEPSTYPE:dance-single;
#DESCRIPTION:;
#CHARTSTYLE:;
#DIFFICULTY:Easy;
#METER:6;
#RADARVALUES:0.301982,0.360398,0.150166,0.034654,0.000000,183.000000,170.000000,13.000000,3.000000,0.000000,0.000000,0.000000,0.000000,0.000000,0.301982,0.360398,0.150166,0.034654,0.000000,183.000000,170.000000,13.000000,3.000000,0.000000,0.000000,0.000000,0.000000,0.000000;
#CREDIT:;
#NOTES:
0000
0000
0000
0000
,
0000
0000
0000
0000
,
0000
0000
0000
0000
,
0000
0000
0000
0000
,
0000
1000
0100
1000
,
0010
0100
0100
0001
,
1000
0001
0001
0010
,
0100
0010
0010
0100
,
0100
0001
0010
0100
,
1000
0010
0100
0100
,
0010
0001
1000
0010
,
0100
0001
0001
1000
,
1000
0010
1000
0010
,
0000
0100
0010
1000
,
0000
0110
1001
0000
,
0011
1100
0100
0010
,
1000
0001
0000
0010
,
0100
0010
1000
0000
,
0100
1000
0010
0100
,
0010
0001
0100
1000
,
0110
0001
1000
0010
,
0100
1001
0000
0010
,
0100
0001
0100
0001
,
1000
0010
0100
0010
,
0000
1001
0010
0100
,
0000
1010
0000
0001
,
0010
0100
1000
0010
,
0100
0000
0000
0000
,
0000
1001
0010
0100
,
1000
0010
0100
0001
,
0001
0010
0100
1000
,
0100
1010
1100
0010
,
0100
0001
0001
1000
,
0100
1000
0010
1000
,
0100
1000
0001
0100
,
0010
2000
0000
3000
,
0000
0010
0100
0010
,
0001
0001
2000
3000
,
0000
0010
0100
0010
,
0001
0011
1001
0000
,
1000
0100
1000
0001
,
0100
0010
1000
1000
,
0100
0010
0100
0010
,
1000
0002
0000
0003
,
0000
0100
0010
1000
,
0100
0001
0010
0100
,
0010
1000
1000
0001
,
0010
0100
1000
1000
,
0001
0001
0010
0001
,
0100
1000
1000
0010
,
0100
0010
0001
0100
,
1000
0010
0010
0100
,
0100
0000
0000
0000
;

//---------------dance-single - ----------------
#NOTEDATA:;
#CHARTNAME:;
#STEPSTYPE:dance-single;
#DESCRIPTION:;
#CHARTSTYLE:;
#DIFFICULTY:Beginner;
#METER:2;
#RADARVALUES:0.229374,0.270298,0.057756,0.000000,0.000000,139.000000,134.000000,5.000000,0.000000,0.000000,0.000000,0.000000,0.000000,0.000000,0.229374,0.270298,0.057756,0.000000,0.000000,139.000000,134.000000,5.000000,0.000000,0.000000,0.000000,0.000000,0.000000,0.000000;
#CREDIT:;
#NOTES:
0000
0000
0000
0000
,
0000
0000
0000
0000
,
0000
0000
0000
0000
,
0000
0000
0000
0000
,
1000
1000
0001
0100
,
0100
0001
1000
0100
,
1000
0001
1000
0010
,
0100
1000
1000
1000
,
1000
0010
0100
0010
,
0001
1000
1000
0010
,
0001
1000
0100
0010
,
0100
0001
0001
0001
,
0001
0000
0000
0000
,
0000
0100
0000
0010
,
0000
1000
1000
0001
,
0000
0010
0000
0100
,
0000
0010
0010
0000
,
1000
0000
0001
0000
,
0100
0000
0010
0000
,
1000
0000
0001
0001
,
0100
0000
0010
0000
,
1000
0000
0100
0000
,
0001
0000
0010
0000
,
0100
0000
0000
0010
,
0000
1001
0000
0100
,
0000
0010
0000
0001
,
1000
0000
1000
0010
,
0100
0000
0000
0000
,
0110
0000
1000
0000
,
0100
0000
0010
0000
,
0001
0100
0000
0010
,
0000
1000
0000
0100
,
0000
0000
0010
0001
,
0000
1000
1000
0000
,
0010
0001
0100
0010
,
1000
0000
0000
0000
,
1001
0000
0010
0001
,
0000
0010
0000
0100
,
0000
0010
1000
0010
,
0000
1000
1001
0000
,
0100
0010
0000
1000
,
0001
0100
0000
1010
,
0000
0100
1000
0000
,
0010
0000
0000
0000
,
0000
0010
0100
0010
,
1000
1000
0001
0010
,
0100
0010
0001
0100
,
1000
0010
0010
0010
,
0010
0001
0100
0010
,
0010
1000
0100
1000
,
0001
0001
0100
0010
,
1000
0100
0100
0100
,
0100
0000
0000
0000
;
