#TITLE:KIMONO PRINCESS;
#SUBTITLE:-Full Version-;
#ARTIST:jun;
#TITLETRANSLIT:;
#SUBTITLETRANSLIT:;
#ARTISTTRANSLIT:;
#GENRE:;
#CREDIT:;
#BANNER:KIMONO PRINCESS -Full Version-.png;
#BACKGROUND:KIMONO PRINCESS -Full Version--bg.jpg;
#LYRICSPATH:;
#CDTITLE:cdtitle.png;
#MUSIC:KIMONO PRINCESS -Full Version-.mp3;
#OFFSET:0.000000;
#SAMPLESTART:100.000000;
#SAMPLELENGTH:12.000000;
#SELECTABLE:YES;
#BPMS:0.000000=95.023003
,17.000000=190.475998
,25.000000=95.023003
,29.000000=190.000000
,35.500000=95.023003
,39.500000=190.475998
,288.000000=95.023003
,304.000000=190.475998
,335.000000=94.987000
,342.500000=189.994003
,407.000000=190.475998
,487.000000=189.994003
,518.000000=93.250000
;
#STOPS:35.000000=0.160000,
35.500000=0.160000,
319.000000=0.160000,
319.333344=0.160000,
342.500000=0.320000
;
#BGCHANGES:;
#KEYSOUNDS:;
#ATTACKS:;

//---------------dance-single - ----------------
#NOTES:
     dance-single:
     :
     Hard:
     15:
     0.821026,1.081823,0.611508,0.377843,0.407672,1156.000000,1033.000000,123.000000,76.000000,0.000000,0.000000,0.821026,1.081823,0.611508,0.377843,0.407672,1156.000000,1033.000000,123.000000,76.000000,0.000000,0.000000:
// measure 0
0000
0000
0000
0000
,  // measure 1
0000
0000
0000
0000
,  // measure 2
0000
0000
0000
0000
,  // measure 3
0000
0000
0001
0001
0001
0001
0100
0010
,  // measure 4
0100
0000
1000
0000
1000
0100
1000
0010
,  // measure 5
0010
0100
0001
0000
1001
0000
1100
0000
,  // measure 6
0110
0000
0010
0010
0010
1000
0100
1000
,  // measure 7
0100
0000
0001
0000
0001
0010
0100
0010
,  // measure 8
1000
1000
0100
0000
0010
0000
1010
0110
,  // measure 9
0001
0001
0001
0010
0100
0010
0110
0000
,  // measure 10
1000
0001
1000
0100
0010
0010
0100
0001
,  // measure 11
1000
0100
1000
0010
1100
0000
0110
0000
,  // measure 12
0001
0010
0001
0001
0010
0100
0010
0001
,  // measure 13
0100
1000
1000
0000
1010
0000
0110
0000
,  // measure 14
0001
0001
0010
0100
0010
1000
0100
0100
,  // measure 15
0001
0010
0010
0001
1100
0000
0110
0000
,  // measure 16
1001
1000
0100
0010
0001
0010
0100
0000
,  // measure 17
1001
0100
0010
0100
0010
0100
0100
0000
,  // measure 18
1001
0100
0010
0010
0100
0001
1000
0100
,  // measure 19
1001
0100
0010
0010
1000
0100
0010
0010
,  // measure 20
1001
0000
0100
0100
0010
0110
1000
1000
,  // measure 21
1001
0001
0010
0100
0110
1000
0001
0010
,  // measure 22
1100
0100
1001
0000
0110
0001
0011
0100
,  // measure 23
1100
1010
0110
0101
,  // measure 24
0011
0000
1000
0000
1000
0000
0100
0000
0010
0100
0010
0000
0001
1000
0001
0000
,  // measure 25
0010
0100
0010
0000
1000
0001
1000
0010
0100
0000
0010
1000
0000
0100
0000
1000
,  // measure 26
0001
1000
0010
0010
1100
0000
1010
0002
,  // measure 27
0000
0000
0000
0003
,  // measure 28
1000
0000
0100
0000
1000
0000
0010
0001
0010
0000
0100
0000
0001
0000
0001
0010
,  // measure 29
1000
0100
1000
0100
0011
0000
0110
0000
,  // measure 30
1000
0010
1000
0000
0001
0100
0010
0000
0001
0000
1000
0010
1000
0000
0010
0000
,  // measure 31
0100
0010
0001
1000
0110
0000
1001
0000
,  // measure 32
0010
0000
0010
0000
0001
0000
1000
0000
0100
0000
1000
0000
0001
1000
0001
0000
,  // measure 33
0100
0000
0010
0000
1000
0001
1000
0000
0011
0000
0000
0000
1100
0000
0000
0000
,  // measure 34
0110
0010
0100
0001
1001
0100
0010
0010
,  // measure 35
1100
0100
0110
0000
0011
1000
2000
3000
,  // measure 36
0010
0100
0000
0000
0010
0000
0100
0000
0010
0000
1000
0001
0000
0000
1000
0000
,  // measure 37
0010
0100
0000
0000
0010
0000
0100
0000
0001
0000
1000
0100
1000
0000
0001
0000
,  // measure 38
0010
0000
0100
0010
0000
0000
0010
0000
1000
0001
0000
0001
1000
0000
0100
0010
,  // measure 39
0100
0000
0001
0000
0010
1000
0010
0000
0100
0000
1000
0100
0001
0000
0010
0000
,  // measure 40
0010
0000
0100
0000
1000
0001
1000
0000
0001
0000
0010
0000
0100
0000
0010
0000
,  // measure 41
1000
0010
1000
0000
0001
0100
0000
0000
0001
0000
0010
0000
0100
0000
0010
0000
,  // measure 42
1000
0010
0000
0000
1000
0000
0010
0000
0100
0000
0001
0000
1000
0100
0010
0000
,  // measure 43
0001
0000
0011
0010
0100
0100
1010
0000
,  // measure 44
0110
0010
1001
0100
0010
0001
0110
1000
,  // measure 45
0010
0010
1100
0001
0100
0010
0110
0001
,  // measure 46
1000
1000
0011
0010
1000
0100
0110
0001
,  // measure 47
0010
0010
1100
0001
0100
0100
1001
0010
,  // measure 48
0100
0100
1001
0010
0010
0100
0110
0100
,  // measure 49
0010
0000
1100
0001
1000
1000
0011
0100
,  // measure 50
0100
0010
0110
0001
1000
1000
0010
0000
,  // measure 51
2000
0000
0000
0000
0002
3003
0110
0000
,  // measure 52
0000
0000
0000
0000
1000
0001
1000
0000
0010
0000
0010
0000
0200
0000
0302
0000
,  // measure 53
1003
0000
0100
0000
1000
0000
0010
0001
0010
0000
0100
0000
0001
0000
1000
0000
,  // measure 54
0020
0000
0030
0000
0100
0000
0001
0000
1000
0010
1000
0000
0001
0000
0002
0000
,  // measure 55
0013
0020
0030
0100
1000
0100
0020
0030
,  // measure 56
0100
0000
0001
0000
1000
0100
0000
0000
0001
0010
0100
0000
0020
0000
0030
0000
,  // measure 57
1000
0000
0100
0000
1000
0010
0001
0000
0002
0000
0003
0000
0001
0000
1000
0000
,  // measure 58
0100
0010
0100
0000
2000
0000
3000
0000
1200
0000
0300
0000
0100
0000
0001
0000
,  // measure 59
1000
0001
1000
0000
0100
0000
1000
0000
0001
0000
0010
0000
0020
0000
0030
0000
,  // measure 60
0110
0000
0000
0000
1000
0001
1000
0000
0010
0100
0010
0000
0100
0000
0001
0000
,  // measure 61
1000
0001
0100
0000
1000
0000
0010
0100
0010
0000
0100
0000
0001
0000
1000
0000
,  // measure 62
0100
0010
1000
0000
0001
0000
0001
1000
0010
0000
0100
0000
0010
0000
2000
0000
,  // measure 63
3000
0000
0100
0002
0003
0000
0002
0000
0003
0000
0100
0000
0200
0000
0300
0000
,  // measure 64
0001
0010
0000
0000
0100
0000
1000
0000
1000
0000
0000
0000
1000
0000
2000
0000
,  // measure 65
0000
0001
3100
0000
0200
0010
0000
0000
0310
0000
0020
0000
0000
0100
0031
0000
,  // measure 66
0002
0000
1003
0100
1000
0100
0100
0010
,  // measure 67
0020
0000
0100
0000
0001
0000
0030
0000
0100
0010
0100
0000
1000
0000
0001
0000
,  // measure 68
0010
0000
0100
1000
0000
0000
0100
0000
0010
0100
0000
0100
0010
0000
1000
0000
,  // measure 69
0100
0000
1000
0000
0001
1000
0001
0000
0010
0000
0100
0000
0010
0000
1000
0000
,  // measure 70
1002
0000
0100
0010
0010
0100
0100
0000
,  // measure 71
1003
0000
0000
0000
1100
0000
0000
0000
0110
0000
0000
0000
0012
0000
0000
0003
,  // measure 72
1000
0000
1000
0010
0010
0100
0010
0001
0000
0001
0010
0000
1100
0000
0110
0000
,  // measure 73
0000
0001
0010
0100
0010
0100
0000
0001
0010
0100
1000
0000
0011
0000
1010
0000
,  // measure 74
0000
0100
0100
0000
0010
1000
0100
1000
0001
0010
0100
0000
0100
0000
1010
0000
,  // measure 75
0110
0000
0001
0010
0100
0010
0100
0010
0000
0001
0001
0000
1000
1000
0001
0000
,  // measure 76
1000
0000
1000
0010
1000
0010
1000
2000
,  // measure 77
0000
0000
0000
3000
0000
0000
0010
0000
0000
0100
0000
0000
0010
0000
0000
0000
0000
0000
0011
0000
0000
0000
1010
0000
,  // measure 78
0000
0100
0010
0001
0010
0100
1000
1000
,  // measure 79
0002
0000
0000
0000
0000
0000
0013
0000
0000
0100
0000
0000
0010
0000
0000
0000
0000
0000
1100
0000
1010
0000
0000
0000
,  // measure 80
0001
0000
0010
0100
0001
0000
0010
0000
1000
0000
0100
0010
0100
0000
0010
1000
,  // measure 81
0010
0001
0002
0000
0000
1003
1000
0010
,  // measure 82
0010
0000
0100
0010
0000
0100
0010
0000
0001
0000
0100
0000
1000
0000
0001
0000
,  // measure 83
0002
0000
0023
0030
1100
0000
1010
0100
,  // measure 84
0100
0010
0001
1000
1000
0010
0100
0001
0001
1000
1000
0000
0110
0000
0100
0000
,  // measure 85
1010
1000
0000
0000
0011
0000
0110
0000
1100
0000
2020
3030
0000
0000
0001
0000
,  // measure 86
0010
0010
0100
0010
1000
0100
1010
0001
,  // measure 87
0001
1100
0010
0100
0001
1000
0010
0010
,  // measure 88
1001
0000
0100
0001
0002
1000
0013
1020
,  // measure 89
0000
0130
0200
0000
0010
0310
0100
0001
,  // measure 90
1000
0100
0100
0010
1100
0010
0010
0001
,  // measure 91
0100
0000
1000
0010
0000
0010
1000
0000
0010
0000
0100
1000
0100
0000
0010
0000
,  // measure 92
0001
0000
1000
0020
1000
0000
0030
0000
0100
0000
1000
0000
0100
0001
0010
0000
,  // measure 93
0000
0000
0010
1000
0001
0000
0100
0000
0100
0000
1000
0010
0000
0010
1000
0000
,  // measure 94
0001
0002
0000
0013
0020
0000
0130
0200
,  // measure 95
0000
0310
0020
0000
1030
2000
0001
3001
,  // measure 96
0002
0010
0013
0020
0000
0230
0300
2000
,  // measure 97
3020
0030
0100
0010
0000
2020
3030
0000
,  // measure 98
0001
0000
0010
0000
1001
0000
0000
0010
0100
0000
1000
0000
0001
0000
0010
0000
,  // measure 99
0001
0000
0100
0000
0010
0000
1000
0100
1000
0000
0000
0000
1002
0000
0000
0000
,  // measure 100
0010
0000
0010
0003
0010
0100
0010
1000
,  // measure 101
1100
0001
1001
0010
1100
0020
0030
0000
,  // measure 102
1000
0001
2000
0000
0000
0000
3010
0000
0010
0000
0100
0000
0001
0000
1000
0000
,  // measure 103
0100
0000
1000
0000
0010
0000
0100
0010
0100
0000
0001
0000
0002
1000
0000
0000
,  // measure 104
0013
0000
0100
0000
0010
0000
1000
0001
1000
0000
0200
0000
0000
0000
0310
0000
,  // measure 105
0100
0010
0001
0000
0002
0000
1000
0000
0003
0000
0010
0000
2001
0000
3001
0000
,  // measure 106
0000
0000
0010
1000
0010
0000
0100
0010
0000
0000
0100
0000
0010
0000
1000
0100
,  // measure 107
1000
0000
0001
0000
0010
0000
0100
1000
0100
0000
0010
0000
1000
0000
0100
0000
,  // measure 108
1000
0000
1000
0100
0001
0000
0010
0000
0101
0000
0002
0000
0000
0000
0013
0000
,  // measure 109
0020
0000
0000
0130
0110
0000
1001
0000
,  // measure 110
1000
0000
1000
0000
0010
0000
0100
0000
0100
0010
0000
0000
1000
0100
0000
0000
,  // measure 111
1100
0000
0001
0010
0001
0000
0010
0000
0100
0010
0000
0000
1100
0000
0010
0000
,  // measure 112
0100
0000
0001
0000
0010
0100
0000
0000
1001
0000
0100
0010
0100
0000
0010
0000
,  // measure 113
0100
0000
0001
0000
1000
0000
0100
0000
0010
0000
0000
0100
1000
0000
0000
0000
,  // measure 114
1001
2000
0000
3100
0200
0010
0320
0001
,  // measure 115
0032
0000
0013
0100
0200
0010
0000
0310
,  // measure 116
2000
0000
0100
0000
0001
0000
3001
0000
0002
0000
0010
0000
0013
0000
1000
0100
,  // measure 117
1000
0000
0100
0000
0010
0000
0001
0010
0100
0000
1000
0001
0000
0001
1000
0000
,  // measure 118
0100
0000
0110
0010
0011
0000
0002
0010
,  // measure 119
1000
0000
1000
0000
0010
0100
0100
2000
,  // measure 120
0000
0000
3003
1100
,  // measure 121
0110
0000
0011
0000
1001
0000
1000
1000
,  // measure 122
0010
0000
0100
1000
0100
0000
0010
0000
0001
0000
1000
0010
1000
0000
0100
0000
,  // measure 123
0010
0000
0010
0100
0001
0000
0002
0000
0000
0000
1003
0000
0000
0000
1000
0000
,  // measure 124
1000
0000
0100
0000
0000
0100
0001
0010
0000
0000
0010
0100
0000
0000
0100
0000
,  // measure 125
1000
0000
0000
0000
2020
0000
3030
0000
0220
0000
0330
0000
0000
0001
0000
0001
,  // measure 126
0010
0000
0100
0000
1001
0000
0010
0000
0001
0100
0000
0000
0100
1000
0000
0000
,  // measure 127
1000
0000
1010
0000
0110
0100
1001
0010
,  // measure 128
0020
0100
0000
0000
0130
0000
0200
1000
0000
1000
0300
0000
1001
0000
2000
0000
,  // measure 129
3010
0000
0200
0000
0310
0000
0010
0000
1001
0000
0000
1000
0010
0100
0000
0100
,  // measure 130
0010
0001
0001
0000
1001
0000
0100
1000
0000
1000
0001
0010
0100
0010
0100
0100
,  // measure 131
0010
1000
1000
0000
1001
0000
0100
0010
0100
1000
0010
0100
0001
0010
0001
1000
,  // measure 132
1000
0100
0100
0000
0110
0000
0001
0001
1000
1000
0010
0100
0010
0010
1000
1000
,  // measure 133
0010
0000
1001
0000
0010
0100
0100
0010
1000
0100
1000
0001
0100
0010
0010
1000
,  // measure 134
1000
0000
1001
0000
0100
0001
0010
0100
0010
0100
1000
0001
0100
0010
0010
1000
,  // measure 135
1000
0000
1001
0000
0010
0000
0100
0000
0010
0010
0001
0000
0100
0100
0000
0000
,  // measure 136
0110
0000
0000
0000
;
