#TITLE:Jerk it out;
#SUBTITLE:(bongo cat meme);
#ARTIST:Mangotan;
#TITLETRANSLIT:;
#SUBTITLETRANSLIT:;
#ARTISTTRANSLIT:;
#GENRE:;
#CREDIT:PaperBox440;
#BANNER:JERK IT OUT.png;
#BACKGROUND:JERK IT OUT-bg.png;
#LYRICSPATH:;
#CDTITLE:;
#MUSIC:JERK IT OUT.ogg;
#OFFSET:0.000000;
#SAMPLESTART:49.955315;
#SAMPLELENGTH:10.799999;
#SELECTABLE:YES;
#BPMS:0.000000=133.940002
,40.000000=266.000000
,61.000000=200.000000
;
#STOPS:
;
#BGCHANGES:0.000=JERK IT OUT.mp4=1.000=0=0=0=StretchNoLoop====,
99999=-nosongbg-=1.000=0=0=0 // don't automatically add -songbackground-
;
#KEYSOUNDS:;
#ATTACKS:;

//---------------dance-single - ----------------
#NOTES:
     dance-single:
     :
     Hard:
     8:
     0.573901,0.662645,0.168558,0.028093,0.077256,286.000000,274.000000,12.000000,2.000000,0.000000,0.000000,0.573901,0.662645,0.168558,0.028093,0.077256,286.000000,274.000000,12.000000,2.000000,0.000000,0.000000:
// measure 0
0000
0000
0000
0000
,  // measure 1
0000
0010
0000
0100
,  // measure 2
0010
0000
0000
0001
,  // measure 3
0000
1000
0000
0000
,  // measure 4
0000
0000
0000
0020
,  // measure 5
0130
0000
0000
0000
1000
0000
0001
0001
,  // measure 6
0000
0000
0000
0010
0000
0000
0000
0000
,  // measure 7
0100
0000
0000
0000
,  // measure 8
0010
0000
1000
0001
1000
0001
0001
0010
,  // measure 9
0000
0100
0000
0000
0010
0000
0100
0000
0010
0000
0000
0000
0000
0000
0000
0000
,  // measure 10
1000
0000
0000
0000
1000
0000
0001
0000
0000
0100
0000
0000
0100
0000
0010
0000
,  // measure 11
1000
0000
1000
0000
0001
0000
0001
0000
0010
0000
0100
0000
0010
0000
0000
0100
,  // measure 12
1000
0000
0000
0010
0001
0000
1000
0000
0100
0000
1000
0000
0000
0001
0100
0000
,  // measure 13
0010
1000
0000
1000
0010
0100
0000
0100
,  // measure 14
0010
0001
1000
1000
0010
0100
0010
0001
,  // measure 15
1000
0000
1000
0000
1000
0010
0000
0010
,  // measure 16
0100
0010
0100
0000
0001
1000
0001
0000
,  // measure 17
0001
0000
1000
1000
0001
0010
0100
0000
,  // measure 18
0100
0000
0110
0001
0000
0001
1000
0000
,  // measure 19
0100
0010
0010
0001
1000
0100
1000
0000
,  // measure 20
0001
0000
1001
0000
1000
1000
0010
0000
,  // measure 21
0010
0100
0000
0001
0001
1000
1000
0000
,  // measure 22
0010
0100
0010
0000
0001
1000
1000
0000
,  // measure 23
1001
0000
0000
1000
0001
0001
0000
0010
,  // measure 24
0100
0100
0000
1000
0001
1000
0000
0010
,  // measure 25
0100
0010
0000
0010
0000
1000
0001
1000
,  // measure 26
0000
0000
1001
0000
0010
1000
0001
1000
,  // measure 27
0000
0010
0000
0010
0001
0000
0100
0010
,  // measure 28
0000
0010
0000
1000
0100
1000
0001
0000
,  // measure 29
0001
0000
0100
0010
0100
1000
0000
1000
,  // measure 30
0000
0001
0010
0000
0100
0010
0010
0000
,  // measure 31
1000
0100
1000
0001
0000
0001
0000
0100
,  // measure 32
0010
0100
0001
0000
0001
1000
0000
1000
,  // measure 33
0000
0010
0000
0010
0001
0000
0100
1000
,  // measure 34
0100
0000
0001
0000
0001
1000
1000
0000
,  // measure 35
0000
0100
0010
0100
0000
0001
0000
0001
,  // measure 36
1000
0000
1000
0000
0100
0010
0100
0001
,  // measure 37
0000
0001
0000
1000
0100
1000
0000
0000
,  // measure 38
1001
0000
0001
1000
0000
1000
0001
1000
,  // measure 39
0001
0000
0100
0010
0100
0000
0001
1000
,  // measure 40
0001
1000
1001
0010
,  // measure 41
0110
0000
0001
1000
0000
0100
0010
0100
,  // measure 42
0001
0000
0001
1000
0000
1000
0000
0010
,  // measure 43
0100
0100
0000
0001
1000
0001
0000
0000
,  // measure 44
1001
0000
0010
0000
1100
0000
0001
1000
,  // measure 45
0001
0000
0100
0010
0000
0010
0100
0000
,  // measure 46
0001
1000
1000
0010
,  // measure 47
0110
0001
1001
0010
,  // measure 48
0010
0100
0000
0100
1000
0000
1000
0000
,  // measure 49
0000
0001
0000
0000
0001
1000
0000
0010
0100
0000
0020
0000
,  // measure 50
0000
0000
0130
0000
1000
0001
1000
0000
,  // measure 51
0010
0000
0100
0000
1000
0001
0000
0001
,  // measure 52
1000
0000
1000
0000
0010
0100
0000
0100
,  // measure 53
0000
0001
0010
0001
1000
0100
1000
0001
,  // measure 54
0000
0001
0000
0000
1000
0001
1000
0000
,  // measure 55
0010
0010
1001
0000
;
