#TITLE:Indigo Nocturne;
#SUBTITLE:;
#ARTIST:BEMANI Sound Team "Power Of Nature";
#TITLETRANSLIT:;
#SUBTITLETRANSLIT:;
#ARTISTTRANSLIT:;
#GENRE:;
#CREDIT:PaperBox440;
#BANNER:Indigo Nocturne.png;
#BACKGROUND:Indigo Nocturne-bg.png;
#LYRICSPATH:;
#CDTITLE:;
#MUSIC:Indigo Nocturne.mp3;
#OFFSET:0.000000;
#SAMPLESTART:19.799999;
#SAMPLELENGTH:12.600002;
#SELECTABLE:YES;
#BPMS:0.000000=150.000000
;
#STOPS:
;
#BGCHANGES:;
#KEYSOUNDS:;
#ATTACKS:;

//---------------dance-single - ----------------
#NOTES:
     dance-single:
     :
     Hard:
     13:
     0.639042,0.733976,0.565218,0.282609,0.452174,554.000000,484.000000,70.000000,35.000000,0.000000,0.000000,0.639042,0.733976,0.565218,0.282609,0.452174,554.000000,484.000000,70.000000,35.000000,0.000000,0.000000:
0000
0000
0000
0000
0001
0010
0100
0010
,
0100
1000
0001
1000
0001
0010
0100
0010
,
1000
0000
1000
0100
0000
0100
0001
0010
,
0001
1000
0000
1000
0100
0010
2000
0000
,
0000
0000
3001
0110
,
0000
0000
2200
3300
0000
0022
0033
0220
,
0330
2002
3003
0000
1000
0000
1001
0000
,
0000
0110
0000
0001
0010
0010
1000
0100
,
1000
0001
0001
0000
1001
0000
0000
1100
,
0000
1000
0100
1000
0001
0001
0000
0110
,
0000
0001
1000
0000
1001
0000
0000
1100
,
0000
0100
0010
0000
0001
0000
0011
0000
0000
0000
0000
0000
0110
0000
0000
0000
,
0001
0000
0100
0010
0100
0010
0100
0000
1001
0000
0000
0000
1100
0000
0001
0000
,
0010
0000
0010
0000
0100
1000
0100
0000
0001
0000
1000
0000
0001
0000
1000
0000
,
1000
0010
0100
0010
0100
0100
0001
0001
,
1000
0000
0010
0100
1000
0000
0000
0000
1001
0000
0100
0000
0000
0100
0000
0000
,
0110
0000
0000
1000
0001
0000
0001
0000
0100
0000
0010
0000
0100
0000
1000
0010
,
1000
0001
0010
0001
1000
0100
0100
0001
,
0010
0001
1000
1000
0100
0000
0100
0001
,
0010
0001
1000
0000
1100
0000
0110
0000
,
1000
0000
0000
0000
1001
0000
0000
0000
0010
0000
1000
0000
0100
1000
0000
0000
,
0001
1000
0000
0000
0110
0000
0110
0000
0000
0000
0001
0010
0001
0000
1000
0000
,
1000
0000
0000
0010
0100
0010
0000
0000
1001
0000
0000
0000
1000
0000
0000
0000
,
0110
0000
0110
0000
1000
0000
1001
0000
0000
0000
0001
0010
0100
0000
0000
0000
,
1000
0000
1000
0000
0001
0010
0001
0000
0100
0000
1000
0000
0000
0100
0000
0001
,
0010
0001
1000
0000
0000
0100
0010
0100
0001
0000
0001
0000
1000
0100
1000
0000
,
0000
0000
0100
0010
0001
0000
0000
0000
0110
0000
0000
0000
0100
0010
0100
0000
,
0000
0010
0001
0000
2100
0000
0000
0000
0010
0000
0010
0000
3001
0000
0001
0000
,
1000
0000
0000
0000
1001
0000
0000
0000
1100
0000
0000
0000
0001
0010
0000
0000
,
0110
0000
1010
0000
0000
0000
0100
0000
0100
0000
0001
0010
0001
0000
0000
0000
,
1010
0000
1100
0000
0000
0000
0010
0000
1000
0000
1000
0001
0010
0001
0000
0000
,
0110
0000
0000
0000
0001
0000
0001
0000
1100
0000
0000
0000
0100
0010
0000
0100
,
0000
0001
0000
1000
0001
0000
0000
0000
0220
0000
0000
0000
0300
0000
0000
0000
,
1030
0000
0000
0000
1000
0000
0000
0000
1001
0000
0000
0001
0010
0000
1000
0100
,
0000
0000
0010
0100
0010
0000
0000
0000
2100
0000
0000
0000
0000
0000
0000
0000
,
3001
0001
0010
0220
0000
0300
0000
0030
,
1000
0001
0001
0000
1000
0000
1100
0000
,
0110
0000
0000
0000
1001
0000
0100
0010
0000
0000
1000
0001
0000
0000
0010
0100
,
0000
0000
1000
0001
0000
0001
0000
0000
1100
0000
0000
0000
1010
0000
0000
0000
,
0110
0001
0001
0110
1000
1000
0000
1000
,
0010
0000
1000
0001
1000
0000
0000
0000
0220
0000
0000
0000
0330
0000
0000
0000
,
1000
0000
0000
0000
0100
0000
0001
0010
0000
1000
0100
0000
0000
0010
0100
0000
,
0000
0100
0010
0000
0010
0000
0000
0000
1002
0000
0000
0000
0003
0000
0100
0000
,
0200
0000
0300
0000
0020
0000
0030
0001
,
0002
0000
0000
0000
0003
0000
0000
0100
2000
0000
0000
0000
3000
0000
0001
0000
,
0002
0000
0000
0000
0003
0000
0200
0000
0000
0000
0300
0000
0000
0000
0010
2000
,
0000
0000
0000
0000
3000
0000
0000
0000
1001
0000
0000
0000
1000
0100
1000
0001
,
0000
0000
0001
0100
0000
0100
0010
0000
1000
0000
1000
0000
0001
0010
0001
0000
,
0000
0000
0100
0010
0100
0000
0000
0000
1000
0001
1000
0001
1000
0000
0000
0010
,
0100
1000
0000
0001
0010
0001
0100
0000
0100
0000
0010
0100
0000
1000
0000
1000
,
0001
0010
0001
0000
0100
0000
0100
0000
1001
0000
0000
0000
1100
0000
0000
0000
,
1010
0000
0000
0000
0001
0010
0001
0000
0100
0000
0010
0000
0100
0010
0100
0000
,
1000
0000
0100
0000
1000
0000
0001
0100
0001
0000
0010
0000
0100
0000
0100
0000
,
0010
0001
0000
0000
0000
0000
0000
1000
,
1000
0000
1000
0000
0010
0100
0010
0000
1001
0000
0000
0000
1100
0000
0001
0000
,
0010
0000
0000
0010
0100
0000
0000
0100
0001
0010
0001
1000
0000
1000
0000
0000
,
0100
0000
0000
0100
0000
0001
0010
0001
1000
0000
1000
0000
0000
0000
0100
0010
,
0100
0001
0000
0000
0001
0000
1000
0100
1000
0000
0000
0010
0100
0000
0000
0000
,
0110
0000
0000
0000
1010
0000
0000
0000
2002
0000
0000
0000
3003
0000
0000
0010
,
0000
0000
0010
0100
0000
0000
0100
0000
0000
1000
0001
1000
0001
0000
0000
0000
,
0000
0010
0100
0010
0100
0000
0000
0000
0000
0000
0000
0000
0000
0000
1000
0000
,
1000
0100
0000
1000
0100
0000
0010
0000
0010
0000
0001
0000
1001
0000
0000
0000
,
0100
0010
0100
0000
0001
0000
0001
0000
1100
0000
0000
0010
0000
0000
0010
0100
,
0000
0000
0100
0000
0001
0000
0001
0000
0000
0010
0100
0010
0000
1000
0000
0000
,
1000
0000
0001
0010
0001
0000
0000
0000
0110
0000
0000
0000
1000
0000
0001
0010
,
0001
0000
1000
0000
2000
0000
0000
0000
0002
0000
3000
0000
0013
0000
0000
0100
,
0000
0100
0000
0010
0100
0010
0000
0000
1001
0000
0000
0000
0220
0000
0000
0000
,
0000
0000
0330
2000
0000
0000
0000
0000
,
3000
0010
0010
0001
0000
0110
0000
1010
,
0000
0000
1001
0000
0100
0002
0000
0003
,
2000
0000
0000
3001
0000
0000
0110
0000
,
0001
1000
0000
1000
0000
0001
0010
0001
0000
0000
0100
0000
0100
0000
0010
0000
,
0010
0000
1000
0100
1000
0000
0001
0000
0001
0000
0000
0000
1100
0000
0000
0000
,
1000
0000
1000
0000
0100
0000
0000
0100
0010
0000
0000
0010
0001
0000
0000
0001
,
1000
0000
0000
1000
0100
0000
0000
0100
0001
0000
0000
0001
0010
0000
0000
0010
,
2100
0000
0000
0100
0010
0000
0000
0000
0000
0000
0000
0000
3000
0000
0000
0000
;

//---------------dance-single - ----------------
#NOTES:
     dance-single:
     :
     Medium:
     10:
     0.496008,0.548665,0.516771,0.169565,0.000000,430.000000,366.000000,64.000000,21.000000,0.000000,0.000000,0.496008,0.548665,0.516771,0.169565,0.000000,430.000000,366.000000,64.000000,21.000000,0.000000,0.000000:
0000
0000
0000
0000
0001
0010
0100
1000
,
0000
0000
0100
0010
0001
0000
0001
0010
,
0100
1000
0000
0000
0100
0010
0001
0000
,
0000
0010
0100
1000
0000
0000
2000
0000
,
0000
0000
3001
0110
,
0000
1000
1001
0000
0000
0100
0010
0000
,
0001
0001
0000
0000
1001
0000
0000
1100
,
0000
0000
0110
0000
0000
1000
1000
0000
,
0001
0001
0000
0000
1001
0000
0000
0110
,
0000
0000
1000
1000
0001
0000
0110
0000
,
0000
0001
0001
0000
1000
0000
1001
0000
,
0010
0100
0000
0000
0110
0000
1001
0000
,
0100
0010
0000
1000
1000
0000
0100
0000
,
0001
0001
0010
0000
1000
1000
0000
0001
,
0010
0001
0000
0100
0100
0010
0000
1000
,
1000
0001
0100
0001
0100
0100
0010
0000
,
1000
0001
1000
1000
0000
0010
0010
0000
,
1001
0000
1100
0000
0001
0000
0100
0010
,
0100
0001
0001
1000
1000
0000
0110
1000
,
1000
1001
0011
0110
,
1000
0000
1001
0000
0010
1000
0100
0000
,
0001
0000
0100
0100
0000
0010
0010
1000
,
0100
0000
0001
1000
1000
0000
0000
0001
,
0001
1000
0000
1001
0000
0001
0010
0100
,
0000
1000
1000
1001
0000
0100
0000
0010
,
0100
0001
0001
0000
1100
0000
0010
0100
,
0010
0000
1000
1001
0000
0100
0110
0000
,
0001
0000
1001
0000
0000
0100
0100
0100
,
0001
0000
1100
0000
1001
0000
0010
0100
,
0110
0000
1000
1000
0001
0001
0000
0100
,
0100
0000
1000
0000
0110
0000
0001
1001
,
0000
0100
0100
0010
0000
0001
1001
0000
,
0010
0100
0000
0000
0110
0000
1000
1000
,
0001
0010
0010
0000
0100
1000
0000
0010
,
0001
0100
0110
0000
1000
0000
0010
0001
,
0000
1000
1000
0000
1001
0000
0000
0000
,
1000
0001
0001
0000
0100
0000
0001
0010
,
0001
0000
1000
0010
0000
0100
0100
0000
,
0000
1000
0001
0001
0110
0000
1010
0000
,
1001
0000
0100
0001
0000
0010
0100
0010
,
0000
0100
0100
0000
2002
0000
3003
0000
,
0010
0000
0100
0000
0000
0100
0010
0100
,
0000
0001
0000
0000
2002
3003
0000
0010
,
0100
0000
0000
0220
0330
0000
0000
0001
,
1000
0000
0000
2200
3300
0000
0010
0100
,
0000
0000
0022
0033
0000
0000
1000
0001
,
0000
0000
0000
1001
0000
0010
0010
0000
,
0100
0100
0000
0001
1000
0001
0000
0000
,
0100
0000
0010
0100
0100
0100
0001
0001
,
0001
0000
0100
0010
0100
0000
1000
1000
,
0000
1000
1001
0010
,
0110
0000
0001
0001
0000
1000
1001
0000
,
0010
0000
0100
0010
0100
0000
0010
0001
,
0000
0100
0100
0000
0010
0010
0000
0000
,
1100
1001
0000
0010
0110
0000
0001
0000
,
1000
0100
1000
0001
0001
0000
0010
0100
,
0010
0000
1000
1000
0001
0001
0010
0100
,
0010
1000
1000
0010
0100
0001
0001
0000
,
1100
1001
0000
2002
0000
0000
3003
0000
,
0010
0000
0000
2002
0000
0000
3003
0000
,
0100
0000
0000
0220
0000
0000
0330
0000
,
0001
0001
0010
0100
1000
1000
0000
1001
,
0000
0100
0010
0100
1000
0000
1001
0000
,
0110
0000
0100
0100
0001
0001
1000
0000
,
1000
0100
1000
0000
0001
0001
0010
0100
,
1000
0000
2000
0000
3001
0001
0001
0000
,
0010
0100
0010
0000
1001
0000
1100
0000
,
0000
0001
1000
0000
0010
0010
0000
0100
,
0100
0000
0000
0000
1001
0000
0000
0110
,
0000
0000
1100
0000
0100
0002
0000
0003
,
2000
0000
0000
3001
0000
0000
0110
0000
,
0001
0000
1000
1000
0010
0100
0010
0000
,
0000
1000
1000
0001
0001
0000
1100
0000
,
1000
1000
0000
1001
0000
0000
0001
0010
,
0100
1000
0100
0010
0001
0010
0100
0000
,
2000
0000
3001
0000
;

//---------------dance-single - ----------------
#NOTES:
     dance-single:
     :
     Easy:
     5:
     0.339131,0.426740,0.427951,0.129193,0.000000,294.000000,241.000000,53.000000,16.000000,0.000000,0.000000,0.339131,0.426740,0.427951,0.129193,0.000000,294.000000,241.000000,53.000000,16.000000,0.000000,0.000000:
// measure 0
0000
0000
0001
0010
,  // measure 1
0100
1000
0100
0010
,  // measure 2
0001
0010
0100
1000
,  // measure 3
0100
0010
0001
2000
,  // measure 4
0000
3000
1001
0110
,  // measure 5
0000
1000
1001
0001
,  // measure 6
0010
0000
0110
1001
,  // measure 7
0000
0100
0000
0010
,  // measure 8
0010
0000
1001
1000
,  // measure 9
0000
0001
0001
0110
,  // measure 10
0000
0000
1100
1001
,  // measure 11
0000
0100
0010
0100
,  // measure 12
0000
0001
1001
0100
,  // measure 13
0000
0001
0001
0000
,  // measure 14
1000
1000
0000
0100
,  // measure 15
0010
0100
0001
1000
,  // measure 16
1001
0000
0010
0100
,  // measure 17
0010
1000
1001
0000
,  // measure 18
0110
0000
0001
0001
,  // measure 19
1000
2000
0001
3001
,  // measure 20
1001
0110
0000
1000
,  // measure 21
0001
1001
0000
0100
,  // measure 22
1000
0001
0001
0000
,  // measure 23
0110
1001
1000
0100
,  // measure 24
0000
0001
0110
0000
,  // measure 25
0001
1000
1001
0000
,  // measure 26
0100
0100
0010
0010
,  // measure 27
1000
2000
0001
3001
,  // measure 28
0001
0100
2002
3003
,  // measure 29
0000
1000
0001
1000
,  // measure 30
0001
1000
1001
0000
,  // measure 31
0100
0110
0000
1000
,  // measure 32
0001
0001
1100
0001
,  // measure 33
0010
0100
0110
0001
,  // measure 34
1000
0000
1001
0000
,  // measure 35
0100
0000
0110
0000
,  // measure 36
1001
0000
0001
1000
,  // measure 37
0001
0010
0100
1000
,  // measure 38
1000
0001
1001
0100
,  // measure 39
0110
0001
1001
1000
,  // measure 40
1000
0010
0110
0001
,  // measure 41
0001
0000
0100
0010
,  // measure 42
0100
1000
1001
0020
,  // measure 43
0030
0000
0110
2000
,  // measure 44
3000
0000
1001
2000
,  // measure 45
3000
0000
0110
0020
,  // measure 46
0030
1000
0100
0010
,  // measure 47
0100
0010
0001
0001
,  // measure 48
0100
0100
1000
0001
,  // measure 49
1000
0001
0010
0100
,  // measure 50
0100
1000
1001
0010
,  // measure 51
0110
0000
1001
0110
,  // measure 52
0000
0001
0001
1000
,  // measure 53
0100
1000
0001
0100
,  // measure 54
0100
1001
0100
0001
,  // measure 55
0000
0010
0100
0010
,  // measure 56
0000
0100
0110
0001
,  // measure 57
1001
1000
1001
0010
,  // measure 58
0110
1100
0002
0000
,  // measure 59
2003
0000
3200
0000
,  // measure 60
0320
0000
0032
0000
,  // measure 61
1003
1000
1000
0100
,  // measure 62
0010
1000
0000
1001
,  // measure 63
0000
0100
0110
0000
,  // measure 64
1001
0000
1000
0100
,  // measure 65
0001
2000
3001
0001
,  // measure 66
0010
0010
0001
1000
,  // measure 67
1000
0010
1000
0010
,  // measure 68
0100
0000
1001
0010
,  // measure 69
0000
1001
0000
0010
,  // measure 70
0100
0000
1001
0010
,  // measure 71
0000
0100
0010
0100
,  // measure 72
1000
0001
1001
0100
,  // measure 73
0010
0010
0001
0010
,  // measure 74
0100
1000
0100
0010
,  // measure 75
0002
0000
1003
0000
;
