#TITLE:INTO YOUR HEART (Ruffage remix);
#SUBTITLE:-Full Version-;
#ARTIST:NAOKI feat. YASMINE;
#TITLETRANSLIT:;
#SUBTITLETRANSLIT:;
#ARTISTTRANSLIT:;
#GENRE:;
#CREDIT:;
#BANNER:INTO YOUR HEART (Ruffage remix) -Full Version-.png;
#BACKGROUND:INTO YOUR HEART (Ruffage remix) -Full Version--bg.png;
#LYRICSPATH:;
#CDTITLE:cdtitle.png;
#MUSIC:INTO YOUR HEART (Ruffage remix) -Full Version-.mp3;
#OFFSET:0.000000;
#SAMPLESTART:100.000000;
#SAMPLELENGTH:12.000000;
#SELECTABLE:YES;
#BPMS:0.000000=135.000000
;
#STOPS:
;
#BGCHANGES:;
#KEYSOUNDS:;
#ATTACKS:;

//---------------dance-single - ----------------
#NOTES:
     dance-single:
     :
     Hard:
     11:
     0.470931,0.545630,0.553208,0.143986,0.013262,870.000000,724.000000,146.000000,38.000000,0.000000,0.000000,0.470931,0.545630,0.553208,0.143986,0.013262,870.000000,724.000000,146.000000,38.000000,0.000000,0.000000:
// measure 0
0000
0000
0000
0000
,  // measure 1
0000
0000
0000
0000
,  // measure 2
0000
0000
0000
0000
,  // measure 3
0000
0000
0000
0000
,  // measure 4
0000
0000
0000
0000
,  // measure 5
0000
0000
0000
0000
,  // measure 6
0000
0000
0000
0000
,  // measure 7
0000
0000
0000
0000
,  // measure 8
0000
0000
1001
0000
0001
0100
0000
0100
,  // measure 9
0001
0000
0010
0000
0110
0000
1000
0001
,  // measure 10
0010
0000
1000
0000
1001
0000
0100
0010
,  // measure 11
1000
0000
0010
0000
0110
0000
0001
0010
,  // measure 12
0000
0100
0001
0000
1001
0000
0010
0001
,  // measure 13
1000
0000
0100
0000
0110
0000
1000
0001
,  // measure 14
1000
0010
1010
1000
,  // measure 15
1001
0001
0011
1000
,  // measure 16
0010
0010
0100
1000
0100
0000
0000
0001
,  // measure 17
0001
0000
0010
0100
0010
0000
1000
0000
,  // measure 18
1000
0010
0000
0100
0100
0000
0010
0001
,  // measure 19
0000
0001
1000
1000
0100
0010
0100
0010
,  // measure 20
0000
0001
0001
0010
0100
0000
0000
1000
,  // measure 21
1000
0100
0000
0100
0010
0000
0011
2000
,  // measure 22
0000
3000
0010
0000
0010
0100
0100
0010
,  // measure 23
0002
0000
0003
0000
1000
1000
0001
0000
,  // measure 24
0010
0100
0010
0000
0110
0000
1000
1000
,  // measure 25
0000
0001
0010
0001
0000
0000
0100
0100
,  // measure 26
0020
0000
0030
1000
0000
1100
0010
0010
,  // measure 27
0001
0000
1000
0000
0001
1000
0001
0000
,  // measure 28
0010
0010
0100
0001
2000
0000
3000
0000
,  // measure 29
0100
0010
0010
0000
0011
0000
1000
0000
,  // measure 30
2000
0000
3010
0000
0110
0000
0001
0001
,  // measure 31
1000
0000
0010
0000
0100
0100
0100
0000
,  // measure 32
0110
0000
0000
0001
1100
0001
0010
0100
,  // measure 33
0020
0030
0000
0001
1100
0010
0001
2000
,  // measure 34
3000
0010
0101
0000
1010
0001
0100
0000
,  // measure 35
0020
0030
0000
0001
1000
0000
1100
0000
,  // measure 36
0010
0100
0011
0000
1001
0000
1100
0010
,  // measure 37
0002
0003
0010
0000
1100
0000
0010
0000
,  // measure 38
0110
0000
1001
0000
0100
0010
0100
0000
,  // measure 39
0011
0100
1000
0000
0011
0000
0110
0000
,  // measure 40
1100
0000
1001
0000
0010
0010
0100
0000
,  // measure 41
0110
0000
1000
1000
0001
0000
0011
0000
,  // measure 42
1000
1000
0010
0000
0110
0000
0001
0001
,  // measure 43
0010
0000
1010
0001
0000
0001
1100
0000
,  // measure 44
0010
0001
0010
0000
0100
1000
0001
0000
,  // measure 45
0110
0000
0010
0100
1000
0000
0011
0100
,  // measure 46
0000
0100
1000
0010
0001
0000
0010
0001
,  // measure 47
0100
0000
1100
0000
0010
0010
0000
0000
,  // measure 48
0100
0010
0100
0010
1001
0000
0000
0100
,  // measure 49
0100
0010
0001
0010
1000
0000
0000
0100
,  // measure 50
0010
0100
0100
0000
0010
0010
0001
1000
,  // measure 51
0001
0000
0100
0010
0010
0000
0100
0010
,  // measure 52
1000
1000
0010
0001
0100
0000
0000
0010
,  // measure 53
0010
1000
0001
0000
0001
0000
0011
0000
,  // measure 54
0200
0000
0300
0000
0010
0010
0100
0000
,  // measure 55
0002
1000
1000
1000
1000
1003
1000
0000
,  // measure 56
0010
0100
0010
0000
0011
0000
1000
1000
,  // measure 57
0100
0010
0100
0010
0001
0000
1000
1000
,  // measure 58
0020
0000
0030
0100
0010
0100
0010
0001
,  // measure 59
0000
1001
1000
0100
0010
0000
0011
0000
,  // measure 60
0100
0010
0100
0000
1001
0000
0000
0010
,  // measure 61
0010
0100
0001
2000
3010
0000
0100
0100
,  // measure 62
0010
0100
0000
0001
0011
0000
1001
0000
,  // measure 63
1100
0000
0110
0000
0001
0001
0001
0001
,  // measure 64
0000
0020
0000
0000
0230
0000
0000
0300
,  // measure 65
0000
0001
0000
0001
0001
0010
0000
0110
,  // measure 66
0000
1000
1000
0100
0010
0001
0000
1000
,  // measure 67
0001
1000
1000
0010
0000
0110
0000
1000
,  // measure 68
1000
0010
0002
0000
0000
1003
0000
1100
,  // measure 69
0010
0000
0010
0010
0001
1001
0000
1100
,  // measure 70
0000
0010
0100
0010
1000
1000
0001
0000
,  // measure 71
0110
0000
1000
0000
1000
1000
0010
0010
,  // measure 72
0001
0001
0100
0110
0000
1000
0001
1000
,  // measure 73
1000
0001
0000
1001
0000
0010
0010
0000
,  // measure 74
0100
0000
0110
0000
1000
1000
0010
0001
,  // measure 75
0001
0000
0100
0000
0110
0000
1000
1000
,  // measure 76
0010
0001
0000
1001
0000
0010
0001
1000
,  // measure 77
1000
0110
0000
0110
0000
0010
0001
1000
,  // measure 78
0000
1001
0000
1001
0100
0010
0100
0000
,  // measure 79
0001
1000
0020
0000
0000
0000
0000
0000
,  // measure 80
0000
0000
0130
0000
1000
0000
0010
0010
,  // measure 81
0100
0001
1000
0000
1001
0000
0100
0010
,  // measure 82
0100
0000
0010
0000
0110
0000
1000
1000
,  // measure 83
0010
0000
0110
0000
0001
0100
0010
0000
,  // measure 84
1000
1000
0000
0001
0010
0100
0010
0000
,  // measure 85
1000
0000
1001
0000
0010
0010
1000
0000
,  // measure 86
0100
0110
0010
0001
,  // measure 87
1000
0000
0100
0000
0010
0001
0000
1000
,  // measure 88
1000
0000
0010
0001
0100
0000
1001
0000
,  // measure 89
0010
0000
0001
1000
0001
0000
0100
0010
,  // measure 90
0000
0010
0000
0001
1000
0100
1000
0000
,  // measure 91
0100
0100
0010
0001
0000
0001
1000
0000
,  // measure 92
1000
0000
0110
0000
0001
0001
1000
0000
,  // measure 93
0010
0000
0100
0100
0000
1000
1000
0010
,  // measure 94
0002
0000
0000
0003
0000
1000
0100
1000
,  // measure 95
0110
0000
0000
0000
0010
0000
0001
0010
0100
1000
0100
0010
0001
0000
0100
0010
,  // measure 96
0000
0110
0000
1010
0000
0100
0001
0000
,  // measure 97
0110
0000
0101
0000
1000
0010
0001
0001
,  // measure 98
0000
1100
0000
0011
0000
1000
1000
0000
,  // measure 99
0110
0000
1001
0000
0010
0100
0001
0001
,  // measure 100
0000
0110
0000
1010
0000
0001
1000
0000
,  // measure 101
0101
0000
0110
0000
0001
0100
0100
0000
,  // measure 102
1000
0000
1001
0000
0010
1000
1000
0000
,  // measure 103
0010
0000
0110
0000
0001
1000
0001
0001
,  // measure 104
1000
0000
1001
0000
0100
0010
0001
0000
,  // measure 105
0100
0000
0110
0000
1000
0010
0001
0001
,  // measure 106
0000
1010
0000
0110
0000
0001
1000
0000
,  // measure 107
0100
0000
0110
0000
0001
0010
0100
0001
,  // measure 108
0001
1100
0000
0011
0000
1000
1000
0000
,  // measure 109
0110
0000
1001
0000
0000
0200
0310
0000
,  // measure 110
0001
0001
0000
1001
0000
0100
0010
0100
,  // measure 111
0000
0110
0000
1010
0000
0100
0001
0000
,  // measure 112
0010
0010
0100
0010
0000
0000
1000
1000
,  // measure 113
0001
0010
0100
0010
0000
1000
1000
0010
,  // measure 114
0100
0000
0110
0000
0001
0000
0100
0010
,  // measure 115
0001
0000
0001
1000
0010
0100
0100
0000
,  // measure 116
0001
1000
1000
0000
0110
0000
0001
0001
,  // measure 117
0010
0100
0010
1000
0000
1001
0000
0010
,  // measure 118
0200
0000
0300
0010
0010
0000
1000
0001
,  // measure 119
1000
1000
1000
1000
0010
0010
0010
0000
,  // measure 120
0100
0010
0100
0000
0110
0000
1000
1000
,  // measure 121
0000
0010
0001
0100
0010
0000
1000
1000
,  // measure 122
0020
0000
0030
0100
0010
0100
0001
0001
,  // measure 123
2000
3100
0100
0010
0001
0000
0011
0000
,  // measure 124
0100
0010
0100
0000
0110
0000
1000
1000
,  // measure 125
0010
0001
0100
0020
0000
0130
0000
1100
,  // measure 126
0000
0000
1000
0000
0000
0000
1001
0000
0000
0100
0010
0000
0100
0000
0010
0000
,  // measure 127
0001
1000
0001
0000
1000
0000
0100
0000
1000
0000
0010
0001
0010
0000
0000
0000
,  // measure 128
0110
0000
0110
0000
1000
0010
0010
0000
,  // measure 129
1100
0000
1100
0000
0001
0100
0100
0000
,  // measure 130
0011
0000
0011
0000
0100
0000
1000
1000
,  // measure 131
0000
0110
0000
1010
0000
0001
0010
0000
,  // measure 132
0101
0000
0011
0000
1000
0000
0010
0010
,  // measure 133
0100
0000
0110
0000
1000
0001
0001
0000
,  // measure 134
1100
0000
1010
0000
0001
0001
0010
0000
,  // measure 135
0100
0000
0110
0000
0001
0001
0001
0000
,  // measure 136
2002
3003
1100
0000
0110
0000
1010
0000
,  // measure 137
0022
0033
1100
0000
0110
0000
1100
0000
,  // measure 138
0202
0303
1010
0000
0011
0000
0101
0000
,  // measure 139
0220
0330
1001
0000
0011
0000
1100
0000
,  // measure 140
0202
0303
1010
0000
0110
0000
0011
0000
,  // measure 141
2002
3003
0011
0000
0110
0000
1100
0000
,  // measure 142
0220
0330
0010
0000
1002
0000
0010
0000
,  // measure 143
0100
0010
0010
0100
,  // measure 144
1003
0000
0000
0000
;
