#TITLE:INTO YOUR HEART;
#SUBTITLE:(Ruffage remix) (Full Version 1.1);
#ARTIST:NAOKI feat. YASMINE;
#TITLETRANSLIT:;
#SUBTITLETRANSLIT:;
#ARTISTTRANSLIT:;
#GENRE:;
#CREDIT:PaperBox440;
#BANNER:INTO YOUR HEART (Ruffage remix) (Full Version 1.1).png;
#BACKGROUND:INTO YOUR HEART (Ruffage remix) (Full Version 1.1)-bg.png;
#LYRICSPATH:;
#CDTITLE:;
#MUSIC:INTO YOUR HEART (Ruffage remix) (Full Version 1.1).mp3;
#OFFSET:0.000000;
#SAMPLESTART:58.222221;
#SAMPLELENGTH:13.777779;
#SELECTABLE:YES;
#BPMS:0.000000=135.000000
;
#STOPS:
;
#BGCHANGES:;
#KEYSOUNDS:;
#ATTACKS:;

//---------------dance-single - ----------------
#NOTES:
     dance-single:
     :
     Hard:
     12:
     0.501743,0.636099,0.464900,0.057688,0.111983,1035.000000,898.000000,137.000000,17.000000,0.000000,0.000000,0.501743,0.636099,0.464900,0.057688,0.111983,1035.000000,898.000000,137.000000,17.000000,0.000000,0.000000:
// measure 0
0000
0000
0000
0000
,  // measure 1
0000
0000
0000
0000
,  // measure 2
0000
0000
0000
0000
,  // measure 3
0000
0000
0000
0000
,  // measure 4
0000
0000
0000
0000
,  // measure 5
0000
0000
0010
0010
0000
0001
0100
0100
,  // measure 6
0010
0000
0010
1000
1000
0001
0000
0001
,  // measure 7
0100
0000
0100
0010
0000
0010
1000
0000
,  // measure 8
1000
0100
0010
0001
0001
0100
0100
0000
,  // measure 9
1000
1001
0010
0010
,  // measure 10
1000
0001
1000
0000
0100
0100
0010
0000
,  // measure 11
0010
1000
0100
1000
0010
0000
0010
0001
,  // measure 12
0000
0001
0100
0010
0100
0000
0010
1000
,  // measure 13
1000
0000
0000
0000
1001
0000
0000
0000
0001
0000
0001
0000
0010
0100
0000
0000
,  // measure 14
1000
0000
1000
0010
0000
0010
0100
0000
0100
0001
0000
0001
0010
0000
0010
1000
,  // measure 15
0000
1000
0100
0000
0100
0010
0000
0010
1000
0001
1000
0100
0000
0100
0010
0000
,  // measure 16
0010
0000
0100
0000
0100
0000
0001
1000
0001
0000
0000
0000
1000
0000
1000
0000
,  // measure 17
1000
0000
1001
0000
0001
0010
0100
1000
,  // measure 18
1000
0000
1100
0001
0010
0001
0100
0010
,  // measure 19
0001
0000
1001
0000
0010
0100
0010
1000
,  // measure 20
1000
0000
0110
0100
1100
0000
0010
0001
,  // measure 21
0011
0000
1001
0000
0010
0100
0010
0001
,  // measure 22
0001
0000
0110
0100
1000
1000
0001
0010
,  // measure 23
0000
0010
1100
0001
0000
0010
0100
0001
,  // measure 24
0001
0000
1000
0001
1000
0001
1000
0010
,  // measure 25
1000
0010
1000
0000
0100
0010
1000
0000
,  // measure 26
1000
0000
0011
0000
1010
0000
0001
0010
,  // measure 27
1000
0000
0110
0000
0101
0000
0010
0100
,  // measure 28
0010
0000
1001
0000
1001
0000
0010
0100
,  // measure 29
0100
0000
1001
0000
1010
0000
0001
0010
,  // measure 30
0100
0000
0110
0000
0101
0000
0010
0100
,  // measure 31
1000
0000
1001
0000
1010
0000
0100
0001
,  // measure 32
0001
0110
0101
0010
,  // measure 33
0100
0000
0010
1000
1000
0000
0010
0000
,  // measure 34
0001
0000
1000
1000
0010
0000
0100
0000
,  // measure 35
0100
0001
0000
0001
1000
0001
1000
0000
,  // measure 36
0010
1000
0000
0010
0000
0010
0001
0000
,  // measure 37
0001
1010
0110
0101
,  // measure 38
0010
0000
0010
0001
0001
0000
0100
1000
,  // measure 39
0001
1001
0100
0100
,  // measure 40
0001
0010
0001
1000
0000
1000
0010
0000
,  // measure 41
0010
0100
1100
1001
,  // measure 42
0010
0100
1010
0110
,  // measure 43
0001
0001
0010
0000
0010
0000
0100
1000
,  // measure 44
1000
0000
0010
0000
0001
0100
0100
0000
,  // measure 45
0001
0001
0010
0100
1000
0000
1001
0000
,  // measure 46
0100
0010
0100
0001
0001
0000
1001
0000
,  // measure 47
0010
0100
0001
0001
0000
0010
0000
0100
,  // measure 48
0010
0000
0000
1000
1000
0000
0010
0010
,  // measure 49
0010
0010
0000
0001
0100
0010
1100
1000
,  // measure 50
0002
0000
0003
1010
0000
0010
0100
0000
,  // measure 51
0200
0300
0000
0001
0010
0010
1000
1000
,  // measure 52
0002
0003
1000
0000
1000
0000
0010
0100
,  // measure 53
0000
0100
0001
0010
0001
1000
1000
0000
,  // measure 54
0010
0200
0300
0000
0001
0100
0010
1000
,  // measure 55
1000
0000
2020
3030
0000
0000
0100
0000
,  // measure 56
0110
0000
0001
0000
0100
0000
0100
0010
,  // measure 57
0010
1000
1100
1010
,  // measure 58
0001
0001
0100
0000
0100
0010
0010
1000
,  // measure 59
0000
1000
0100
1000
0001
0001
0000
0010
,  // measure 60
0100
0010
0000
0010
1000
0000
1001
0000
,  // measure 61
0010
0000
0100
0010
0001
0000
0001
1000
,  // measure 62
0000
1000
0100
0000
0100
0010
0010
0100
,  // measure 63
1000
0000
2000
0000
0000
0000
3000
0100
,  // measure 64
0010
0001
0002
0000
0000
0003
0100
0010
,  // measure 65
0000
0010
1000
0000
1100
0000
1001
0000
,  // measure 66
0100
0100
0010
0000
0011
0000
1001
0000
,  // measure 67
1000
0001
0010
0100
0010
0000
1000
0000
,  // measure 68
1000
0100
0010
0100
0010
0001
0001
1000
,  // measure 69
1000
0011
0010
1010
,  // measure 70
0001
0001
0100
0000
0100
0010
0010
1000
,  // measure 71
1000
0000
1001
0000
0012
0000
0003
1000
,  // measure 72
0100
0000
0010
0010
0010
0010
0001
0001
,  // measure 73
0100
0010
1000
0000
1100
0000
1001
0000
,  // measure 74
0010
1000
1000
0010
0100
0000
0110
0000
,  // measure 75
0001
0001
1000
0000
1000
0010
0100
0010
,  // measure 76
0001
0000
0001
0100
0010
0100
1000
0000
,  // measure 77
1000
0000
0010
0010
0100
0001
1000
0100
,  // measure 78
0000
1001
0000
0010
0010
0100
0000
0100
,  // measure 79
0010
1010
0001
0002
,  // measure 80
0000
0000
0000
0000
,  // measure 81
0000
0000
0000
0000
0000
0000
0000
0000
0000
0000
0000
0000
1003
0000
0000
0000
0000
0000
0000
0000
0000
0000
0000
0000
1000
0000
0000
0000
0000
0000
0000
0000
0000
1000
0000
0000
0000
0000
0000
0000
0100
0000
0000
0000
0000
0000
0000
0000
,  // measure 82
0010
0000
0010
0000
0000
1000
0000
0100
0010
0000
0000
0001
0000
0000
0001
0010
,  // measure 83
0000
0000
0010
0100
0000
0010
0000
1000
0000
0000
1000
0000
0000
0010
0000
0000
,  // measure 84
1000
0000
1000
0000
0000
0100
0000
0010
0000
0000
0000
0001
0000
0000
0001
0000
,  // measure 85
0010
0000
0000
0100
0000
0000
0100
0000
0000
1000
0000
0000
1000
0000
0100
0000
,  // measure 86
0010
0000
0010
0000
0000
1000
0000
0001
0000
0000
0001
0000
0000
0100
0000
0010
,  // measure 87
0000
0000
0010
0000
1000
0000
0000
1000
0000
0001
0000
0000
0000
0001
0000
0000
,  // measure 88
0100
0000
0100
0000
0000
0000
0100
0000
0000
0010
0000
0000
0010
1000
0000
0000
,  // measure 89
1000
0000
0000
0000
1001
0000
0000
0010
0100
0010
0000
1000
0000
1000
0001
0000
,  // measure 90
0001
0010
0100
0000
1100
0000
0000
0000
1010
0000
0000
0000
0010
0100
0010
1000
,  // measure 91
0000
1000
0000
0000
0101
0000
0000
0000
0110
0000
0000
0001
0010
0001
0100
1000
,  // measure 92
0100
0000
0000
0000
0110
0000
0000
0000
1010
0000
0000
0001
1000
0001
0000
0100
,  // measure 93
0010
0100
0000
0000
1001
0000
0000
0000
1010
0000
0000
0100
0010
0100
0001
1000
,  // measure 94
0001
0010
0000
0000
0110
0000
0000
0000
0101
0000
0000
0000
1000
0001
1000
0010
,  // measure 95
0100
0010
0000
0000
1010
0000
0000
0000
0110
0000
0000
1000
0001
1000
0010
0000
,  // measure 96
0100
0010
0000
0000
1001
0000
0000
0000
1001
0000
0100
0010
0100
0000
0001
0000
,  // measure 97
1000
0100
1000
0010
0000
0100
0000
0000
0110
0000
0000
0000
0001
0000
0100
0000
,  // measure 98
1000
1000
0101
0110
,  // measure 99
1000
0000
1000
0000
0010
0100
0000
0010
,  // measure 100
0001
1000
0001
0000
0010
0100
0010
1000
,  // measure 101
0000
1000
0100
0000
1001
0000
0001
0000
,  // measure 102
0001
0100
0000
0100
0010
1000
0000
1000
,  // measure 103
0000
1010
0110
0101
,  // measure 104
0011
0100
0000
0100
0010
0010
1000
0001
,  // measure 105
1000
0000
1001
0000
0100
0010
0110
0000
,  // measure 106
1000
0001
0000
0001
0010
0000
0100
0000
,  // measure 107
0010
1000
0000
1000
0001
0000
0001
0100
,  // measure 108
0000
0010
1000
0000
1000
0001
0010
0001
,  // measure 109
0100
0000
0100
0010
0000
0010
1000
0000
,  // measure 110
1000
0010
0100
0010
0001
0001
1000
0100
,  // measure 111
1000
0000
0020
0000
0030
0000
1000
0010
,  // measure 112
0100
0000
2000
0000
3001
0001
0001
0000
,  // measure 113
0010
0000
1001
0000
0011
0000
0100
0010
,  // measure 114
0100
0000
1010
0000
0110
0000
0001
1000
,  // measure 115
0001
0000
1010
0000
0110
0000
1000
0100
,  // measure 116
1000
0000
0011
0000
1010
0000
0100
0001
,  // measure 117
0100
0000
0011
0000
1100
0000
0010
0100
,  // measure 118
0010
0000
0101
0000
1010
0000
0100
0001
,  // measure 119
0100
0000
1001
0000
1001
0000
0010
0100
,  // measure 120
0010
0000
0110
0000
0110
0000
0001
0010
,  // measure 121
0100
0000
1001
0000
1010
0000
0100
0001
,  // measure 122
0100
0000
1010
0000
0101
0000
0010
1000
,  // measure 123
0010
0000
1100
0000
1010
0000
0010
0100
,  // measure 124
0010
0000
0101
0000
0011
0000
0100
0010
,  // measure 125
0100
0000
1001
0000
1001
0000
0100
0010
,  // measure 126
1000
0000
0110
0000
1010
0000
0001
0100
,  // measure 127
1000
0000
0011
0000
0011
0000
1000
0010
,  // measure 128
0100
0000
1010
0000
1010
0000
0001
0001
,  // measure 129
0100
0010
0100
0001
1001
0000
0000
0010
,  // measure 130
0100
0100
0001
0010
0001
0000
1100
0000
,  // measure 131
0010
0010
1000
0001
1000
0001
0010
0100
,  // measure 132
0010
0001
1000
1000
0100
0000
0100
0010
,  // measure 133
0001
0100
0100
0000
1000
0000
1010
0000
,  // measure 134
0100
0000
0100
0001
0010
0001
1000
1000
,  // measure 135
0000
0010
0200
0000
0300
0010
0001
1000
,  // measure 136
0001
0000
0100
0100
0100
0100
0010
0010
,  // measure 137
0010
0000
1000
0100
0001
0000
1001
0000
,  // measure 138
0100
0010
0100
0000
1100
0000
1010
0000
,  // measure 139
0001
0010
0100
0010
1000
1000
0001
0001
,  // measure 140
0010
0100
0010
1000
0100
0000
0100
0010
,  // measure 141
0000
0010
0001
0100
1000
0000
1010
0000
,  // measure 142
0100
0001
0010
0010
0100
0000
1001
0000
,  // measure 143
0010
0100
0020
0000
0000
0030
0000
0100
,  // measure 144
0100
0000
1001
0000
1001
0000
0100
0010
,  // measure 145
0100
0000
1001
0000
0100
0100
0010
0100
,  // measure 146
0001
0000
1010
0000
0100
0100
0010
0001
,  // measure 147
0100
0000
1001
0000
0010
0100
0010
1000
,  // measure 148
1000
0000
1100
0001
0001
0010
0100
0010
,  // measure 149
1000
0000
0110
0000
0100
0100
0010
0100
,  // measure 150
0001
1000
0101
0000
0010
0010
0100
0001
,  // measure 151
0010
0000
1001
0000
0100
0010
0100
0100
,  // measure 152
0001
0000
1010
0000
1000
1000
0010
0100
,  // measure 153
0100
0000
0110
0000
0001
0001
0010
0100
,  // measure 154
1000
0000
0101
0000
1000
1000
0010
0100
,  // measure 155
0100
0000
1100
0000
0010
0010
0100
0100
,  // measure 156
0010
0000
1001
0000
0100
0010
0010
0100
,  // measure 157
1000
0001
1100
0000
0010
0010
0100
0010
,  // measure 158
1000
0000
1010
0000
0100
0100
0010
0010
,  // measure 159
1000
0110
0002
0000
,  // measure 160
0000
1000
0100
0010
,  // measure 161
1003
0000
0000
0002
2000
0000
0000
0000
,  // measure 162
0000
0000
0000
0000
,  // measure 163
3003
0000
0000
0000
;
