#TITLE:Hunting for you;
#SUBTITLE:(Full Version);
#ARTIST:Togo Project feat. Megu & Scotty D.;
#TITLETRANSLIT:;
#SUBTITLETRANSLIT:;
#ARTISTTRANSLIT:;
#GENRE:;
#CREDIT:PaperBox440;
#BANNER:Hunting for you (Full Version).png;
#BACKGROUND:Hunting for you (Full Version)-bg.png;
#LYRICSPATH:;
#CDTITLE:;
#MUSIC:Hunting for you (Full Version).mp3;
#OFFSET:0.000000;
#SAMPLESTART:15.428572;
#SAMPLELENGTH:16.571428;
#SELECTABLE:YES;
#BPMS:0.000000=105.000000
;
#STOPS:
;
#BGCHANGES:;
#KEYSOUNDS:;
#ATTACKS:;

//---------------dance-single - ----------------
#NOTES:
     dance-single:
     :
     Hard:
     13:
     0.451820,0.514664,0.416906,0.134177,0.328254,660.000000,573.000000,87.000000,28.000000,0.000000,0.000000,0.451820,0.514664,0.416906,0.134177,0.328254,660.000000,573.000000,87.000000,28.000000,0.000000,0.000000:
// measure 0
0000
0000
0000
0000
,  // measure 1
0000
0000
0000
0000
,  // measure 2
0000
0000
0000
0000
,  // measure 3
0000
0000
0000
0000
,  // measure 4
0000
0000
0000
0000
,  // measure 5
0000
0000
0000
0000
,  // measure 6
0000
0000
2000
0000
3000
0100
0001
0001
,  // measure 7
0010
0100
1001
0000
0010
0100
0100
1000
,  // measure 8
1000
0000
1010
1010
0100
0110
0110
0000
,  // measure 9
0001
0000
1000
0000
1001
0000
0100
0000
1000
0000
0001
0000
0010
0000
0001
0100
,  // measure 10
0001
0000
1010
1010
0100
0110
0110
0001
,  // measure 11
1000
1001
0100
0100
1000
0010
0100
0100
,  // measure 12
0010
0001
0001
0100
0100
0000
1000
1000
,  // measure 13
0001
0000
0000
0000
0010
0100
1000
0000
0010
0001
0100
0000
1000
0000
1000
0000
,  // measure 14
0000
0100
0000
0000
0010
0000
0010
0000
1000
0000
0100
0000
0010
0000
0000
0010
,  // measure 15
0001
0000
0001
0000
2000
0000
0000
0000
0000
3000
0000
0100
0000
0001
0010
0000
,  // measure 16
0100
0000
0020
0000
0000
0000
0030
0000
1000
0000
1000
0000
0000
0000
0010
0100
,  // measure 17
0000
0100
0000
0000
1000
0000
0010
0000
1010
0000
0000
0000
0100
0000
0000
0000
,  // measure 18
0100
0001
1001
0000
0010
0001
0001
0100
,  // measure 19
0100
0000
1001
0000
1010
0000
0100
0100
,  // measure 20
1001
0000
0001
0000
0010
0100
0100
0000
,  // measure 21
1000
0000
1001
0000
0010
0100
0010
0010
,  // measure 22
0001
0000
1000
0000
1000
0000
0001
0000
0000
0100
0010
0100
0010
0000
0000
0000
,  // measure 23
0100
0000
1001
0000
1010
0000
0100
0100
,  // measure 24
0001
0000
0010
0000
0001
0000
1000
0000
1000
0000
0001
0000
0000
0010
0100
0010
,  // measure 25
0100
0000
0000
0000
1000
0000
1000
0000
0001
0000
0000
0001
0000
0000
1000
0000
,  // measure 26
0100
1000
0000
0000
0010
0100
0010
1000
0010
0100
0000
0000
0001
0000
0001
0000
,  // measure 27
0100
0000
0000
0000
1010
0000
0110
0000
0000
0000
1000
0000
1000
0010
0001
0000
,  // measure 28
0100
0000
0000
0000
0001
1000
0001
1000
0010
0100
0000
0000
0001
0000
0100
0000
,  // measure 29
0000
0010
0100
0000
1001
0000
0000
0000
0010
0001
0000
1100
0000
0000
0000
0000
,  // measure 30
0010
0100
0001
0000
1010
0000
1100
0000
0110
0000
0000
0000
0001
0000
0100
0000
,  // measure 31
0100
0000
0000
0000
1002
0000
0000
0003
0000
0010
0000
0000
0010
0000
0000
0100
,  // measure 32
1000
0000
0000
1000
0001
0000
0001
0000
0010
0100
0000
0010
0000
0010
1000
0000
,  // measure 33
1000
2002
0000
3003
0010
0010
0100
1000
,  // measure 34
0001
0000
0001
0000
0100
0010
0100
0000
0000
0000
1010
0000
2020
0000
0000
0000
,  // measure 35
3030
0000
0000
0100
0001
0000
0001
0000
0000
0010
0100
0010
0000
1000
0100
0000
,  // measure 36
1000
0001
0000
0000
0001
0000
0020
0000
0000
0030
0100
0000
0100
0000
0000
0000
,  // measure 37
1001
0000
0000
0001
0000
0010
0100
0010
0000
0000
2020
0000
3030
0000
0000
0000
,  // measure 38
0001
0000
0010
0100
0000
0100
0000
0000
0002
2000
0000
0000
0000
0000
0000
0000
,  // measure 39
0000
3000
2000
0000
0000
0000
0000
0000
3003
0000
0000
0010
0000
0010
0100
0000
,  // measure 40
0001
0000
0001
1000
0000
0000
0000
0000
1000
0000
1000
0010
0100
0000
0000
0010
,  // measure 41
0000
0100
0000
0000
0011
0000
0011
0000
1100
0000
1100
0000
0010
0000
1010
0000
,  // measure 42
0000
0100
0000
0000
1001
0000
0100
0000
0011
0000
0010
0000
1100
0000
0000
0000
,  // measure 43
1001
0000
0000
0000
0011
0000
0011
0000
1100
0000
1100
0000
0001
0000
0010
0100
,  // measure 44
0000
0100
0000
0000
1001
0000
0010
0000
0000
0010
0100
1000
0000
1000
0001
0000
,  // measure 45
0000
0001
0000
0010
0100
0000
0100
0000
0001
0010
0001
0000
1000
0000
1000
0000
,  // measure 46
0002
0000
0000
0003
0000
0000
1000
0000
1000
0000
0010
0001
0100
0000
0100
0010
,  // measure 47
0000
1000
0000
0000
0010
0000
0010
0000
0100
0000
0001
0010
0001
0000
1000
0100
,  // measure 48
0000
1000
0000
0000
2000
0000
0000
0000
0000
0000
0000
3000
0000
0010
0000
0100
,  // measure 49
0000
0020
0000
0000
0000
0030
0000
0100
,  // measure 50
0100
0000
0010
0000
1001
0000
0000
0000
1010
0000
0000
0000
0100
0000
1000
0001
,  // measure 51
0000
0000
0001
0000
0100
0000
0010
0000
0010
0000
1000
0100
1000
0000
0001
0000
,  // measure 52
0001
0000
1010
0000
0110
0000
0001
0001
,  // measure 53
0010
0000
1000
0000
0100
0000
0010
0000
0010
1000
0000
0100
1000
0000
0001
0000
,  // measure 54
0001
0000
0000
0000
1010
0000
0000
0000
0110
0000
0000
0000
0001
0010
0001
0000
,  // measure 55
1000
0100
1000
0000
0010
0000
0010
0000
0100
0000
0100
0001
0000
0001
1000
0100
,  // measure 56
0000
1000
0000
0000
1010
0000
0000
0000
0110
0000
0000
0001
0010
0001
0000
1000
,  // measure 57
0100
0000
0010
0100
0010
0000
0001
0000
0001
0000
1000
0100
1000
0000
0010
0000
,  // measure 58
0010
0100
0000
0000
1001
0000
0000
0000
0100
0010
0100
0000
0011
0000
0000
1000
,  // measure 59
0000
1000
0000
0100
0010
0100
0000
0000
1010
0000
0000
0100
0001
0000
0010
0100
,  // measure 60
0000
0100
0000
0000
1010
0000
0000
0000
1100
0000
0000
0000
1000
0000
0001
0010
,  // measure 61
0001
0000
0100
0000
0100
0000
0010
0000
0010
0000
1001
0000
0000
0010
0000
1000
,  // measure 62
0000
1000
0000
0000
0110
0000
0000
0000
1010
0000
0000
0000
0010
0000
1000
0100
,  // measure 63
1000
0000
0010
0001
0010
0000
0100
0000
0100
0000
0000
0000
1001
0000
0000
0000
,  // measure 64
1010
0000
0000
0000
0100
0000
0000
0000
0010
0001
0100
0000
0000
0000
0000
0000
,  // measure 65
1000
0010
0100
0001
0000
0001
0000
0010
0000
0010
0000
0100
0000
0010
1000
0000
,  // measure 66
1000
0000
0000
0000
2000
0000
0000
0000
0000
3000
0000
0100
0000
0100
0000
0000
,  // measure 67
0010
0000
0000
1010
0000
0000
0001
0000
1000
0000
0100
0000
0100
0000
0010
0000
,  // measure 68
0010
0001
0000
0000
2002
0000
0000
0000
3003
0000
0000
0010
0000
0010
0000
0000
,  // measure 69
1000
0100
1000
0000
0001
0000
0001
0010
0000
0100
0000
0200
0000
0000
0300
0200
,  // measure 70
0000
0300
0000
0000
0000
1000
0000
0000
0010
0000
0010
0000
1000
0001
1000
0000
,  // measure 71
0000
0001
0010
0001
0100
0100
1000
0000
,  // measure 72
1000
0000
0000
0000
0100
0000
0100
0000
0010
0001
0010
0000
0000
0000
0100
0000
,  // measure 73
0001
0000
0000
0001
1000
0000
1000
0000
0100
0000
0010
0000
0020
0000
0000
0000
,  // measure 74
0100
0000
0000
0030
0020
0000
0000
0000
0000
0030
0000
0000
0001
0000
0001
0000
,  // measure 75
0010
0100
0000
0000
1001
0000
0000
0000
0100
0000
0010
0000
0010
0000
1000
0001
,  // measure 76
1000
0000
1010
1010
0100
0110
0110
0000
,  // measure 77
0010
0100
1001
0000
1010
0100
0110
0001
,  // measure 78
0101
0000
1100
1100
0010
0011
0011
1000
,  // measure 79
0010
0100
0000
0000
1001
0000
0000
0000
0010
0000
0010
0000
0100
0000
0100
0000
,  // measure 80
0001
0000
0010
0001
1000
0000
1000
0000
0010
0100
0010
0000
0001
0000
0001
0000
,  // measure 81
1000
0000
0010
0000
0010
0100
0000
0000
0001
0000
1000
0000
1000
0000
0000
0000
,  // measure 82
1001
0000
0000
0000
0110
0000
0110
0000
0010
0000
1001
0000
1000
0010
0000
0010
,  // measure 83
0000
0100
0000
0100
0000
0000
0002
0000
1000
0000
0000
0000
1000
0000
0000
0000
,  // measure 84
1003
0000
0020
0000
0000
0000
0000
0000
0000
0000
0030
0000
0000
0000
0010
0001
,  // measure 85
0010
0000
1000
0000
1000
0000
0000
0000
1010
0000
0000
1000
0100
1000
0001
0000
,  // measure 86
0001
0000
0010
0100
0010
0000
1000
0001
1000
0000
0000
0000
0100
0000
0101
0000
,  // measure 87
0000
0010
0100
0000
2000
0000
0000
0000
0001
0000
0000
0000
0001
0000
0000
3000
,  // measure 88
0001
0020
0000
0000
0000
0000
0030
0000
,  // measure 89
0010
0000
0100
0010
0100
0000
0000
0000
1001
0000
0000
0000
0000
0000
0000
0000
;
