#VERSION:0.83;
#TITLE:Hungary bukyoku dai 5 ban;
#SUBTITLE:(jubeat version);
#ARTIST:H.D.5 Orchestra;
#TITLETRANSLIT:;
#SUBTITLETRANSLIT:;
#ARTISTTRANSLIT:;
#GENRE:;
#ORIGIN:;
#CREDIT:PaperBox440;
#BANNER:Hungary bukyoku dai 5 ban (jubeat version).png;
#BACKGROUND:Hungary bukyoku dai 5 ban (jubeat version)-bg.png;
#PREVIEWVID:;
#JACKET:Hungary bukyoku dai 5 ban (jubeat version)-jacket.png;
#CDIMAGE:;
#DISCIMAGE:;
#LYRICSPATH:;
#CDTITLE:;
#MUSIC:Hungary bukyoku dai 5 ban (jubeat version).mp3;
#OFFSET:0.000000;
#SAMPLESTART:73.500000;
#SAMPLELENGTH:9.300003;
#SELECTABLE:YES;
#BPMS:0.000=200.000,
106.000=80.000,
114.000=200.000,
140.000=80.000,
148.000=200.000,
269.000=80.000,
277.000=200.000;
#STOPS:;
#DELAYS:;
#WARPS:;
#TIMESIGNATURES:0.000=4=4;
#TICKCOUNTS:0.000=4;
#COMBOS:0.000=1;
#SPEEDS:0.000=1.000=0.000=0;
#SCROLLS:0.000=1.000;
#FAKES:;
#LABELS:0.000=Song Start;
#BGCHANGES:;
#KEYSOUNDS:;
#ATTACKS:
;

//---------------dance-single - ----------------
#NOTEDATA:;
#CHARTNAME:;
#STEPSTYPE:dance-single;
#DESCRIPTION:;
#CHARTSTYLE:;
#DIFFICULTY:Hard;
#METER:14;
#RADARVALUES:0.611603,0.721022,0.668629,0.708547,0.329325,429.000000,362.000000,67.000000,71.000000,0.000000,0.000000,0.000000,0.000000,0.000000,0.611603,0.721022,0.668629,0.708547,0.329325,429.000000,362.000000,67.000000,71.000000,0.000000,0.000000,0.000000,0.000000,0.000000;
#CREDIT:;
#NOTES:
// measure 0
0000
0000
0000
0000
,  // measure 1
1000
0000
0000
1001
0000
0000
0000
0010
,  // measure 2
0000
0010
0100
0000
0110
0000
0000
0000
,  // measure 3
0002
0000
0000
0000
,  // measure 4
0003
0000
1000
1000
0010
0100
0010
0000
,  // measure 5
1000
0000
1001
0000
2000
0000
3000
0001
,  // measure 6
0002
0000
0003
0100
0010
2000
0000
3000
,  // measure 7
0001
0002
0000
0003
0200
0000
0300
0001
,  // measure 8
0020
0000
0000
0000
0030
0000
0000
0000
1000
0000
1000
0000
0000
0001
0000
0010
,  // measure 9
0100
0010
0000
0000
2002
0000
0000
0000
3003
0000
0000
0000
2000
0000
0000
0000
,  // measure 10
3000
0001
0002
0000
0103
0020
0000
0030
,  // measure 11
1000
0000
2000
0000
0000
0000
3000
0000
0000
0000
0001
0010
0001
0000
0100
0000
,  // measure 12
0100
0010
0000
0000
0010
0000
1000
0100
1000
0001
0000
0000
0001
0000
0000
0000
,  // measure 13
0110
1100
1001
0000
,  // measure 14
0100
0010
1000
0000
1001
0000
0010
0000
,  // measure 15
0110
0000
1000
1000
0002
0000
0000
0003
,  // measure 16
0200
0000
0000
0301
0001
1000
0000
0000
,  // measure 17
0100
0100
0010
1000
1000
0000
1001
0000
,  // measure 18
0020
0000
0000
0000
0030
1000
0100
0002
0000
0000
0000
0000
0003
0000
0000
0000
,  // measure 19
1000
0000
2000
0000
0000
3000
0000
0000
0001
0000
0002
0000
0000
0003
0000
0000
,  // measure 20
0000
0000
0000
0000
0100
0010
0100
0000
0001
0000
0000
0001
1000
0100
1000
0000
,  // measure 21
0010
0000
0000
0010
0100
0000
0000
0000
0110
0000
0000
0000
1100
0000
0000
0000
,  // measure 22
1001
0100
0110
1010
,  // measure 23
0100
0000
0000
0000
0010
0000
0100
0000
0001
0000
0001
0000
0010
0100
0010
0000
,  // measure 24
1000
0010
0001
1001
,  // measure 25
1100
0000
0000
0000
0001
0000
0000
0000
1000
0000
0000
0000
0100
0010
0100
0000
,  // measure 26
1000
0001
0000
0000
1001
0000
0000
0000
0200
0000
0000
0000
0300
0002
0000
0003
,  // measure 27
1000
0000
2200
0000
3300
0001
0000
0000
0220
0000
0330
0000
0002
0000
0003
1000
,  // measure 28
0100
0000
0010
0100
0010
2000
3000
0000
1001
0000
0000
0000
0000
0000
0000
0000
,  // measure 29
1000
1000
0001
0000
0110
0000
1010
0000
,  // measure 30
0100
0010
0100
0000
0000
0010
0001
0000
1000
0000
0000
0000
0010
0000
0000
0000
,  // measure 31
0110
1010
0000
1001
,  // measure 32
0110
0000
0000
0000
1000
0000
1000
0001
0010
0001
0000
0000
0110
0000
0000
0000
,  // measure 33
1010
1000
0001
1100
,  // measure 34
0001
0000
0000
0000
0100
0000
0010
1000
0001
0000
0001
0000
0200
0000
0000
0000
,  // measure 35
0302
0000
2003
0000
3020
0200
0330
0002
,  // measure 36
0003
0000
2000
0000
3000
0000
0001
1000
0001
0000
0010
0100
0020
0000
0030
0000
,  // measure 37
1001
0000
1100
0011
,  // measure 38
1000
0000
1000
0000
0001
0000
0000
0000
0100
0010
0100
0000
0001
1000
0000
0000
,  // measure 39
1001
0000
0100
0000
0000
0100
0010
0000
0000
0010
1000
0000
0000
1000
0001
0000
,  // measure 40
0000
0001
0000
0100
0000
0000
0100
0010
0000
0000
0010
1000
0000
0000
1000
0000
,  // measure 41
0001
0000
0001
0100
0000
0010
0100
0000
1000
0000
0000
0000
1001
0000
0000
0000
,  // measure 42
1100
0000
0000
0001
0000
0000
0001
1000
0100
1000
0000
0010
0000
0000
0010
0000
,  // measure 43
0100
0000
0000
0100
0001
0000
0000
0001
1000
0100
1000
0000
0010
0000
0000
0010
,  // measure 44
0100
0000
0000
0100
0001
0000
0001
0000
1000
0000
0000
0000
1010
0000
0000
0000
,  // measure 45
0110
0002
2003
3200
,  // measure 46
0320
0032
0003
1001
,  // measure 47
1001
1100
0110
0002
,  // measure 48
2003
3200
0320
2030
,  // measure 49
3000
0001
1001
1100
,  // measure 50
0110
0002
0003
2000
,  // measure 51
3000
0200
0300
1000
,  // measure 52
0001
1001
1100
0020
,  // measure 53
2030
3000
0002
2003
,  // measure 54
3000
0010
0110
1100
,  // measure 55
1001
0000
0200
0000
0300
0010
0002
0000
,  // measure 56
1003
2000
0000
3000
0000
0001
0002
0000
,  // measure 57
0003
0000
0200
0000
0300
0010
0001
0000
,  // measure 58
1000
0000
0010
0000
0000
0100
0010
0000
0010
0000
1000
0001
1000
0000
0000
0000
,  // measure 59
1001
0000
0000
0000
0200
0000
0000
0000
0300
0000
0000
0001
1000
0020
0000
0000
,  // measure 60
0000
0000
0030
0000
0100
0010
2000
0000
0000
0000
3000
0000
0100
0010
0002
0000
,  // measure 61
0000
0000
0003
0000
1000
0000
1000
0000
0010
0000
0010
0000
1000
0100
1000
0001
,  // measure 62
0000
0000
0001
0000
0100
0010
0100
0000
0001
0000
0000
0000
1100
0000
0000
0000
,  // measure 63
1001
0010
0110
1010
,  // measure 64
0200
0000
0000
0000
0000
0300
0000
0000
0010
0000
1000
0100
1000
0000
0000
0000
,  // measure 65
1001
0010
0110
1010
,  // measure 66
0001
0000
0000
0000
1001
0000
0010
0000
0100
0010
0100
0000
1000
0001
1000
0000
,  // measure 67
0110
0000
2000
0000
3002
0000
0203
0320
,  // measure 68
0000
0000
2030
0000
0000
0000
3002
0000
0000
0000
0103
1000
0100
0000
0010
0100
,  // measure 69
0010
0000
2000
0000
3000
0000
0000
0000
1001
0000
0000
0000
0000
0000
0010
0100
,  // measure 70
0000
0000
1100
0000
0000
0000
1010
0000
1010
0000
0000
0000
0001
0000
0001
1000
,  // measure 71
0100
1000
0000
0010
0000
0000
0110
0000
0000
0000
1010
0000
0000
0000
2002
0000
,  // measure 72
0000
3003
0000
0000
;
