#VERSION:0.83;
#TITLE:Hombre bola;
#SUBTITLE:(EURO Dance Style);
#ARTIST:Stroke;
#TITLETRANSLIT:;
#SUBTITLETRANSLIT:;
#ARTISTTRANSLIT:;
#GENRE:;
#ORIGIN:;
#CREDIT:PaperBox400;
#BANNER:Hombre bola.png;
#BACKGROUND:Hombre bola-bg.png;
#PREVIEWVID:;
#JACKET:Hombre bola-jacket.png;
#CDIMAGE:;
#DISCIMAGE:;
#LYRICSPATH:;
#CDTITLE:;
#MUSIC:Hombre bola (EURO Dance Style).ogg;
#OFFSET:0.000000;
#SAMPLESTART:0.000000;
#SAMPLELENGTH:11.333333;
#SELECTABLE:YES;
#BPMS:0.000=180.000;
#STOPS:;
#DELAYS:;
#WARPS:;
#TIMESIGNATURES:0.000=4=4;
#TICKCOUNTS:0.000=4;
#COMBOS:0.000=1;
#SPEEDS:0.000=1.000=0.000=0;
#SCROLLS:0.000=1.000;
#FAKES:;
#LABELS:0.000=Song Start;
#BGCHANGES:0.000=Hombre bola (EURO Dance Style).mp4=1.000=0=0=0=StretchNoLoop====,
99999=-nosongbg-=1.000=0=0=0 // don't automatically add -songbackground-
;
#KEYSOUNDS:;
#ATTACKS:
;

//---------------dance-single - ----------------
#NOTEDATA:;
#CHARTNAME:;
#STEPSTYPE:dance-single;
#DESCRIPTION:;
#CHARTSTYLE:;
#DIFFICULTY:Hard;
#METER:8;
#RADARVALUES:0.568693,0.635341,0.369531,0.016797,0.226757,237.000000,215.000000,22.000000,1.000000,0.000000,0.000000,0.000000,0.000000,0.000000,0.568693,0.635341,0.369531,0.016797,0.226757,237.000000,215.000000,22.000000,1.000000,0.000000,0.000000,0.000000,0.000000,0.000000;
#CREDIT:;
#NOTES:
// measure 0
0000
0010
0100
0010
1000
0000
1000
0010
,  // measure 1
0100
1000
1001
0000
,  // measure 2
0100
0010
0000
0010
0100
0000
0001
0000
,  // measure 3
1000
0000
1001
0000
0000
0010
0100
0000
,  // measure 4
0110
0000
1001
0000
0000
0000
1000
1000
,  // measure 5
0001
0000
1000
0000
0001
0001
0000
0100
,  // measure 6
0010
0100
0000
2000
0000
3001
0000
0000
,  // measure 7
1000
0010
0000
0010
0100
0000
0001
0001
,  // measure 8
0000
1100
0000
0110
0000
0000
0001
1000
,  // measure 9
0001
0100
0000
0100
0000
0001
1000
0000
,  // measure 10
0100
0010
0100
0001
0000
0001
1000
0000
,  // measure 11
1000
0000
0010
0000
0001
1000
1000
0000
,  // measure 12
0100
0010
0100
0001
0000
0001
0000
1000
,  // measure 13
1000
0110
1001
0100
,  // measure 14
0010
0100
0010
0000
0100
0000
0100
0000
,  // measure 15
0010
0000
1000
0001
1000
0000
0010
0100
,  // measure 16
0000
0010
0100
0000
0001
1000
0000
1000
,  // measure 17
0000
0010
0100
0000
0001
0000
1000
0000
,  // measure 18
1001
0000
0000
0000
0000
0100
0000
0100
0000
0000
0000
0000
,  // measure 19
0000
0000
0010
0000
0010
0000
0000
0000
0000
0000
0000
1000
,  // measure 20
0000
1000
0000
0000
0000
0000
0000
0000
0000
0000
0000
0001
,  // measure 21
0000
0001
0000
0000
0000
0000
0000
0000
0100
0000
0100
0000
,  // measure 22
0000
0000
0000
0000
0000
0000
0010
0000
0000
0000
0010
0000
0000
0000
0000
0000
0000
0000
0001
0000
0000
0100
0000
0000
,  // measure 23
0000
0000
0100
0000
1001
0000
0010
0100
,  // measure 24
0010
0000
0000
0000
0001
1000
0000
1000
,  // measure 25
0001
0000
0010
0100
0000
0100
0000
0000
,  // measure 26
0011
0000
1100
0000
0010
0000
0010
0100
,  // measure 27
0001
1000
1000
0000
0010
0100
0001
0000
,  // measure 28
0001
1000
1000
0000
0010
0100
0000
0010
,  // measure 29
0001
1000
0100
1000
0001
0000
0001
0100
,  // measure 30
0100
0000
0011
0000
1100
0000
0001
1000
,  // measure 31
0001
0000
0110
0000
1001
0000
0010
0100
,  // measure 32
0000
0100
0000
0010
0000
0000
0010
1000
0000
0000
1000
0000
0000
0000
0000
0100
,  // measure 33
0000
0100
0000
0000
1100
0000
1001
0000
,  // measure 34
0000
0000
0000
0000
0001
0000
0000
0001
0000
0000
0000
0000
1000
0000
0000
0010
,  // measure 35
0000
0000
0010
0100
0000
0000
0100
0000
0000
0000
0001
0000
1000
0000
0000
0000
,  // measure 36
1001
0000
0110
0000
0000
0010
1000
0000
,  // measure 37
1000
0000
0001
0000
0010
0100
0000
0100
,  // measure 38
0000
0010
0000
1000
0001
1000
0000
0001
,  // measure 39
0001
0000
0000
0010
0100
0010
0000
0100
,  // measure 40
0001
0000
1000
0000
0001
0000
0000
0000
1000
0000
0000
1000
0100
0000
0000
0100
,  // measure 41
0010
0000
0000
0010
0001
0000
0000
0001
0010
0000
0000
0010
0100
0000
0000
0100
,  // measure 42
1000
0000
0000
1000
0001
0000
1000
0000
0001
0000
0100
0000
0000
0100
0010
0000
,  // measure 43
0000
0010
0000
0000
1000
0000
0000
0000
1001
0000
0000
0000
0000
0000
0000
0000
,  // measure 44
0010
0010
0100
0000
1001
0000
0000
0000
;
