#TITLE:Himawari MUZIK SERVANT Remix;
#SUBTITLE:;
#ARTIST:MUZIK SERVANT;
#TITLETRANSLIT:;
#SUBTITLETRANSLIT:;
#ARTISTTRANSLIT:;
#GENRE:;
#CREDIT:;
#BANNER:Himawari MUZIK SERVANT Remix.png;
#BACKGROUND:Himawari MUZIK SERVANT Remix-bg.png;
#LYRICSPATH:;
#CDTITLE:;
#MUSIC:Himawari MUZIK SERVANT Remix.mp3;
#OFFSET:0.000000;
#SAMPLESTART:69.257141;
#SAMPLELENGTH:16.800003;
#SELECTABLE:YES;
#BPMS:0.000000=175.000000
;
#STOPS:
;
#BGCHANGES:;
#KEYSOUNDS:;
#ATTACKS:;

//---------------dance-single - ----------------
#NOTES:
     dance-single:
     :
     Hard:
     13:
     0.634154,0.627054,0.771619,0.045389,0.086240,489.000000,404.000000,85.000000,5.000000,0.000000,0.000000,0.634154,0.627054,0.771619,0.045389,0.086240,489.000000,404.000000,85.000000,5.000000,0.000000,0.000000:
0000
0000
0000
0000
,
0000
1001
0000
1000
1000
0100
0010
0010
,
0000
1000
1000
0100
0001
0010
0001
0000
,
1000
0000
0100
0100
0010
0100
0010
0010
,
1001
0000
1000
1000
0001
1000
0001
0000
,
1001
0000
1000
0010
0001
1000
1000
0000
,
0110
0000
0001
0100
0010
0100
0000
0000
,
1001
1100
1010
0110
,
1001
0001
0110
0110
,
1000
1001
0000
0010
0010
1100
0000
0010
,
0000
0110
0000
0001
1000
1001
0100
0010
,
0000
0000
0011
0000
0100
0000
0000
1000
0000
0000
1000
0000
0001
0000
0010
0000
,
0010
0100
0000
0000
0100
0000
0001
0000
0000
0010
0001
0000
1000
0000
0000
1000
,
0000
1001
0000
0010
0001
1100
0000
0010
,
0000
0110
0000
0001
0100
0011
0000
1000
,
0001
0000
1100
0000
0000
0000
0010
0100
0000
0000
0100
0000
0010
0000
1000
0000
,
1000
0000
0000
0010
0001
0010
0100
0000
0000
0100
1000
0000
0000
0000
1000
0000
,
0000
1001
0010
0100
0000
0011
0000
1000
,
0000
0000
1100
0000
0010
0000
0010
0000
0000
0000
0110
0000
0000
0000
0001
1000
,
0000
0000
1001
0000
0000
0000
0100
0010
0001
0000
1000
0000
1000
0000
0010
0100
,
0000
0000
0100
0000
0001
0010
0001
0000
0000
1000
0000
0000
1000
0000
0100
0000
,
0000
0110
0000
1000
0000
1100
0000
0001
,
0010
1001
0000
0010
0000
0110
0000
1000
,
0001
1100
0000
1010
0000
0110
0000
0101
,
0000
0000
0000
0000
1000
0000
0000
0000
0001
0000
0001
0000
0010
0100
0000
0000
,
0100
0000
0010
1000
0000
0000
1000
0000
0000
0000
0011
0000
0000
0000
1100
0000
,
0000
0001
1000
1000
0100
0001
0010
0001
,
1000
1000
0010
0100
0001
0001
1000
0100
,
1000
0000
0110
0001
0000
0001
0000
1000
,
0010
0000
0010
1100
0000
0001
1010
0000
,
0100
0100
0001
0010
0002
0000
1000
0000
,
0000
0003
1000
1000
0011
0000
0010
0100
,
0000
0100
0002
0000
0000
1000
0000
0000
,
0003
1000
0000
1001
0000
0001
1000
0000
,
0000
1001
0000
1000
1000
0001
0010
0100
,
0000
0100
0010
0001
1000
0100
1000
0010
,
0100
0001
0000
0001
1000
0100
0001
1000
,
1000
0010
0100
0000
0001
1000
0001
0000
,
0000
0110
0000
0010
0100
0001
0001
0000
,
1100
0000
0001
1000
0000
1000
0000
0000
,
0011
0110
1100
1001
,
0110
2000
0000
3000
,
1001
0000
0001
1000
1000
0000
0010
0100
,
0001
0001
1000
0000
1000
0001
0010
0001
,
0000
1000
1001
0000
1000
0000
0100
0010
,
0100
0001
0000
0001
1000
1000
0000
0000
,
0110
0000
1100
0000
0010
0001
0000
0001
,
0000
1001
0000
0100
0010
0001
1000
0000
,
1100
0010
0110
1000
,
1001
0000
0100
0001
0001
0000
0110
0000
,
1001
0000
0000
0000
1100
0000
0000
0000
1001
0000
0000
0010
0100
0010
0000
0000
,
1000
1000
0000
0100
0001
0010
0001
0000
,
0110
0000
0000
0001
0000
1000
1000
0001
,
0010
0100
0010
0000
0001
0001
0100
0000
,
0100
0000
1000
0001
1000
0000
1001
0000
,
0100
0100
0001
1000
1000
0000
0001
0010
,
0100
0000
0100
0001
0010
0001
1000
0000
,
1000
0000
0010
0100
0010
0000
1000
0000
,
1001
0000
0000
0000
0100
0100
0010
0000
,
0010
0001
1000
1000
0001
0010
0001
0000
,
2000
0000
0000
0000
3000
0001
1000
0001
,
0000
0100
0100
0000
0001
1000
0000
0010
,
0001
0010
1000
0000
1001
0000
0000
0000
,
0100
0100
0010
0001
0010
0001
1000
0000
,
0000
0110
0000
0100
0000
0100
0001
0010
,
0000
1001
1100
0000
0001
0000
1001
0000
,
0011
0000
1001
0000
0100
0010
0100
0010
,
0100
0000
0000
0000
1000
0001
1000
0000
0010
0000
0010
0000
0100
0000
1000
0000
,
0000
0000
1000
0000
0001
0000
0010
0000
0001
0000
0100
0010
0100
0000
0000
0000
,
1001
0000
0010
0000
1100
0001
0001
0000
,
0110
1010
1001
0000
,
0110
0000
1100
0000
,
0011
0000
0100
0000
1100
0000
0010
1000
,
1001
0000
0010
0001
0110
1000
1000
0000
,
0011
1001
1100
0200
,
0000
0000
0000
0000
,
0000
0000
0000
0300
;

//---------------dance-single - ----------------
#NOTES:
     dance-single:
     :
     Medium:
     9:
     0.473346,0.515736,0.680840,0.245102,0.000000,365.000000,290.000000,75.000000,27.000000,0.000000,0.000000,0.473346,0.515736,0.680840,0.245102,0.000000,365.000000,290.000000,75.000000,27.000000,0.000000,0.000000:
0000
0000
0000
0000
,
1000
1000
0010
0100
,
0110
0001
0001
1001
,
1000
0100
0010
0000
,
0010
0001
0001
1000
,
1001
0100
0010
0100
,
0110
0001
0001
1000
,
1001
1100
0110
1001
,
0001
1000
0020
0230
,
0301
0000
1001
0000
,
0110
0000
1100
0000
,
1000
0001
1000
0000
0100
0000
0001
0010
,
0001
0100
0000
0100
0010
0000
0010
0000
,
1000
0000
1001
0000
,
0110
0000
1100
0000
,
0001
0010
0000
0100
1000
0001
1000
0000
,
0220
0000
0330
1000
,
1001
0000
0110
0000
,
1100
0000
0011
0000
,
1000
0001
1000
0001
0100
1000
0000
0010
,
0100
0000
0100
0001
0010
0001
1000
0000
,
1001
0000
0110
0000
,
1100
0000
1001
0000
,
0011
1010
1100
1001
,
0110
0000
0001
0001
0000
1000
1000
0000
,
0100
0010
0100
0000
0001
0000
1001
0000
,
1100
0001
0010
0001
,
1000
0010
1000
0000
0001
0000
1000
0000
,
0001
1000
0001
0000
0100
0000
0010
0000
,
0100
0001
0001
1100
,
1001
0000
0100
0000
0001
1000
0001
0000
,
0100
0000
0010
0000
0100
0000
1000
0010
,
0001
0000
0100
0000
0100
0000
0001
0010
,
0001
1000
1001
0000
,
0110
0001
0100
0010
,
0001
0000
1000
0000
0010
0001
0100
0000
,
0010
0000
0010
0000
1000
0100
1000
0000
,
0001
0001
0100
1100
,
0001
0000
0100
0010
0100
0000
1000
0000
,
1001
0010
0100
0010
,
0110
1001
0011
1001
,
1100
0001
0010
0100
,
0110
0001
1000
0001
,
0100
0000
0001
1000
0001
0000
0010
0000
,
1000
0100
1000
0001
,
0100
0000
1000
0001
1000
0000
0000
0000
,
0110
1010
1000
0001
,
1001
0010
0100
1000
,
0110
0001
1001
0100
,
0110
0000
1000
0001
1000
0000
2002
0000
,
3003
0000
0100
0010
0100
0000
0001
0000
,
0100
0000
0100
0000
1000
0001
1000
0000
,
0002
0003
0010
0010
,
1000
0001
0100
0100
,
0001
0010
0001
0000
1001
0000
0000
0000
,
0100
0100
0000
1000
0001
0010
0001
0000
,
2000
0000
3000
0010
0000
1010
0000
0001
,
0100
0010
0100
1100
,
2002
3003
0010
0100
,
0010
0000
0100
0000
0001
1000
0001
0000
,
2000
3000
0001
1001
,
0100
1000
0001
0001
,
0100
0010
0100
0000
1001
0000
0000
0000
,
0001
0001
0100
0010
,
1000
0100
1000
0000
0001
0000
0001
0000
,
0000
0100
0010
0000
0110
0000
0000
0001
,
1000
0000
1001
0000
0010
0100
0010
0000
,
0110
2000
3002
0003
,
1100
1010
0110
0000
,
2002
3003
2200
3300
,
1010
0110
1001
0000
,
0220
0330
2002
3003
,
1100
1010
0110
0000
,
2002
3003
0220
0330
,
0001
0011
2002
0000
,
0000
0000
0000
0000
0000
0003
3000
0000
;

//---------------dance-single - ----------------
#NOTES:
     dance-single:
     :
     Easy:
     5:
     0.281414,0.378207,0.335881,0.081701,0.000000,217.000000,180.000000,37.000000,9.000000,0.000000,0.000000,0.281414,0.378207,0.335881,0.081701,0.000000,217.000000,180.000000,37.000000,9.000000,0.000000,0.000000:
// measure 0
0000
0000
0000
0000
,  // measure 1
1000
1000
0001
0000
,  // measure 2
0000
0100
0100
0000
,  // measure 3
0000
0001
0001
0000
,  // measure 4
0000
0100
0100
0000
,  // measure 5
1001
0000
0000
0000
,  // measure 6
0110
0000
0000
0000
,  // measure 7
1100
0110
0011
0000
,  // measure 8
0000
0000
1000
1001
,  // measure 9
0110
0000
0001
0000
,  // measure 10
1000
0000
0100
0000
,  // measure 11
0000
0001
0000
1000
,  // measure 12
0000
0010
0100
0000
,  // measure 13
0001
0000
1000
0000
,  // measure 14
0100
0000
1001
0000
,  // measure 15
0110
0000
0000
0000
,  // measure 16
1001
0000
0010
0010
,  // measure 17
1000
0000
0001
0000
,  // measure 18
0100
0000
1000
0000
,  // measure 19
0001
1000
1000
0000
,  // measure 20
0000
0100
0010
0100
,  // measure 21
1001
0000
1000
0000
,  // measure 22
0001
0000
0100
0000
,  // measure 23
0110
1001
1000
0001
,  // measure 24
0100
0000
0010
0000
,  // measure 25
0100
0000
1001
1001
,  // measure 26
0000
0010
0000
0100
,  // measure 27
0000
0010
0000
1000
,  // measure 28
0001
0001
0000
0100
,  // measure 29
0010
0000
1000
1001
,  // measure 30
0000
0100
0001
0000
,  // measure 31
0001
0000
0100
0000
,  // measure 32
0010
0000
0100
0000
,  // measure 33
1000
0000
1001
0000
,  // measure 34
0110
0000
1000
0000
,  // measure 35
1000
0000
0001
0000
,  // measure 36
0010
0000
0100
0000
,  // measure 37
0010
0000
0001
1000
,  // measure 38
0110
0000
1000
0000
,  // measure 39
1001
0000
0100
0000
,  // measure 40
0110
0001
1000
0001
,  // measure 41
0110
0000
1000
0000
,  // measure 42
1001
0000
0100
0000
,  // measure 43
0100
0000
0010
0000
,  // measure 44
0010
0000
1000
0000
,  // measure 45
1000
0000
0001
0000
,  // measure 46
0110
0001
1000
0000
,  // measure 47
1001
0010
0100
0000
,  // measure 48
0110
0000
1001
0000
,  // measure 49
0110
0000
1000
0001
,  // measure 50
1000
1001
1001
0100
,  // measure 51
0000
0010
0001
0000
,  // measure 52
1000
0000
0100
0010
,  // measure 53
0001
1000
1000
0001
,  // measure 54
0000
0001
1000
0000
,  // measure 55
0001
0001
0010
1000
,  // measure 56
0100
0001
0000
0010
,  // measure 57
0000
0100
0000
1000
,  // measure 58
1001
0000
0100
0010
,  // measure 59
1000
1000
0001
0000
,  // measure 60
0110
0000
0001
0100
,  // measure 61
0000
0100
0001
0000
,  // measure 62
0001
1000
1001
0000
,  // measure 63
0001
0000
0001
0000
,  // measure 64
0110
0000
0100
0000
,  // measure 65
1001
0010
0110
1000
,  // measure 66
1100
0000
0100
0010
,  // measure 67
2000
3000
0002
0003
,  // measure 68
0100
0010
0100
0000
,  // measure 69
0002
0003
2000
3000
,  // measure 70
0100
0010
0100
0000
,  // measure 71
0002
0003
2000
3000
,  // measure 72
0010
0100
0010
0000
,  // measure 73
0200
0300
0020
0030
,  // measure 74
1000
0001
2000
0000
,  // measure 75
0000
0000
0000
3000
;
