#VERSION:0.83;
#TITLE:Healing-T-Vision;
#SUBTITLE:;
#ARTIST:T for Triplet;
#TITLETRANSLIT:;
#SUBTITLETRANSLIT:;
#ARTISTTRANSLIT:;
#GENRE:;
#ORIGIN:;
#CREDIT:PaperBox440;
#BANNER:Healing-T-Vision-bn.png;
#BACKGROUND:Healing-T-Vision-bg.png;
#PREVIEWVID:;
#JACKET:Healing-T-Vision-jacket.png;
#CDIMAGE:;
#DISCIMAGE:;
#LYRICSPATH:;
#CDTITLE:cdtitle.png;
#MUSIC:Healing-T-Vision.mp3;
#OFFSET:0.000000;
#SAMPLESTART:8.540669;
#SAMPLELENGTH:22.899998;
#SELECTABLE:YES;
#BPMS:0.000=60.000,
8.500=300.000,
135.500=150.000,
162.000=200.000,
234.000=250.000,
255.000=300.000,
388.000=360.000;
#STOPS:;
#DELAYS:197.000=0.200;
#WARPS:;
#TIMESIGNATURES:0.000=4=4;
#TICKCOUNTS:0.000=4;
#COMBOS:0.000=1;
#SPEEDS:0.000=1.000=0.000=0;
#SCROLLS:0.000=1.000;
#FAKES:;
#LABELS:0.000=Song Start;
#BGCHANGES:;
#KEYSOUNDS:;
#ATTACKS:
;

//---------------dance-single - ----------------
#NOTEDATA:;
#CHARTNAME:;
#STEPSTYPE:dance-single;
#DESCRIPTION:;
#CHARTSTYLE:;
#DIFFICULTY:Hard;
#METER:10;
#RADARVALUES:1.049992,1.504942,1.310756,0.310698,0.558285,757.000000,622.000000,135.000000,32.000000,0.000000,0.000000,0.000000,0.000000,0.000000,1.049992,1.504942,1.310756,0.310698,0.558285,757.000000,622.000000,135.000000,32.000000,0.000000,0.000000,0.000000,0.000000,0.000000;
#CREDIT:;
#NOTES:
// measure 0
0000
0000
0000
0000
,  // measure 1
0000
0000
0000
0000
,  // measure 2
0000
0100
0000
0000
0010
1000
0000
0100
,  // measure 3
1000
0001
0010
0001
1000
0010
0100
0001
,  // measure 4
1000
0100
1000
0010
0000
0100
0001
1000
,  // measure 5
0000
1000
0010
0100
0000
2002
0000
0000
,  // measure 6
0000
0000
0000
3003
,  // measure 7
0000
0001
1000
0100
1000
0010
0100
0001
,  // measure 8
0000
1001
0000
0110
0000
1100
0001
0000
,  // measure 9
1000
0010
0100
0001
0010
0000
1000
0100
,  // measure 10
1000
0000
0110
0000
0001
1000
0100
1000
,  // measure 11
0001
0000
0011
0100
0010
1000
0100
0000
,  // measure 12
1001
0010
0100
0010
0000
0000
0110
1000
,  // measure 13
0100
1000
0001
0010
0000
0110
0000
1000
,  // measure 14
0100
1000
0001
0000
0011
0100
0010
1000
,  // measure 15
0001
1010
1001
0110
,  // measure 16
0100
1000
0010
0100
1001
0000
0001
1000
,  // measure 17
0010
0100
0010
0001
0100
1001
0100
0000
,  // measure 18
1010
0000
0000
0010
0100
0001
1000
0100
,  // measure 19
1000
0011
0100
0010
1000
0000
0001
0100
,  // measure 20
0010
1000
0000
0001
0100
0010
0001
1000
,  // measure 21
0100
1000
0000
0110
0000
0001
1000
0100
,  // measure 22
1000
0001
1010
0000
0001
1000
0110
0001
,  // measure 23
0100
1000
0110
0000
0001
1000
0100
1000
,  // measure 24
0001
0010
0000
0010
0000
0001
1000
0100
,  // measure 25
1000
0010
0000
0000
0110
0000
1001
0000
,  // measure 26
1001
0010
0100
0010
1000
0001
0010
0001
,  // measure 27
0000
2002
0000
3003
0000
0010
1001
0000
,  // measure 28
0110
0000
0001
1000
0000
0100
1000
0001
,  // measure 29
0110
0000
0100
1000
0001
0100
0010
0000
,  // measure 30
1001
0110
1001
0110
,  // measure 31
1001
0010
0100
0001
0000
0000
1001
0000
,  // measure 32
0100
0010
0000
1001
0000
0000
1000
0000
,  // measure 33
0010
0100
0010
0001
1000
0010
0000
0100
,  // measure 34
0100
0010
0001
1000
0100
1000
0010
0000
0100
0001
1000
0100
1000
0001
0010
0000
,  // measure 35
0001
1000
0000
0010
0100
0010
0001
1000
0100
1000
0010
0001
0000
1000
0100
1000
,  // measure 36
0001
0010
0000
0010
0100
0000
1010
0000
1010
0000
0001
0100
1000
0001
0010
0000
,  // measure 37
0001
1000
0010
0100
0010
0000
0001
1010
0000
1010
0000
1000
0010
0100
0010
0001
,  // measure 38
1000
0100
1000
0001
0010
0001
0100
0000
1010
0000
1010
0000
1000
0010
0001
0000
,  // measure 39
1100
0000
0100
0010
0000
0010
1000
0100
1000
0011
0000
0011
0000
0001
1000
0000
,  // measure 40
0100
1000
0000
0010
0001
1000
0100
0000
0220
0000
0330
0000
0110
0000
2020
0000
,  // measure 41
3030
0000
1010
0000
0000
0000
0100
0000
0001
0000
0010
0000
0100
0001
0000
1000
,  // measure 42
0100
1000
0010
0000
0110
0000
1000
0000
0001
0010
0000
0001
0000
0000
1001
0000
,  // measure 43
0100
0000
0010
0100
0000
0001
0000
1000
0100
0000
1000
0001
0010
0000
0100
0010
,  // measure 44
0000
0000
1010
0000
0000
1010
0000
0000
0110
0000
1000
0000
0010
0100
0000
0000
,  // measure 45
2002
0000
3003
0220
0000
0330
0000
1000
,  // measure 46
0001
0000
0010
0000
0100
0010
0000
1000
0000
0001
0010
0000
0001
1000
0001
0000
,  // measure 47
0100
0010
0000
0100
0010
0001
1000
0000
0220
0000
0000
0000
0000
0000
0000
0000
,  // measure 48
0000
0000
0330
1000
1001
1000
0010
0100
,  // measure 49
0010
1001
0000
0010
0100
0010
0100
0001
,  // measure 50
1000
0000
0100
0000
0010
0100
0000
0010
0000
0000
0010
1000
0000
0001
0100
0000
,  // measure 51
0001
0000
1000
0001
0000
0100
0000
0010
1000
0000
0010
1000
0000
0010
0000
0001
,  // measure 52
0100
0000
0010
0100
0000
1000
0100
0000
1000
0001
0010
0100
0000
0010
1000
0000
,  // measure 53
0010
1000
0000
0100
0000
0001
0010
0100
0001
1000
0000
0001
1000
0000
0001
1000
,  // measure 54
0100
0000
0010
0100
0000
0000
0000
1010
0000
0000
1010
0000
0000
0110
0000
0000
,  // measure 55
0110
0000
0000
0101
0000
0000
0202
0000
0303
0000
0000
1001
0000
0000
1001
0000
,  // measure 56
0000
1001
0000
0000
1010
0000
0000
1010
0000
0000
1010
0000
0000
0101
0000
0000
,  // measure 57
0101
0000
0000
0101
0000
0000
2002
0000
0000
0000
0000
0003
0000
0000
3001
0000
,  // measure 58
0000
1001
0000
0000
1001
0000
0000
0000
0100
0000
0000
1010
0000
0000
0010
0000
,  // measure 59
0100
0010
0000
1001
0000
0100
0000
1000
0010
0000
0000
0101
0000
0000
1010
0000
,  // measure 60
0000
0110
0000
0000
0010
1000
0000
0001
0000
0110
0000
0000
0110
0000
0000
0100
,  // measure 61
1000
0000
0001
0010
0000
0001
0000
1100
0000
0000
1100
0000
0000
1000
0000
0010
,  // measure 62
0100
0000
0000
1001
0000
0000
2002
0000
0000
0000
0000
0000
0000
0000
0000
0000
,  // measure 63
0000
0000
0000
0000
0000
0000
0000
0000
3003
0000
0000
0000
1001
0000
0000
0110
,  // measure 64
0000
0000
0000
0101
0000
0000
0000
0000
0101
0000
0000
1010
0000
0000
0000
0000
,  // measure 65
1010
0000
0000
0000
0000
0110
0000
0000
0000
0000
0110
0000
0000
0000
1001
0000
,  // measure 66
0000
0000
0000
1001
0000
0000
0000
0101
0000
0000
0000
0000
0101
0000
0000
0000
,  // measure 67
1010
0000
0000
0000
0000
1010
0000
0000
0000
0000
0000
0011
0000
0000
0000
0000
,  // measure 68
0011
0000
0000
1100
0000
0000
0000
0000
1100
0000
0000
0000
0220
0000
0000
0000
,  // measure 69
0000
0000
0000
0000
,  // measure 70
0330
0000
1000
0010
1000
0100
0010
1000
,  // measure 71
0001
0010
0001
1000
0100
0010
0100
1000
,  // measure 72
0001
0010
0001
1000
0100
0010
0001
1000
,  // measure 73
0001
1000
0010
0100
0010
0001
1000
0100
,  // measure 74
0010
0100
1000
0001
0010
0001
1000
0100
,  // measure 75
0001
0010
1000
0100
0010
0001
0100
1000
,  // measure 76
0010
0100
1000
0001
0010
0001
1000
0010
,  // measure 77
0100
0010
0100
0010
1000
0100
1000
0001
,  // measure 78
0010
0001
1000
0100
1000
0010
0001
1000
,  // measure 79
0010
0100
0010
0001
1000
0100
1000
0001
,  // measure 80
0010
0001
1000
0010
0100
0010
0001
0100
,  // measure 81
1010
0000
1000
0001
0010
1100
0010
0001
,  // measure 82
1000
0100
1000
0010
0001
0100
1000
0010
,  // measure 83
0001
1000
0010
0100
0010
0001
1000
0110
,  // measure 84
0000
2002
0000
0000
0000
0000
3003
0000
,  // measure 85
0010
0000
1010
0000
1000
0010
0100
0010
,  // measure 86
0001
0100
1000
0000
1000
0010
0001
0100
,  // measure 87
0000
1010
0000
1000
0001
0010
0001
0100
,  // measure 88
0000
1010
0000
0010
0001
1000
0100
1000
,  // measure 89
0001
0100
1010
0000
0010
0001
1000
0010
,  // measure 90
0100
0000
1001
0100
1001
0000
0101
0000
,  // measure 91
0101
1010
2020
3030
,  // measure 92
0110
0001
0110
0000
1001
0100
1001
0000
,  // measure 93
2020
3030
0101
0101
,  // measure 94
1010
0100
1010
0000
1100
0001
1100
0000
,  // measure 95
0220
0000
0330
0000
0010
0100
0001
1000
,  // measure 96
0110
1000
0001
0010
1000
0100
1001
0000
,  // measure 97
0220
0000
0000
0000
,  // measure 98
0000
0000
0000
0000
,  // measure 99
0000
0000
0000
0000
,  // measure 100
0330
0000
0000
0000
;

//---------------dance-single - ----------------
#NOTEDATA:;
#CHARTNAME:;
#STEPSTYPE:dance-single;
#DESCRIPTION:;
#CHARTSTYLE:;
#DIFFICULTY:Medium;
#METER:9;
#RADARVALUES:0.804485,1.392011,1.252500,0.291279,0.199041,580.000000,451.000000,129.000000,30.000000,0.000000,0.000000,0.000000,0.000000,0.000000,0.804485,1.392011,1.252500,0.291279,0.199041,580.000000,451.000000,129.000000,30.000000,0.000000,0.000000,0.000000,0.000000,0.000000;
#CREDIT:;
#NOTES:
0000
0000
0000
0000
,
0000
0000
0000
0000
,
0000
0010
0000
0100
0001
1000
0100
1000
,
0000
0000
0000
0010
0100
0010
1000
0001
,
0100
0010
0000
0000
0000
0000
0001
1000
,
0100
1000
0010
0100
0010
0000
2002
0000
,
0000
0000
0000
0000
,
3003
0000
0110
0000
0000
1001
0000
0000
,
0110
0000
0000
0100
0000
1000
0000
0000
,
1010
0000
0000
0110
0000
0000
1010
0000
,
0000
0101
0000
0000
1010
0000
0000
0100
,
0000
0010
0000
0001
0000
1000
0000
0010
,
0000
0000
0000
0000
0110
0000
0000
0000
0000
0110
0000
0000
0000
0000
0010
0000
,
0000
0000
0100
0000
0000
0010
0000
0000
0000
0000
1001
0000
0000
0000
0010
0000
,
0000
0001
0000
0100
0000
0000
1001
0000
0000
0000
0010
0000
0000
0100
0000
0000
,
1000
0000
0000
0001
0000
0000
0000
0000
0110
0000
0000
0000
1000
0000
0000
0010
,
0000
0000
0000
0000
0110
0000
0000
0000
0000
1000
0000
0000
0001
0000
0100
0000
,
0000
0000
0000
0000
1001
0000
0000
0000
0000
1010
0000
0000
0000
0000
0000
0000
,
1001
0000
0000
0000
0000
0010
0000
0000
0100
0000
0000
0000
1001
0000
0000
0000
,
0000
1001
0000
0000
1001
0000
0000
0000
,
0110
0000
0000
0000
0000
0000
0220
0000
0000
0000
0000
0330
0000
0000
0000
0000
,
0000
0000
1001
0000
0000
0000
0000
0001
0000
1000
0000
0000
0010
0000
0000
0100
,
0000
0000
0000
0000
1010
0000
0000
0000
0001
0000
1000
0000
0000
0010
0000
0000
,
0000
0000
1010
0000
0000
0000
0100
0000
0000
0001
0000
0000
1000
0000
0010
0000
,
0100
0000
0000
0010
0001
0000
0100
0000
,
0000
1000
0010
0100
0000
0000
1000
0000
,
0000
1001
0000
0000
0000
0000
1001
0000
0000
0000
0110
0000
0000
0000
0000
0000
,
0000
1010
0000
0000
0000
0000
0000
0010
0000
0000
0001
0000
0000
0100
0000
0000
,
0000
1010
0000
0000
0000
0000
0001
0000
0000
0000
0000
0000
0110
0000
0000
0000
,
0000
0110
0000
0000
0000
0000
0100
0000
0000
0000
0000
1001
0000
0000
0000
0000
,
1001
0000
0000
0000
0000
0000
0000
0000
0110
0000
0000
0000
0000
0110
0000
0000
,
0000
0000
0000
0000
0000
0000
1001
0000
0000
0000
0000
0000
0000
1001
0000
0000
,
0000
0000
0000
0000
0000
1001
0000
0000
0000
0100
0000
0000
0010
0000
0000
0000
,
0100
0000
0000
0001
0000
0000
1000
0000
0000
0000
0000
0220
0000
0000
0330
0000
,
1000
1000
0100
0100
0010
0010
1000
1000
,
1010
0010
0100
0010
0010
0100
0100
0001
,
1001
1001
0100
0010
1010
1010
0100
0100
,
0101
0101
0001
1000
1100
1100
0010
0010
,
1010
1100
1100
0001
0011
0011
1001
1100
,
1100
1010
0001
0001
0110
0110
1000
1000
,
1010
1010
0100
0101
0202
0000
0000
0303
,
2002
0000
0000
0000
3003
0220
0000
0000
,
0330
0000
0001
1000
0100
1000
0010
0000
,
0010
0100
0100
0001
1000
0000
1000
0100
,
0010
0001
1000
0010
0100
0010
0001
1000
,
2002
0000
0000
0000
3003
0220
0000
0000
,
0330
0000
1000
0100
0010
0001
1000
0100
,
1000
0010
0001
0110
0000
2002
0000
0000
,
0000
3003
0000
0100
1000
0010
0100
0001
,
1000
0000
0000
0220
0330
0000
0000
0000
1000
0000
0001
0000
1000
0000
0001
0000
,
1000
0001
1000
0001
1000
0001
1000
0001
,
1000
0001
1000
0000
0100
0010
0100
0010
,
0100
0010
0100
0010
0100
0010
0100
0010
,
0100
0010
0100
0010
0100
0000
1001
1001
,
0110
0000
0110
0000
0000
0001
0000
0000
1010
0000
1010
0000
0101
0000
0101
0000
,
0000
0010
0000
0000
1100
0000
1100
0000
0011
0000
0011
0000
0000
0000
1000
0000
,
1001
1001
0000
0010
0110
0110
0000
1000
,
1000
0001
0001
0000
0220
0000
0000
0000
,
0000
0000
0000
0000
0330
0000
0000
0000
0000
0000
0000
0000
0110
0000
0000
0110
,
0000
0000
0000
1010
0000
0000
1010
0000
0000
0101
0000
0000
0101
0000
0000
0000
,
1001
0000
0000
1001
0000
0000
0110
0000
0000
0110
0000
0000
1010
0000
0000
1010
,
0000
0000
0101
0000
0000
0101
0000
0000
1001
0000
0000
1001
0000
0000
0110
0000
,
0000
0110
0000
0000
1001
0000
0000
1001
0000
0000
2002
0000
0000
0000
0000
0000
,
0000
0000
0000
3003
,
0010
0000
1000
0010
0100
0000
0011
0000
,
0011
1000
0100
1000
0010
0000
1010
0000
,
1010
0000
0100
0001
0010
0001
0000
0000
,
1001
0000
1001
0000
0010
0100
0010
1000
,
0000
1100
0000
1100
0001
0000
0220
0000
,
0000
0000
0000
0000
,
0330
0001
0000
0001
1000
0000
0010
0100
,
0000
0010
0001
1000
0000
0100
1000
0001
,
0010
0001
0000
1000
0100
0000
0010
0000
,
0100
0000
0100
0000
1000
0001
0000
0010
,
0001
0000
1000
0010
0000
0010
0000
0100
,
0000
1000
0001
0100
0000
0000
0010
0100
,
0000
0010
0001
1000
0000
0100
1000
0001
,
0010
0000
0001
0100
0000
0010
0000
1000
,
0010
0100
0000
0010
0001
1000
0100
1000
,
0000
0010
0100
0000
0010
0001
1000
0000
,
1000
0001
0100
0010
0000
0010
1000
0001
,
0100
0000
0100
1000
0000
0001
0010
0000
,
0001
1000
0000
0010
0100
0000
1000
0000
,
0100
1000
0000
0001
0000
0010
0001
0000
,
0100
1010
0000
0000
1010
0000
0000
0010
,
0100
0000
0010
0001
1000
0100
0000
0100
,
0000
1000
0001
0000
0010
0001
1000
0000
,
0010
0100
0000
0010
0000
1000
0000
1001
,
0000
0010
0001
1000
0100
1000
0000
0110
,
0000
0110
0000
0001
1000
0000
0100
1000
,
0001
0000
0001
0100
0000
0010
1000
0100
,
1000
0001
0000
0010
0001
0000
1000
0010
,
0000
0010
0000
0100
0000
1000
0000
0001
,
0100
0000
0010
0000
0010
0000
1000
0001
,
1000
0000
0110
0000
0110
0000
0000
1010
,
0000
0000
0220
0000
0000
0000
0000
0330
,
0000
0001
1000
0000
0010
0100
0000
0000
,
2002
0000
0000
0000
,
0000
0000
0000
0000
0000
0000
0000
3003
;
