#VERSION:0.83;
#TITLE:Healing Vision SURVIVE HER!;
#SUBTITLE:;
#ARTIST:650MB 52x CD-RW;
#TITLETRANSLIT:;
#SUBTITLETRANSLIT:;
#ARTISTTRANSLIT:;
#GENRE:;
#ORIGIN:;
#CREDIT:PaperBox440;
#BANNER:Healing Vision SURVIVE HER!.png;
#BACKGROUND:Healing Vision SURVIVE HER!-bg.png;
#PREVIEWVID:;
#JACKET:;
#CDIMAGE:;
#DISCIMAGE:;
#LYRICSPATH:;
#CDTITLE:;
#MUSIC:Healing Vision SURVIVE HER!.mp3;
#OFFSET:0.000000;
#SAMPLESTART:1.040669;
#SAMPLELENGTH:4.500000;
#SELECTABLE:YES;
#BPMS:0.000=60.000,
6.000=500.000,
13.000=290.000,
36.500=119.980,
39.250=90.000,
40.250=210.000,
49.000=350.000,
88.000=250.000,
104.500=400.000,
175.000=90.000,
175.750=300.000,
197.000=50.000,
197.500=800.000,
199.500=300.000,
220.500=450.000,
404.000=100.000;
#STOPS:;
#DELAYS:36.500=0.100,
37.000=0.100,
37.500=0.100,
38.000=0.100,
38.500=0.100,
39.000=0.100,
87.000=0.300,
256.000=0.300;
#WARPS:;
#TIMESIGNATURES:0.000=4=4;
#TICKCOUNTS:0.000=4;
#COMBOS:0.000=1;
#SPEEDS:0.000=1.000=0.000=0;
#SCROLLS:0.000=1.000;
#FAKES:;
#LABELS:0.000=Song Start;
#BGCHANGES:;
#KEYSOUNDS:;
#ATTACKS:
;

//---------------dance-single - ----------------
#NOTEDATA:;
#CHARTNAME:;
#STEPSTYPE:dance-single;
#DESCRIPTION:;
#CHARTSTYLE:;
#DIFFICULTY:Hard;
#METER:10;
#RADARVALUES:1.099050,1.711229,0.838291,1.122228,0.223094,569.000000,507.000000,62.000000,83.000000,0.000000,3.000000,0.000000,0.000000,0.000000,1.099050,1.711229,0.838291,1.122228,0.223094,569.000000,507.000000,62.000000,83.000000,0.000000,3.000000,0.000000,0.000000,0.000000;
#CREDIT:;
#NOTES:
0000
0000
0000
0000
0200
0000
0000
0000
0000
0020
0000
0000
0000
0000
0000
0000
,
0000
0000
0000
0000
,
0000
0000
0000
0000
,
0000
0000
0330
1001
0000
0010
0100
0001
,
2000
3100
1000
0010
0100
0001
1000
0100
,
1000
0010
0000
0000
0010
0100
0000
0000
0001
0000
0000
1000
0100
0000
1000
0010
,
0000
0000
0000
0001
0000
0000
0010
0000
0100
0000
0010
0000
1000
0000
0000
1000
,
0000
0100
0000
1000
0100
0000
0000
0001
0000
0000
0001
0000
0010
0000
0100
0000
,
0010
0000
1000
0000
0000
1010
0000
0000
0011
0000
1000
0000
0220
0330
0000
0000
,
0000
0000
1001
0000
0101
0000
0011
0000
1001
0000
1100
0000
1000
0000
1000
1000
,
1000
0000
0010
0000
0001
0010
1000
0000
0100
1000
0000
0000
0001
0010
1000
0000
,
0100
0000
0100
0000
0010
0001
1000
0000
0010
0000
1000
0010
0001
0000
0100
0001
,
1000
0010
0001
0000
0001
1000
0000
0010
,
0100
0000
0001
1000
0000
1000
0001
0010
,
0000
0100
0000
0010
0000
1000
0000
0101
,
1000
0001
0000
0010
0100
0000
0010
1000
,
0000
1010
0000
0000
0100
0001
0000
1000
,
0100
1000
0001
0000
0010
0100
0000
0001
,
0100
0001
0000
1000
0100
0000
1000
0000
,
0001
1000
0000
0000
0010
0000
0100
0001
,
0010
0000
1000
0000
0001
0100
1000
0000
,
0011
0000
0000
0000
1000
0000
0000
0000
0100
0000
0000
2002
0000
0000
0000
0000
,
3003
0000
0000
0000
0100
0000
0001
0000
1000
0000
0010
0000
0100
0000
0001
1000
,
0000
0010
0100
0000
0000
0001
1000
0100
0000
1000
0000
0010
0100
0000
0001
0000
,
0000
0001
1000
0000
0100
0000
1000
0020
0000
0000
0030
0100
0000
0001
1010
0000
,
0100
0000
1000
0010
0000
0000
0001
0000
0000
0000
2100
0000
0001
0000
0000
0000
,
3000
0010
0000
1000
0100
0000
0010
0100
,
0000
0010
0001
1000
0000
0100
1000
0000
,
0000
0110
0000
0000
0110
0000
0000
1100
,
0000
0000
1100
0000
0000
0011
0000
0000
,
0011
0000
0000
1100
0000
0000
1100
0000
,
0000
0011
0000
0000
0011
0000
0000
1010
,
0000
0000
1010
0000
0000
0010
0100
0000
,
0001
0000
1000
0100
1000
0000
0010
0000
,
0010
0000
0100
0001
0000
1000
0100
1000
,
0000
0010
0000
0010
0100
0001
0000
1000
,
0100
1000
0010
0000
0100
0001
0000
1000
,
0010
0000
0100
0001
1000
0001
1000
0000
,
0010
0001
1000
0010
0000
0100
0000
0010
,
0001
1000
0100
1000
0010
0000
0100
0010
,
0000
0001
1000
0100
1000
0010
0000
0100
,
0010
0000
0001
1000
0010
0000
0100
0002
,
0003
2000
3020
0000
0030
0200
0301
2000
,
3000
0000
0020
0000
0030
0000
0100
0001
0000
0000
0010
0000
0000
1001
1001
1001
,
0000
0010
0100
0001
1000
0100
0000
0001
,
1000
0100
1000
0010
0000
0100
0001
1000
,
0100
1000
0001
0010
0000
0100
0010
1000
,
0000
0001
0010
0100
0010
0010
1000
0001
,
0010
0001
0000
1000
0100
1000
0001
0010
,
0000
0100
0220
0000
0000
0000
0000
0330
,
0000
0000
1000
0200
1300
0001
0010
0100
,
0000
0010
1000
0001
0000
0200
0000
0320
,
0000
1030
0002
0003
0100
0010
0000
1000
,
0200
0000
1300
0010
0100
0002
0000
0003
,
0010
1000
0200
0000
2300
3010
0200
0000
,
0000
0302
0003
1000
0100
0000
0010
0100
,
2000
0000
3002
0203
0300
0020
0030
1000
,
0000
2200
0000
0000
3300
0021
0030
0200
,
0000
0312
0000
2003
0000
3020
0000
0100
,
0000
1030
0001
0020
0230
0000
0320
0030
,
1000
0001
0020
0030
0100
0010
1000
0002
,
0003
0200
0000
0320
0030
2000
0000
3002
,
0003
0020
0000
0230
0000
0320
2030
0000
,
0000
0000
3200
0000
0000
0000
0300
0020
,
0000
0000
0130
0001
,
1000
0000
0000
0010
0100
0001
1000
0000
,
0010
0200
0300
1001
0000
1000
0100
0000
,
1000
0000
0011
0200
0300
0010
1000
0000
,
0100
0001
0020
0030
0000
1001
0000
0010
,
0100
0000
0001
1000
0100
1000
0000
0010
,
0000
0101
0000
0000
0101
0000
0000
1010
,
0000
0000
1010
0000
0000
0110
0000
0000
,
0110
0000
0000
1001
0000
0000
1001
0000
,
0000
0101
0000
0000
0101
0000
0000
1010
,
0000
0000
1010
0000
0000
0110
0000
0000
,
0110
0000
0000
1001
0000
0000
1001
0000
,
0000
0100
0000
1000
0000
0010
0000
0200
,
0300
0022
2033
3000
0200
0320
0000
0030
,
0001
1000
0000
0100
1000
0001
0000
0120
,
2030
0000
0000
3000
0100
0000
0120
0000
,
0030
0002
2003
0000
3000
0200
0000
0320
,
0000
0030
0000
2001
0000
3200
0000
0300
,
0000
1020
0000
0230
0000
0300
0000
0000
,
0022
2033
0000
3000
0100
0010
0001
0000
,
1100
0020
0000
0030
1000
0000
0201
0000
,
0300
1000
0000
0010
0100
0010
0001
1000
,
0000
0100
1000
0000
0100
0010
0000
0010
,
0001
1000
0000
0100
1000
0000
0100
0001
,
0000
1000
0010
0100
0000
0100
1000
0000
,
0001
0100
0010
0000
0010
1000
0000
0100
,
0000
1000
0001
0010
0000
0100
0000
0010
,
0000
1000
0100
0000
1000
0001
0000
0010
,
0000
0100
0001
0000
0010
1000
0000
0100
,
0000
0001
0000
1000
0000
1000
0001
0000
,
0100
0010
0000
0001
1000
0000
0100
1000
,
0000
0001
0000
0100
0010
0000
0010
1000
,
0000
0001
0100
0000
0010
1000
0000
0001
,
0100
1000
0001
0000
0020
2030
0000
3000
,
0001
0100
0000
0010
1000
0000
0001
0100
,
1000
0010
0000
0100
2000
3000
0001
0000
,
0100
0010
1000
0000
0100
1000
0001
0000
,
0220
0330
0000
0000
;

//---------------dance-single - ----------------
#NOTEDATA:;
#CHARTNAME:;
#STEPSTYPE:dance-single;
#DESCRIPTION:;
#CHARTSTYLE:;
#DIFFICULTY:Challenge;
#METER:13;
#RADARVALUES:1.270957,1.844705,1.216874,0.229854,0.290698,658.000000,559.000000,90.000000,17.000000,92.000000,7.000000,0.000000,0.000000,0.000000,1.270957,1.844705,1.216874,0.229854,0.290698,658.000000,559.000000,90.000000,17.000000,92.000000,7.000000,0.000000,0.000000,0.000000;
#CREDIT:;
#NOTES:
// measure 0
0000
0000
0000
0000
0200
0000
0000
0000
0000
0020
0000
0000
0000
0000
0000
0000
,  // measure 1
0000
0000
0000
0000
,  // measure 2
0000
0000
0000
0000
,  // measure 3
0000
0000
0330
1001
0010
0100
0010
2000
,  // measure 4
3001
0010
0100
0001
1000
1010
0100
0001
,  // measure 5
0002
0013
1000
0100
1000
0020
0130
0001
,  // measure 6
1000
0010
0100
0000
0100
0001
1000
0100
,  // measure 7
1000
0001
0010
0000
1010
0100
0001
0010
,  // measure 8
0001
1000
0100
1000
0010
0100
0000
1001
,  // measure 9
0000
0000
1100
0000
0011
0000
1001
0000
1010
0000
1100
0000
1100
0000
0010
0010
,  // measure 10
0010
0000
0100
0000
0010
1000
0100
0000
0001
0000
1000
0001
0010
0000
0100
0000
,  // measure 11
1010
0000
0001
0100
0010
0000
0001
0000
1000
0010
0100
0000
1000
0000
0010
0000
,  // measure 12
0110
1000
0000
0000
0110
0000
1000
0001
,  // measure 13
0010
0001
1000
0100
1000
0011
0000
0001
,  // measure 14
0100
1010
0000
0010
0001
1100
0000
1000
,  // measure 15
0001
0010
0001
0100
1010
0000
0010
0001
,  // measure 16
1000
0100
1000
0000
0100
0001
0000
0110
,  // measure 17
0000
1001
0000
0001
0000
0110
0000
0100
,  // measure 18
0000
1001
0000
0011
0000
0101
0000
0110
,  // measure 19
0000
1010
0000
1100
0000
0010
0001
1000
,  // measure 20
0110
0000
0010
1000
0100
1000
0001
0010
,  // measure 21
0001
0000
1000
0000
0100
0000
1000
0000
0000
0000
0220
0000
0000
0330
0MM0
0000
,  // measure 22
0000
0000
0001
1000
00M0
0100
1000
0001
0000
0120
0000
0030
1000
0100
0000
1000
,  // measure 23
0001
0000
0110
0000
0000
0100
001M
1000
0000
0000
1M00
0001
0000
0010
0001
0000
,  // measure 24
0100
1010
0000
0000
1000
0001
0000
0120
0000
0030
1000
0100
1000
0001
0000
0010
,  // measure 25
0001
0000
1020
0000
0100
0030
0100
0000
0010
0001
0100
0000
0100
1000
00M0
0000
,  // measure 26
0001
0000
0000
1000
0010
0100
0010
0001
,  // measure 27
1000
0100
1000
0001
0000
0010
0001
0100
,  // measure 28
0000
1010
0000
1000
0001
0010
0001
0100
,  // measure 29
0000
1010
0000
1000
0001
0110
0000
0100
,  // measure 30
0010
1000
0100
1000
0001
0000
0011
0100
,  // measure 31
1010
0000
0010
1000
0100
1000
0010
0001
,  // measure 32
0110
0000
1010
0000
1100
0000
0110
M000
,  // measure 33
0M01
0000
0010
0000
1000
0000
0100
0000
1000
0000
0011
0M00
0000
0000
0001
0000
,  // measure 34
0100
1010
000M
0010
1M00
0000
0011
M000
,  // measure 35
0100
0010
1000
000M
1000
0010
0100
0010
,  // measure 36
M001
0000
0M01
0000
00M1
1000
0100
1000
,  // measure 37
0011
0000
1001
0000
11MM
0000
0010
0M00
,  // measure 38
0001
0000
1000
0000
0110
0000
0000
000M
0010
0000
1000
0000
0100
00M0
1000
0000
,  // measure 39
0001
0000
0010
M000
0001
0000
0100
0000
1010
0000
0000
0000
0M10
0000
0001
0000
,  // measure 40
1000
01M0
1000
0001
0010
M001
0100
0000
,  // measure 41
1010
000M
0010
1000
0001
0010
0001
1000
,  // measure 42
0100
0000
1000
00M0
0001
0000
0100
0000
0010
0000
0000
0000
1100
0000
0000
0000
,  // measure 43
00M1
0000
1000
0000
0100
0000
1000
0000
0011
0000
0000
0000
0100
0100
0100
0000
,  // measure 44
0000
0000
0001
0000
0010
1000
0100
0000
0010
0001
1000
0000
0100
0000
1000
0000
,  // measure 45
0001
0100
0010
0000
0001
0000
0100
0000
1010
0001
0000
0000
1000
0000
0001
0100
,  // measure 46
0010
0000
0001
0000
1000
0010
0100
0000
1000
0001
0010
0000
0100
0000
0000
1000
,  // measure 47
0010
0000
0001
0000
1000
0010
0100
0000
1000
0000
0010
0001
0000
0000
0100
0000
,  // measure 48
0010
0100
0001
0000
1000
0000
0000
0001
0100
0000
0000
0000
1000
0000
0010
0000
,  // measure 49
0000
0000
0200
0320
0M00
0000
0030
0000
,  // measure 50
00M0
1001
0000
0010
0100
1000
0010
0001
,  // measure 51
0100
1010
0000
0010
0001
1000
0100
1000
,  // measure 52
0001
0010
0001
0100
1010
0000
0010
0001
,  // measure 53
1000
0100
1000
0010
0100
0010
0001
1000
,  // measure 54
0100
1000
0020
0000
M20M
0000
0000
0000
,  // measure 55
0330
001M
M100
0010
,  // measure 56
0M01
1000
01MM
1000
,  // measure 57
0M01
0010
M001
0100
,  // measure 58
0010
100M
0100
10M0
,  // measure 59
0001
M010
0M01
1000
,  // measure 60
01M0
1000
0010
010M
,  // measure 61
0010
M001
01M0
100M
,  // measure 62
0010
1001
0100
01M0
,  // measure 63
0001
M010
0001
2M00
,  // measure 64
3000
M000
0000
0000
0010
0000
0000
0000
,  // measure 65
0010
0000
0010
00M0
,  // measure 66
0010
00M0
0010
00M0
,  // measure 67
0010
00M0
0010
00M0
,  // measure 68
0010
00M0
0010
00M0
,  // measure 69
0010
00M0
0010
00M0
,  // measure 70
0010
00M0
0010
00M0
,  // measure 71
0010
1000
M010
010M
,  // measure 72
0010
0M01
10M0
010M
,  // measure 73
10M0
0M01
M010
0M01
,  // measure 74
11M0
100M
0M01
M010
,  // measure 75
0M01
01M0
101M
1000
,  // measure 76
01M0
100M
0M01
M010
,  // measure 77
0M01
10M0
010M
MMMM
,  // measure 78
0000
0110
0000
0100
0010
1000
0100
1000
,  // measure 79
0001
0010
0001
1000
0100
1000
0001
0010
,  // measure 80
0000
0001
1100
0000
1000
0010
0100
0010
,  // measure 81
0001
1000
0100
1000
0001
0010
0000
0001
,  // measure 82
1000
0010
1000
0010
1000
0010
1000
0010
,  // measure 83
1000
0000
0100
0010
0000
1001
0000
1000
,  // measure 84
0000
0001
0100
0010
0100
0000
1000
0011
,  // measure 85
0000
0001
1000
0110
0000
0100
0001
0010
,  // measure 86
0001
1000
1000
0010
0100
0001
0010
0001
,  // measure 87
1000
1000
0000
0100
0010
0100
1001
0000
,  // measure 88
0001
0100
0010
1000
0000
0100
1000
0001
,  // measure 89
0010
0001
1000
0100
0001
0100
0000
0100
,  // measure 90
0010
0100
1000
0001
0010
0000
0001
0100
,  // measure 91
0000
1010
0000
0000
1000
0000
0011
0000
,  // measure 92
0001
0000
0000
1110
0000
0000
1101
0000
,  // measure 93
0000
0111
0000
0000
1010
0000
0000
1000
,  // measure 94
0001
0010
0001
0000
1110
0000
0011
0000
,  // measure 95
1010
0000
1000
0000
1000
0011
0000
0001
,  // measure 96
0000
1010
0000
0001
0000
1100
0000
1111
,  // measure 97
0000
0000
1000
0100
1000
0010
0000
0001
,  // measure 98
0110
0000
1010
0000
0110
0000
0000
1011
,  // measure 99
0000
0110
0000
1010
0000
0011
0000
0110
,  // measure 100
0000
1010
0000
1111
0000
0000
0000
2002
,  // measure 101
3003
M00M
0000
0000
0000
0000
0000
0000
0000
0000
0000
0000
0000
0000
0000
0000
;
