#TITLE:Healing Vision;
#SUBTITLE:Angeic Remix;
#ARTIST:2MB;
#TITLETRANSLIT:;
#SUBTITLETRANSLIT:;
#ARTISTTRANSLIT:;
#GENRE:;
#CREDIT:PaperBox440;
#BANNER:Healing Vision Angelic Remix.png;
#BACKGROUND:Healing Vision Angelic Remix-bg.png;
#LYRICSPATH:;
#CDTITLE:cdtitle.png;
#MUSIC:Healing Vision Angelic Remix.mp3;
#OFFSET:0.000000;
#SAMPLESTART:116.346313;
#SAMPLELENGTH:14.550003;
#SELECTABLE:YES;
#BPMS:0.000000=180.000000
,191.500000=200.000000
,203.500000=100.000000
,205.500000=200.000000
,209.500000=210.000000
,214.000000=220.000000
,218.500000=100.000000
,236.500000=200.000000
,333.500000=249.999985
,487.000000=270.000000
,509.500000=280.000000
,532.000000=290.000000
,555.000000=300.000000
;
#STOPS:333.500000=0.500000,
456.500000=0.150000,
457.500000=0.150000,
460.500000=0.150000,
461.500000=0.150000,
464.000000=0.150000,
465.000000=0.150000,
467.500000=0.150000,
468.500000=0.150000,
472.000000=0.150000,
473.000000=0.150000,
475.500000=0.150000,
476.500000=0.150000,
479.000000=0.150000,
480.000000=0.150000,
482.500000=0.150000,
483.500000=0.150000
;
#BGCHANGES:;
#KEYSOUNDS:;
#ATTACKS:;

//---------------dance-single - ----------------
#NOTES:
     dance-single:
     :
     Challenge:
     16:
     0.800673,1.128852,0.898336,0.203397,0.350294,992.000000,833.000000,159.000000,36.000000,2.000000,2.000000,0.800673,1.128852,0.898336,0.203397,0.350294,992.000000,833.000000,159.000000,36.000000,2.000000,2.000000:
// measure 0
0000
0000
0000
0000
,  // measure 1
0000
0000
0000
0000
0000
0000
0000
0110
,  // measure 2
0000
0001
0000
0100
0000
0010
0000
0000
,  // measure 3
0010
0000
0000
1000
0000
0000
0001
0000
,  // measure 4
0000
0001
0000
0100
0000
0000
0100
0000
,  // measure 5
0000
1001
0000
0000
0000
1001
0000
0000
,  // measure 6
1001
0000
0110
0000
,  // measure 7
1000
0000
0000
0000
1001
0000
0000
1010
,  // measure 8
0000
0101
0000
1100
,  // measure 9
0010
0010
0200
0300
0001
0000
0000
0000
,  // measure 10
0001
0000
0000
0000
1000
0000
0000
1000
,  // measure 11
0000
0000
0010
1001
,  // measure 12
0000
1000
1000
1000
0010
0010
0000
0001
,  // measure 13
0110
0000
1000
0001
1001
0000
0100
0000
,  // measure 14
0110
0110
0000
0010
0000
0000
1000
1000
,  // measure 15
1000
1001
0000
0000
0010
0001
0000
0000
,  // measure 16
0110
0000
0000
0000
1000
0000
0000
0000
0000
0000
1001
0000
0100
0001
0000
1000
,  // measure 17
0010
0000
0000
0100
0010
0100
0001
0000
0001
1000
0000
0100
1000
0000
0010
0100
,  // measure 18
0010
0000
0010
0001
1000
0000
0000
1000
0010
0000
0100
0000
0010
0100
0001
0000
,  // measure 19
0000
0001
1000
0000
0100
0000
0100
0001
0010
0000
1000
0000
0001
0100
0001
0000
,  // measure 20
0010
0000
1010
0000
0100
0000
0001
0000
0010
0001
1000
0000
1100
0000
0010
0000
,  // measure 21
0100
0010
0100
0000
0001
0000
0010
1000
0001
0010
0001
0000
0100
0001
1000
0000
,  // measure 22
0010
0000
0010
0000
0100
1000
0010
0000
0001
0000
0100
0010
0100
0000
1000
0001
,  // measure 23
1000
0100
0000
0000
0010
0000
0100
0001
0100
0000
1000
0000
1001
0000
1001
0000
,  // measure 24
0010
0000
0001
0000
0100
0010
0100
0000
1000
0000
0010
0000
1010
0000
0100
0000
,  // measure 25
0010
0000
0110
0000
1000
0000
0001
0010
0101
0000
1000
0000
0100
0000
1100
0000
,  // measure 26
0010
0000
0001
0000
1000
0000
1001
0000
0010
0000
0100
0000
0010
0001
1010
0000
,  // measure 27
0001
0000
1000
0010
0100
0000
0110
0000
0001
0000
1000
0000
1001
0000
0010
0000
,  // measure 28
1000
0100
1000
0000
0010
0100
0010
0000
1100
0000
0001
0000
0100
0000
0011
0000
,  // measure 29
1000
0000
0001
0010
0001
0000
1000
0000
0100
0000
0010
1000
0010
0000
0001
0000
,  // measure 30
1000
0100
1000
0000
0100
0000
0100
0000
0010
0001
1000
0100
1000
0010
0100
0010
,  // measure 31
0100
0001
1000
0100
0010
0001
0100
2000
0100
0000
0010
0000
0010
0000
0001
0000
,  // measure 32
0100
0010
0100
0001
0001
0100
0010
0010
,  // measure 33
0001
0100
0100
0010
0001
0001
3100
0100
,  // measure 34
0010
0021
1000
0100
0032
0100
1000
0013
,  // measure 35
0200
0001
1000
1000
0010
0010
2300
0100
,  // measure 36
0001
0010
0001
0100
0010
0010
0001
0100
,  // measure 37
0010
0001
0001
0100
3100
0001
1000
1000
,  // measure 38
0010
0100
0001
1000
0010
0100
0010
0001
1000
0100
0001
0000
0110
0000
1000
0000
,  // measure 39
0010
1000
0001
0000
0100
0010
0100
0000
0010
0000
1000
0000
0101
1000
0010
0000
,  // measure 40
0001
0000
0100
0010
1000
0000
1000
0001
0010
0000
0100
0000
0010
0000
0001
0100
,  // measure 41
0001
0000
1000
0010
0100
0000
1000
0000
0020
1000
0001
0000
0100
0000
0100
0000
,  // measure 42
1032
1000
0103
0020
1000
1000
0100
1030
,  // measure 43
0201
0010
0001
1000
0010
1000
1000
0000
,  // measure 44
0301
0000
1000
0000
0001
0000
0100
0000
0010
0001
0010
0000
1000
0000
0100
0000
,  // measure 45
1000
0010
0001
0000
0001
0000
0100
0010
1000
0001
1000
0010
0100
0010
0001
0100
,  // measure 46
2000
0000
0000
3000
0000
0000
0000
0000
,  // measure 47
0000
0100
1000
0001
0010
0001
0100
0010
1000
0001
0100
0000
0100
0010
1001
0000
,  // measure 48
0000
0010
0001
0100
1000
1010
0001
0001
,  // measure 49
1000
0110
0001
0100
1000
0101
0001
1000
,  // measure 50
0100
1001
0100
0001
0010
1010
0100
0000
,  // measure 51
0000
1000
0000
0000
0000
0000
1001
0000
0010
0000
0001
0000
1000
0000
0100
0000
,  // measure 52
1000
0000
0010
0000
0010
0000
1100
0000
0010
0001
0000
0000
0001
1000
0100
0000
,  // measure 53
1000
0010
0000
0010
0100
0000
0100
0000
1001
0000
0100
0000
0010
1000
0000
0000
,  // measure 54
1000
0001
0000
0001
0100
0000
0100
0000
2000
0000
0000
0000
3000
0100
0000
0000
,  // measure 55
0000
0010
0000
0000
0010
0000
0000
0000
0000
0000
0000
0000
0000
0000
1000
0000
,  // measure 56
1000
0000
0010
0010
0000
0100
0100
0000
,  // measure 57
0010
1000
1000
0100
0100
0010
0010
0001
,  // measure 58
0001
0000
0010
0100
0010
1000
0100
1000
0010
0001
0010
0100
1000
0100
0010
0001
,  // measure 59
0010
1001
0000
0000
0110
0000
1010
0000
,  // measure 60
1100
0110
0101
0011
,  // measure 61
1001
1100
1010
0011
,  // measure 62
0101
0000
0000
0000
0110
0000
0000
0000
1010
0000
0000
0000
1100
0000
0000
0011
,  // measure 63
0000
0000
0010
0100
0010
0000
0000
0000
1001
0000
0000
0000
1100
0000
0000
0000
,  // measure 64
0101
1010
0011
0110
,  // measure 65
1010
0110
1100
1001
,  // measure 66
0011
0101
0110
1010
,  // measure 67
0100
0001
1000
0000
0010
0100
0010
0000
0100
0001
0000
0000
1010
0000
0000
0000
,  // measure 68
1001
1001
1010
1100
,  // measure 69
1010
0011
0101
0110
,  // measure 70
1010
0011
1100
1001
,  // measure 71
1100
0010
0010
0000
1001
0000
0011
0000
,  // measure 72
1001
0110
1100
1010
,  // measure 73
0011
0110
1001
1100
,  // measure 74
1010
0011
1100
1010
,  // measure 75
0000
0100
1000
0001
0010
0100
0010
0001
1000
0000
1000
0001
0110
0000
0000
0000
,  // measure 76
1010
0011
1100
1010
,  // measure 77
0011
1001
0110
1100
,  // measure 78
1010
0011
1001
0110
,  // measure 79
1010
0000
0011
0000
1000
1000
0110
0000
,  // measure 80
1001
0110
1100
0210
,  // measure 81
0001
0000
1000
0000
0310
0002
1000
0000
,  // measure 82
0010
0000
1000
0000
0103
2000
0010
0000
,  // measure 83
0100
0000
0000
0000
0020
0000
0000
0000
3232
M0M0
0000
0000
0000
0000
0000
0000
,  // measure 84
0303
0000
1000
0010
0100
0000
1000
0000
,  // measure 85
0001
0100
0001
0000
0010
1000
0100
0000
,  // measure 86
0010
0001
0100
0000
1000
0010
0100
0000
,  // measure 87
0020
0001
1000
0000
0100
0030
2000
0010
,  // measure 88
0001
0000
3100
0002
0000
0100
0000
0010
,  // measure 89
0100
0000
1000
0013
2000
0100
0000
0010
,  // measure 90
0100
0000
3000
0010
0100
0000
1000
0001
,  // measure 91
0010
0100
0010
0001
1000
0100
0000
1000
,  // measure 92
0010
0100
0000
0100
1000
0010
0000
0001
,  // measure 93
0001
0100
0100
0000
2001
0000
0010
0000
,  // measure 94
0001
0000
0100
0010
0000
0010
0001
0000
,  // measure 95
0001
0100
0010
0000
0010
0001
0000
0001
,  // measure 96
0100
0000
3100
0010
0000
0010
0001
1000
,  // measure 97
0000
0100
1000
0000
0020
0030
0020
0030
,  // measure 98
0020
1000
0100
0000
2030
0000
0001
0010
,  // measure 99
0100
0001
0000
0010
0100
3002
0000
1000
,  // measure 100
0010
0000
0100
0010
0000
0010
1000
0000
,  // measure 101
0100
1000
0000
0010
0100
0000
0100
1000
,  // measure 102
0000
1003
0000
0001
0100
1000
0000
1000
,  // measure 103
0000
0000
0000
0000
0000
0000
0100
0000
0000
0000
0000
0000
0000
0000
0000
0000
0100
0000
0000
0000
0000
0001
0000
0000
0000
0000
0000
1000
0000
0000
0100
0000
0000
0000
0000
0000
1000
0000
0000
0010
0000
0000
0000
0000
0000
0000
0000
0000
,  // measure 104
0101
0000
0000
0000
0000
0001
0000
0000
1100
0000
0000
0000
0000
0010
0000
0000
,  // measure 105
0000
0100
0000
0000
1010
0000
0000
0000
0000
0010
0000
1000
0000
0000
0110
0000
,  // measure 106
0000
0001
0000
0000
0000
0100
0000
0000
0011
0000
0000
0000
0000
0001
0000
0000
,  // measure 107
1010
0000
0000
0000
0000
0100
0000
0001
0000
0000
0000
0000
0110
0000
0000
0001
,  // measure 108
0000
1000
0000
0000
0000
0000
0011
0000
0000
0000
0000
0100
0000
0010
0000
0000
,  // measure 109
1001
0000
0000
0000
0000
0010
0000
0001
0000
0000
1100
0000
0000
0000
0000
0100
,  // measure 110
0000
0010
0000
0000
0000
0000
1001
0000
0000
0000
0000
0010
0000
0100
0000
0000
,  // measure 111
1001
0000
0000
0100
0000
0010
0000
0000
1100
0000
0000
0000
0000
0001
0000
1000
,  // measure 112
0000
0000
0000
0000
0110
0000
0000
0000
0000
0010
0000
0100
0000
0000
0000
0000
,  // measure 113
1001
0000
0100
0100
0000
0010
0010
0000
,  // measure 114
0000
1001
0000
1001
0000
0000
0000
0000
,  // measure 115
0000
0110
0000
1010
0000
0000
0000
0000
,  // measure 116
0101
0000
1010
0000
0000
0000
0000
0110
,  // measure 117
0000
1010
0000
0000
0001
1000
0000
0000
,  // measure 118
0110
0000
1010
0000
0000
0000
0000
0101
,  // measure 119
0000
1001
0000
0000
0000
0000
1100
0000
,  // measure 120
1010
0000
0000
0000
0000
0022
0033
2002
,  // measure 121
3003
0000
0000
0110
,  // measure 122
1000
0100
0010
0001
,  // measure 123
1000
0100
1000
0100
,  // measure 124
0100
0010
0001
0001
,  // measure 125
1000
0100
1000
0010
,  // measure 126
0100
0010
0001
1000
,  // measure 127
0100
1000
0001
0010
,  // measure 128
0010
0100
1000
0100
,  // measure 129
0010
0001
0010
0100
,  // measure 130
1000
0001
0001
0010
,  // measure 131
0100
1000
1000
1000
,  // measure 132
0001
0100
0010
0001
0100
1000
0010
0000
,  // measure 133
0100
0100
0001
1000
,  // measure 134
1000
0010
0010
1000
,  // measure 135
1000
0010
0100
0010
,  // measure 136
0001
1000
1000
0001
,  // measure 137
0010
0100
0100
0001
,  // measure 138
0001
0010
0100
0010
,  // measure 139
1000
1000
0100
0010
,  // measure 140
1000
0100
1000
0001
,  // measure 141
0001
0010
0100
0010
,  // measure 142
1000
1000
0001
0001
,  // measure 143
1000
0100
1000
0010
,  // measure 144
0010
0000
0100
0001
1000
0010
0100
0010
,  // measure 145
0001
0100
2002
0000
0000
0000
0000
0000
,  // measure 146
0000
0000
0000
0000
0000
0000
0000
3003
,  // measure 147
0010
0100
2002
0000
0000
0000
0000
0000
,  // measure 148
3003
0000
0000
0000
;
