#TITLE:Hyper Eurobeat;
#SUBTITLE:(Full Version);
#ARTIST:NAOKI feat. DDR ALL STARS;
#TITLETRANSLIT:;
#SUBTITLETRANSLIT:;
#ARTISTTRANSLIT:;
#GENRE:;
#CREDIT:;
#BANNER:Hyper Eurobeat (Full Version).png;
#BACKGROUND:Hyper Eurobeat (Full Version)-bg.png;
#LYRICSPATH:;
#CDTITLE:;
#MUSIC:Hyper Eurobeat (Full Version).mp3;
#OFFSET:0.000000;
#SAMPLESTART:25.657894;
#SAMPLELENGTH:18.157894;
#SELECTABLE:YES;
#BPMS:0.000000=152.000000
;
#STOPS:
;
#BGCHANGES:;
#KEYSOUNDS:;
#ATTACKS:;

//---------------dance-single - ----------------
#NOTES:
     dance-single:
     :
     Hard:
     12:
     0.522956,0.624820,0.385768,0.065663,0.088234,892.000000,798.000000,94.000000,16.000000,0.000000,0.000000,0.522956,0.624820,0.385768,0.065663,0.088234,892.000000,798.000000,94.000000,16.000000,0.000000,0.000000:
// measure 0
0000
0000
0000
0000
,  // measure 1
0000
0000
0000
0000
,  // measure 2
0000
0000
0000
0000
,  // measure 3
0000
0000
0000
0000
,  // measure 4
0000
0000
0000
0000
,  // measure 5
0000
0000
0000
0000
,  // measure 6
0000
0000
0000
0000
,  // measure 7
0000
0000
0000
0000
,  // measure 8
0000
0010
0010
0100
,  // measure 9
1000
1100
0001
0100
,  // measure 10
0010
1000
1001
0100
,  // measure 11
0100
0010
0001
0000
0001
0000
1000
0100
,  // measure 12
1000
0010
0100
0100
,  // measure 13
0011
1000
0100
1001
,  // measure 14
1000
0000
0010
0000
0011
0000
0100
1000
,  // measure 15
0100
0000
0010
0000
0001
0000
1000
0010
,  // measure 16
1000
0000
0001
0000
0010
0010
1000
0000
,  // measure 17
0000
0000
0001
0100
0100
0000
1001
0000
,  // measure 18
0010
0000
0110
0000
0001
0001
1100
0010
,  // measure 19
0000
1010
0011
0100
,  // measure 20
1010
0000
0001
0001
0010
0100
0000
0100
,  // measure 21
1000
0000
1000
0001
0010
0000
0010
0100
,  // measure 22
0001
1000
0000
1000
0000
0100
0001
0010
,  // measure 23
0001
0010
1000
1000
1000
0000
0001
0000
,  // measure 24
1001
0000
0100
0010
0100
0000
1010
0000
,  // measure 25
0000
0001
0100
0010
0100
0000
0110
0000
,  // measure 26
0001
0001
1000
0000
0010
0100
0001
1000
,  // measure 27
0000
1000
0010
0000
0110
0000
0001
0000
,  // measure 28
1010
0110
1000
0001
,  // measure 29
1000
0100
1000
0010
0010
0100
0000
0100
,  // measure 30
0001
0010
0001
1000
0000
1000
0020
0000
,  // measure 31
0000
1000
0100
0130
,  // measure 32
0000
0000
0001
0001
0010
0100
0010
1000
,  // measure 33
1000
0001
1000
0001
0010
0010
0100
0000
,  // measure 34
0001
0000
0001
0000
1000
0000
1100
0001
,  // measure 35
0010
0001
0100
0000
1010
0000
0100
0001
,  // measure 36
0010
0001
0100
0000
1100
0000
0001
0000
,  // measure 37
1000
0010
0100
0010
0001
0000
0011
0000
,  // measure 38
1000
0000
0100
0010
0100
0001
0001
1000
,  // measure 39
1000
0000
1001
0000
0000
0100
1000
0001
,  // measure 40
0000
0001
0100
0010
0100
0000
1010
0000
,  // measure 41
0000
0001
0001
0010
0100
0010
1001
0000
,  // measure 42
0000
0010
0010
0000
0100
0001
0001
1000
,  // measure 43
0010
0011
1000
1100
,  // measure 44
1010
0000
0100
0000
0010
1000
0000
1000
,  // measure 45
0001
0010
0001
0100
0100
0000
1001
0000
,  // measure 46
0100
0001
0000
0001
1000
0000
1000
0001
,  // measure 47
0010
0001
0100
0100
0000
0000
0110
0000
,  // measure 48
1010
0000
0010
1000
0001
0001
0100
0010
,  // measure 49
0100
0000
1001
0000
0010
0100
1000
1000
,  // measure 50
0001
0010
0001
0000
0110
0000
0100
0000
,  // measure 51
0010
0000
1010
0000
0110
0000
0001
0010
,  // measure 52
0110
0000
0000
0000
1000
0000
1000
0000
0001
0000
0001
0000
0010
0100
0010
0000
,  // measure 53
1000
0000
1000
0001
0000
0100
0010
0000
0010
0000
0100
0000
0100
0000
0000
0001
,  // measure 54
0000
0000
1000
0000
1000
0000
0010
0100
0010
0000
0000
0000
0001
0000
0001
0000
,  // measure 55
2000
0000
0000
0000
0000
0000
0000
0000
3000
0000
0000
0000
0001
0000
0001
0010
,  // measure 56
0001
0000
1000
1000
0010
0100
0100
0001
,  // measure 57
0010
0100
0010
0000
1000
0000
0000
0000
1000
0000
0001
0000
0001
0000
0010
0000
,  // measure 58
0100
0000
0010
0000
1000
0000
1000
0000
0010
0000
0001
0000
0001
0100
0000
0010
,  // measure 59
0000
0100
0200
0000
0000
0000
0300
0000
,  // measure 60
0000
0000
0001
0010
0001
0000
1001
0000
,  // measure 61
0100
0000
0010
0010
0100
0010
1100
0000
,  // measure 62
0110
0000
0001
0000
0010
0100
0000
0100
,  // measure 63
0001
0010
0001
0000
1010
0000
0110
0000
,  // measure 64
0001
0010
0000
0010
1000
0100
1000
0001
,  // measure 65
0000
0001
0000
0010
0110
0000
1100
0000
,  // measure 66
0010
0000
0010
1000
0100
1000
0001
0000
,  // measure 67
0001
0000
0100
0010
0100
0000
1001
0000
,  // measure 68
0000
0010
0010
0000
1000
0000
0001
0001
,  // measure 69
0100
0000
0010
0010
0100
0000
1001
0000
,  // measure 70
0100
0000
1000
0000
0000
0010
0100
0100
,  // measure 71
0001
0010
0001
0000
1100
0000
2000
0000
,  // measure 72
3000
0000
0100
0100
0001
0020
0000
0030
,  // measure 73
1000
0000
0010
0100
0001
0001
2000
0000
,  // measure 74
3001
0000
0010
0010
0100
0000
0010
0000
,  // measure 75
1010
0000
0110
0000
0000
0010
0100
0100
,  // measure 76
0001
0010
0001
0000
0010
1000
1010
0000
,  // measure 77
0000
0001
0010
0001
1000
1000
0011
0000
,  // measure 78
0000
0100
0100
0010
1000
0100
1000
0001
,  // measure 79
0000
0010
0100
0000
1000
1000
0000
0001
,  // measure 80
0001
0000
0100
0000
0010
0100
0000
0100
,  // measure 81
0001
0001
1000
0100
1000
0000
0110
0000
,  // measure 82
1000
0000
1000
0000
0100
1000
0001
0000
,  // measure 83
0001
0000
0100
0010
0100
0000
1001
0000
,  // measure 84
0011
0000
1000
0100
0000
0100
0010
0001
,  // measure 85
0010
0000
1100
0000
0000
0010
0010
0000
,  // measure 86
0001
1000
0001
1000
0002
0000
0003
0000
,  // measure 87
1000
1000
0010
0010
0100
0100
0001
0001
,  // measure 88
0100
0010
0100
0000
0010
0000
1010
0000
,  // measure 89
0000
0100
0100
0000
0011
0000
1010
0000
,  // measure 90
0000
0001
0100
0000
0100
0001
0010
0000
,  // measure 91
1000
0100
1000
0001
0001
0000
1010
0000
,  // measure 92
0110
0000
0001
0001
0100
1000
0000
1000
,  // measure 93
0001
0001
0100
0010
0100
0000
1001
0000
,  // measure 94
0000
0200
0000
0310
0000
0000
0100
0001
,  // measure 95
0000
0001
1000
0100
1000
0000
0011
0000
,  // measure 96
1100
0000
0010
0000
0100
0001
0000
0001
,  // measure 97
1000
0000
1001
0000
0010
0000
0100
1000
,  // measure 98
0000
1000
0001
0010
0001
0100
0000
0100
,  // measure 99
0010
0000
0010
1000
0100
1000
0001
0000
,  // measure 100
0011
0000
1000
0000
2000
0000
0000
3000
,  // measure 101
0001
0000
0001
0010
0000
0010
0100
0000
0100
1000
0000
1000
,  // measure 102
0001
0000
1000
0001
0000
0100
0000
0010
0100
0000
0000
0000
,  // measure 103
0001
0000
0001
1000
0000
1000
0000
0010
0000
0100
0000
0100
,  // measure 104
0010
0000
0010
0000
0000
0000
0100
0000
0100
0001
0000
0001
,  // measure 105
1000
0000
1000
0010
0000
0000
0100
0000
0000
0010
0000
0010
,  // measure 106
1000
0000
1000
0001
0000
0001
0010
0000
0100
0000
0100
0000
,  // measure 107
0010
0000
0000
0010
0100
0000
0100
0000
,  // measure 108
0001
0010
0001
0000
1100
0000
1100
0000
,  // measure 109
0000
0010
0100
0000
0010
0000
0110
0000
,  // measure 110
0001
0000
0010
0000
0001
0000
1000
0100
1000
0000
0010
0000
0010
0000
0100
0000
,  // measure 111
0100
0000
0001
0000
0010
0000
0000
0100
0010
0000
1000
0000
1000
0010
0100
0010
,  // measure 112
0000
0000
0000
0100
0000
0000
0000
0000
0000
0000
0000
0000
1001
0000
0000
0000
0000
0000
0000
0000
0000
0000
0000
0000
1000
0000
0000
0000
0000
0000
0000
0000
1000
0000
0000
0000
0001
0000
0000
0000
0000
0000
0000
0000
0000
0000
0000
0000
,  // measure 113
0001
0100
0000
0100
0010
0000
0010
0000
0000
1100
0000
0000
,  // measure 114
0010
0000
1000
0000
0100
0000
1000
0000
0001
0010
0001
0000
0100
0000
0000
0000
,  // measure 115
0100
0010
0000
0010
1000
0000
1000
0001
0000
0001
0100
0000
,  // measure 116
0100
0000
1001
0000
0010
1000
0000
1000
,  // measure 117
0001
0010
0001
0100
0000
0100
0010
0010
,  // measure 118
1000
0100
1000
0000
0001
0002
0000
0000
,  // measure 119
0003
1000
0001
0001
,  // measure 120
0100
0010
0100
0000
1010
0000
1100
0000
,  // measure 121
0001
0001
0010
0100
0010
0000
1001
0000
,  // measure 122
0000
0001
0100
0000
0100
0010
0010
1000
,  // measure 123
0100
1000
0001
0010
0001
0000
1010
0000
,  // measure 124
0110
0000
0010
0000
0001
1000
0100
0000
,  // measure 125
0100
0010
0001
0010
0001
0000
1100
0000
,  // measure 126
0001
0000
0100
1000
0000
0100
0010
0001
,  // measure 127
0000
0001
1000
0100
1000
0000
1010
0000
,  // measure 128
0100
0000
0100
1000
0000
1000
0001
0010
,  // measure 129
0001
0000
0110
0000
0001
0000
1000
0100
,  // measure 130
1000
0020
0030
0100
,  // measure 131
0110
0000
1010
0000
0100
0100
0010
0001
,  // measure 132
0010
0000
1001
0000
0000
0010
0001
0100
,  // measure 133
0100
0000
0110
0000
0000
0000
0010
0100
,  // measure 134
0100
0001
0010
0001
2000
0000
3000
0000
,  // measure 135
0010
1000
0001
0000
0001
0100
0010
0100
,  // measure 136
0100
0010
1010
0010
,  // measure 137
1001
0000
0100
0100
0010
0001
0010
0000
,  // measure 138
1000
0000
0100
0100
0010
0001
1000
0100
,  // measure 139
1000
0000
0010
0010
0001
0000
1100
0000
,  // measure 140
1010
0000
0001
0000
1000
0100
1000
0001
,  // measure 141
0001
0000
0010
0100
0010
0000
1001
0000
,  // measure 142
0100
0000
0001
0010
0100
0000
0100
1000
,  // measure 143
0001
0001
0100
0010
0100
0000
1001
0000
,  // measure 144
0100
0010
0000
0010
0100
0100
0001
0010
,  // measure 145
0001
0000
1100
0000
0001
0010
0001
0000
,  // measure 146
0010
0020
1030
1001
,  // measure 147
0000
0010
1000
0000
1000
0001
0001
0010
,  // measure 148
0100
0000
1001
0000
0000
0100
0100
0001
,  // measure 149
0010
0001
2200
0000
3300
0000
0001
0010
,  // measure 150
0001
0100
0100
0000
0020
0000
0130
0000
,  // measure 151
1000
0100
1000
0001
0011
0000
0100
0010
,  // measure 152
0110
1000
1001
0000
0000
0000
0000
0000
;
