#VERSION:0.83;
#TITLE:HYPER EUROBEAT;
#SUBTITLE:(2DX style);
#ARTIST:NAOKI feat. PAULA TERRY;
#TITLETRANSLIT:;
#SUBTITLETRANSLIT:;
#ARTISTTRANSLIT:;
#GENRE:EUROBEAT;
#ORIGIN:;
#CREDIT:PaperBox440;
#BANNER:HYPER EUROBEAT (2DX style).png;
#BACKGROUND:HYPER EUROBEAT (2DX style)-bg.png;
#PREVIEWVID:;
#JACKET:HYPER EUROBEAT (2DX style)-jacket.png;
#CDIMAGE:;
#DISCIMAGE:;
#LYRICSPATH:;
#CDTITLE:cdtitle.png;
#MUSIC:HYPER EUROBEAT (2DX style).mp3;
#OFFSET:0.000000;
#SAMPLESTART:88.026314;
#SAMPLELENGTH:13.026321;
#SELECTABLE:YES;
#BPMS:0.000=152.000;
#STOPS:;
#DELAYS:;
#WARPS:;
#TIMESIGNATURES:0.000=4=4;
#TICKCOUNTS:0.000=4;
#COMBOS:0.000=1;
#SPEEDS:0.000=1.000=0.000=0;
#SCROLLS:0.000=1.000;
#FAKES:;
#LABELS:0.000=Song Start;
#BGCHANGES:;
#KEYSOUNDS:;
#ATTACKS:
;

//---------------dance-single - ----------------
#NOTEDATA:;
#CHARTNAME:;
#STEPSTYPE:dance-single;
#DESCRIPTION:;
#CHARTSTYLE:;
#DIFFICULTY:Hard;
#METER:10;
#RADARVALUES:0.466239,0.601532,0.358005,0.074931,0.108234,392.000000,349.000000,43.000000,9.000000,0.000000,0.000000,0.000000,0.000000,0.000000,0.466239,0.601532,0.358005,0.074931,0.108234,392.000000,349.000000,43.000000,9.000000,0.000000,0.000000,0.000000,0.000000,0.000000;
#CREDIT:;
#NOTES:
0000
0000
0000
0000
,
0000
0000
0000
0000
,
0000
0000
0000
0000
,
0000
0000
0000
0000
,
0000
0000
0000
0000
,
0000
0000
0000
0000
,
0000
0000
0000
0000
,
0000
0000
0000
0000
,
1001
0000
0000
0000
0010
0100
0010
0000
,
0100
0000
0010
0000
1000
0001
1000
0000
,
0000
1000
0000
1000
0100
0000
0100
0010
,
0000
0010
0001
0000
1100
0000
0110
0000
,
0001
0000
0100
1000
0100
0000
0001
0000
,
0010
0000
0001
0010
0100
0000
0100
0000
,
1000
0010
1000
0000
0001
0000
0010
1000
,
0001
1000
2000
0000
,
3001
0000
0000
0100
0001
0000
0010
1000
,
0100
0001
0000
0100
0000
0010
0010
0000
,
1000
0000
0001
0010
0001
0000
1000
1000
,
0000
0100
0010
0100
0001
0001
0100
0000
,
0010
0001
0000
0001
0000
0100
1000
0000
,
1100
0000
0001
0000
0100
0010
0100
0000
,
1001
0000
0010
0000
0001
0100
0010
0100
,
0000
0000
0110
0000
1001
0000
0000
0010
,
0100
0010
0000
1000
0000
0000
1010
1010
,
0000
0001
0100
0010
0100
0000
0011
0011
,
0000
0000
0010
0000
0010
0000
1000
0100
,
1000
0001
0001
0100
0010
0100
1000
0000
,
1010
0000
0110
0000
0001
1000
0100
1000
,
0001
0001
0100
0010
0100
0000
1001
0000
,
0010
0000
1000
0100
1000
0000
0020
0000
,
0030
0000
0100
1000
0100
0001
0000
1000
,
1100
0000
0000
0001
0000
0010
0100
0000
,
0100
0000
0010
0000
1001
0000
0100
0001
,
0000
0001
1000
0100
1000
0000
0100
0010
,
0110
0000
1000
0001
1001
0100
0000
0010
,
1000
0000
1001
0000
0010
0000
0010
0000
1000
0100
1000
0000
0000
0010
0000
0010
,
0001
0000
0001
0000
1000
0100
1000
0000
0000
0000
0010
0100
0010
0000
1000
0000
,
0010
0000
0010
0000
1000
0100
1000
0000
0001
0000
0010
0000
0001
0000
0100
0000
,
2000
0000
0000
3000
,
0100
0000
0100
0000
0100
0000
0000
0010
0100
0010
0000
0001
0000
0000
0010
0001
,
1000
0000
0100
0000
0100
0000
0010
0000
0001
0010
0001
0000
1000
0000
1000
0000
,
0010
0000
0100
0000
0000
0100
1000
0000
0001
0010
0000
0000
0100
0000
0000
0000
,
1000
0100
0000
0000
0001
0000
0000
0010
0200
0000
0000
0000
0000
0000
1300
0000
,
0000
1000
0100
0000
0110
0000
0001
1001
,
0000
0010
0000
0010
0001
0100
1100
0000
,
0001
0000
0000
0001
0000
0010
0000
0000
0010
0100
0000
0000
0100
1000
0000
0000
,
1000
0001
0010
0001
0100
0100
0010
0000
,
0110
0000
0000
1000
0001
0010
0001
0000
,
1000
0010
0100
0000
1000
0000
1001
0000
,
0001
0000
0000
0001
0010
0000
0000
0010
0100
0000
0000
0100
1000
0000
0000
1000
,
0010
0000
0000
0010
0100
0000
0000
0100
0001
0000
0000
0000
0010
0000
0100
0000
,
0110
0000
1000
0000
1001
0000
0100
0010
,
0001
1000
0100
1000
0000
0010
0100
0000
,
0001
0010
0001
0000
1000
0000
0100
0000
1000
0000
0000
0000
0200
0000
0000
0000
,
0000
0000
0300
0001
0001
0000
0010
0100
,
0010
0000
2002
0000
3003
0000
1100
1001
,
0000
0000
0010
0110
0000
0001
0000
1100
,
1010
0000
0000
0000
0100
0010
0000
0010
,
0100
1000
1000
0001
0010
0001
0000
0000
,
1010
0000
0110
0000
0000
1000
0001
0000
,
0001
0000
0100
0010
0100
0000
1001
0000
,
0000
0000
0001
0000
0100
0010
0000
0010
,
0001
0001
1000
0100
1000
0000
0110
0000
,
0000
0000
0000
0000
1000
1000
0001
0010
,
0001
1000
0100
0000
0110
0000
1000
0001
,
0000
0020
0130
0002
,
1003
0000
0100
0100
1000
0001
0001
0000
,
0100
0010
0100
0000
1001
0000
0000
0100
,
0000
0010
0100
0000
1001
0000
0000
0100
,
0001
0100
0000
0010
0000
0010
1000
0000
,
1000
0100
0000
0000
0011
0000
0110
0000
,
1100
1001
0000
0000
;

//---------------dance-single - ----------------
#NOTEDATA:;
#CHARTNAME:;
#STEPSTYPE:dance-single;
#DESCRIPTION:;
#CHARTSTYLE:;
#DIFFICULTY:Medium;
#METER:6;
#RADARVALUES:0.356816,0.421072,0.299725,0.016651,0.000000,300.000000,264.000000,36.000000,2.000000,0.000000,0.000000,0.000000,0.000000,0.000000,0.356816,0.421072,0.299725,0.016651,0.000000,300.000000,264.000000,36.000000,2.000000,0.000000,0.000000,0.000000,0.000000,0.000000;
#CREDIT:;
#NOTES:
0000
0000
0000
0000
,
0000
0000
0000
0000
,
0000
0000
0000
0000
,
0000
0000
0000
0000
,
0000
0000
0000
0000
,
0000
0000
0000
0000
,
0000
0000
0000
0000
,
0000
0000
0000
0000
,
1001
0000
0001
0001
,
0010
0100
0010
0000
1000
0001
1000
0000
,
0000
0100
0001
0010
,
0001
0000
1000
0100
0000
0010
0100
0000
,
0010
0000
0100
0001
,
1000
0000
0100
0000
0010
0001
0000
0000
,
1001
0000
0000
0000
0001
1000
0001
0000
,
0100
0000
0010
1001
,
0000
0000
0100
0100
0000
0000
0010
0010
,
0000
0000
1000
1000
0000
0100
0100
0000
,
1001
0000
0000
0000
1000
0001
1000
0001
,
0000
0100
0000
0000
1001
0000
1000
0000
,
0000
0000
0001
1000
0001
0000
0110
0000
,
0000
0000
0010
0010
0001
0000
1100
0000
,
0000
0000
0000
0000
0001
0010
0001
0000
,
0100
0000
1100
0000
1001
0000
0000
0100
,
1000
0000
0000
0100
0010
0000
0000
1000
,
1010
0000
0100
0000
0100
0000
0000
0001
,
1001
0000
0000
0010
0000
1000
0001
0000
,
0001
0000
0100
0000
0100
0010
0000
0000
,
1001
0110
0001
0100
,
0001
1000
0001
0000
0100
0000
1001
0000
,
0010
0000
0010
0000
0000
1000
0000
1000
,
0001
0000
0001
0100
0100
0000
0010
0000
,
1001
0000
0010
0000
0100
0001
0000
0001
,
1000
1000
0110
0000
,
0100
0100
0001
0001
,
0000
1000
0000
1000
0000
0000
0010
0000
,
1100
0000
1001
0000
0010
0100
0000
0100
,
0001
0001
1000
1000
0000
0000
0100
0010
,
0100
0001
0001
0000
1000
1000
0100
0000
,
0020
0000
0000
0000
0000
0000
0030
1000
,
1000
0000
0001
0000
0001
0100
0000
0100
,
0000
0001
0010
0001
1000
1000
0000
0000
,
0010
0100
0000
0010
0001
0000
0100
1000
,
0000
0010
0001
0000
2000
0000
0000
0000
,
3010
0000
0001
0000
0010
0100
0000
0110
,
0000
0000
0001
0000
0100
1000
0000
0000
,
1001
0000
0010
0000
0010
0100
0000
0100
,
1000
0000
1000
0100
0000
0100
0001
0000
,
0001
0000
0000
0010
0000
1000
1000
0000
,
0001
0000
0001
0000
0100
0010
0100
0000
,
0001
0000
0001
1000
0000
1000
0010
0000
,
0010
0100
0000
0100
0001
0000
0001
0000
,
1000
1000
0000
0000
0110
0000
1000
0000
,
0001
0000
0010
0000
0010
0100
0000
1000
,
0000
0010
0001
0000
0001
0000
0100
0000
,
1000
0001
1000
0000
,
0100
0010
0100
0001
0000
0000
1000
0000
,
1001
0010
0100
0011
,
1001
0000
0000
0100
1000
0000
0010
0000
,
0100
0000
0001
0000
0000
0001
0000
0000
,
1010
0000
0110
0000
0000
0001
1000
0000
,
0001
0000
0001
0000
0100
0010
0100
0000
,
1001
0000
0000
0010
0000
0100
1000
0000
,
0001
0000
0001
0000
0010
0100
0000
0000
,
1001
0000
0000
0010
0000
0001
0000
0000
,
0100
1000
0000
0000
0110
0000
0000
0001
,
0000
0100
0000
0000
1001
0000
0010
0000
,
1001
0000
0000
0100
1000
0000
0001
0100
,
0000
0100
0000
0000
1001
0000
0000
0010
,
0001
0000
0100
0000
0110
0000
0000
0100
,
0000
0000
0100
0000
0000
0001
0000
0000
,
1000
0000
0010
0110
,
1100
1001
0000
0000
;

//---------------dance-single - ----------------
#NOTEDATA:;
#CHARTNAME:;
#STEPSTYPE:dance-single;
#DESCRIPTION:;
#CHARTSTYLE:;
#DIFFICULTY:Easy;
#METER:3;
#RADARVALUES:0.261665,0.300766,0.274748,0.016651,0.000000,220.000000,187.000000,33.000000,2.000000,0.000000,0.000000,0.000000,0.000000,0.000000,0.261665,0.300766,0.274748,0.016651,0.000000,220.000000,187.000000,33.000000,2.000000,0.000000,0.000000,0.000000,0.000000,0.000000;
#CREDIT:;
#NOTES:
0000
0000
0000
0000
,
0000
0000
0000
0000
,
0000
0000
0000
0000
,
0000
0000
0000
0000
,
0000
0000
0000
0000
,
0000
0000
0000
0000
,
0000
0000
0000
0000
,
0000
0000
0000
0000
,
1001
0000
0001
0001
,
0000
1000
0100
1000
,
0000
0000
0010
0010
,
0000
0000
0100
0010
,
0110
0000
0001
0000
,
0001
0000
1000
0100
,
1000
0000
1000
0000
,
0001
0001
0100
0100
,
0000
1001
0010
0010
,
0001
1000
1000
0100
,
0000
0000
0000
0010
,
0010
0100
1000
0000
,
1001
0000
0100
0000
,
1001
0000
0010
0000
,
1001
0000
0010
0010
,
0000
0100
0110
0000
,
1000
0100
1001
0010
,
0000
0100
0100
0010
,
1001
0000
0000
0100
,
1000
0001
0001
0000
,
0110
1001
0000
0001
,
0010
0001
0100
0100
,
0000
0000
0010
0010
,
1000
0100
1000
0010
,
1001
0000
0100
0000
,
1000
0000
0110
0000
,
0000
0010
0100
0000
,
0010
0001
0000
1000
,
1000
1001
0010
0010
,
0100
0100
0001
0001
,
1000
1000
0010
0010
,
0200
0000
0000
0300
,
0010
0010
0001
1000
,
0001
0100
0010
0100
,
0001
0001
1000
1000
,
0010
0200
0000
0300
,
0010
0110
0001
1001
,
0000
1000
0010
0100
,
0000
0001
0001
0010
,
1000
1000
0100
0010
,
0010
0000
0100
0100
,
0000
0010
0100
1001
,
0000
0010
0010
1000
,
0001
0001
0100
0010
,
0010
0000
1001
0000
,
1000
0000
0010
0010
,
0000
0100
0000
0110
,
0000
0000
0000
0001
,
0001
0000
0100
1001
,
0000
0010
0010
0000
,
1001
0000
0010
1000
,
0001
0100
0100
0000
,
1001
0110
0000
0010
,
0001
1000
1000
0110
,
0000
0100
0001
1000
,
0001
0100
0100
1001
,
0000
0010
0100
0001
,
1000
1000
0110
0000
,
0001
0010
1001
0000
,
0110
0000
0000
0100
,
0100
0001
1001
0000
,
0010
0100
0110
0000
,
0010
0000
0100
0001
,
0001
0000
1000
1001
,
0110
1001
0000
0000
;

//---------------dance-single - ----------------
#NOTEDATA:;
#CHARTNAME:;
#STEPSTYPE:dance-single;
#DESCRIPTION:;
#CHARTSTYLE:;
#DIFFICULTY:Beginner;
#METER:1;
#RADARVALUES:0.179597,0.270689,0.133211,0.016651,0.000000,151.000000,135.000000,16.000000,2.000000,0.000000,0.000000,0.000000,0.000000,0.000000,0.179597,0.270689,0.133211,0.016651,0.000000,151.000000,135.000000,16.000000,2.000000,0.000000,0.000000,0.000000,0.000000,0.000000;
#CREDIT:;
#NOTES:
// measure 0
0000
0000
0000
0000
,  // measure 1
0000
0000
0000
0000
,  // measure 2
0000
0000
0000
0000
,  // measure 3
0000
0000
0000
0000
,  // measure 4
0000
0000
0000
0000
,  // measure 5
0000
0000
0000
0000
,  // measure 6
0000
0000
0000
0000
,  // measure 7
0000
0000
0000
0000
,  // measure 8
1000
0000
0010
0000
,  // measure 9
0010
0000
0000
0100
,  // measure 10
0000
0000
0100
0000
,  // measure 11
0000
1000
0000
0001
,  // measure 12
0000
0010
0000
0100
,  // measure 13
0000
0000
1000
0000
,  // measure 14
0110
0000
0001
0000
,  // measure 15
0001
0000
0100
0000
,  // measure 16
1001
0000
0010
0010
,  // measure 17
0000
0000
1000
1000
,  // measure 18
0000
0000
0010
0000
,  // measure 19
0000
0010
0000
0100
,  // measure 20
1001
0000
0100
1001
,  // measure 21
0000
0000
0010
1001
,  // measure 22
0000
0000
0010
0000
,  // measure 23
0100
0000
0110
0000
,  // measure 24
0001
0000
1000
0000
,  // measure 25
1000
0000
0000
0000
,  // measure 26
0010
0000
0100
0100
,  // measure 27
0000
0000
0100
0000
,  // measure 28
1000
1001
0000
0100
,  // measure 29
0000
0001
0000
1001
,  // measure 30
0000
0100
0000
0010
,  // measure 31
0000
0000
0010
0000
,  // measure 32
0100
0000
0001
0000
,  // measure 33
1000
0000
1000
0000
,  // measure 34
0100
0000
0100
0000
,  // measure 35
0001
0000
0001
0000
,  // measure 36
0100
0110
0000
0100
,  // measure 37
0100
0000
0001
0001
,  // measure 38
0100
1000
1000
0000
,  // measure 39
0020
0000
0000
0000
,  // measure 40
0030
0000
0100
0100
,  // measure 41
1001
0001
0000
0100
,  // measure 42
0100
1000
0010
0010
,  // measure 43
0000
0002
0000
0003
,  // measure 44
1000
1000
0000
0100
,  // measure 45
0110
0000
0001
0100
,  // measure 46
1001
0000
0000
0000
,  // measure 47
0000
0000
0000
0000
,  // measure 48
0000
0000
0010
0010
,  // measure 49
0000
1000
0100
0001
,  // measure 50
0000
0000
0000
0000
,  // measure 51
0000
0000
0000
0100
,  // measure 52
0100
0000
0010
0000
,  // measure 53
0100
0000
0100
0001
,  // measure 54
0001
1000
0000
1000
,  // measure 55
0001
0000
0000
0100
,  // measure 56
0100
0000
0010
0000
,  // measure 57
1001
0000
0010
0010
,  // measure 58
1000
0000
0001
0001
,  // measure 59
1000
1000
0000
0000
,  // measure 60
0100
0110
0000
0001
,  // measure 61
0000
1000
0001
0001
,  // measure 62
0100
0000
0001
0000
,  // measure 63
0100
0010
0000
0001
,  // measure 64
1000
0000
0100
0100
,  // measure 65
0000
0010
0000
0001
,  // measure 66
1000
0001
0000
0000
,  // measure 67
0010
0000
0000
0100
,  // measure 68
0000
0100
0000
0000
,  // measure 69
0001
0000
1001
0000
,  // measure 70
0000
0001
0000
0100
,  // measure 71
0000
0100
0000
0001
,  // measure 72
1000
1001
0000
0000
;
