#TITLE:HYEEEEEEEEEEEEEEEEEEEEEEEEEEEEEEENA;
#SUBTITLE:;
#ARTIST:HOMMARJU;
#TITLETRANSLIT:;
#SUBTITLETRANSLIT:;
#ARTISTTRANSLIT:;
#GENRE:;
#CREDIT:PaperBox440;
#BANNER:HYEEEEEEEEEEEEEEEEEEEEEEEEEEEEEEENA.png;
#BACKGROUND:HYEEEEEEEEEEEEEEEEEEEEEEEEEEEEEEENA-bg.png;
#LYRICSPATH:;
#CDTITLE:;
#MUSIC:HYEEEEEEEEEEEEEEEEEEEEEEEEEEEEEEENA.ogg;
#OFFSET:0.000000;
#SAMPLESTART:173.426971;
#SAMPLELENGTH:10.955048;
#SELECTABLE:YES;
#BPMS:0.000000=178.000000
;
#STOPS:
;
#BGCHANGES:;
#KEYSOUNDS:;
#ATTACKS:;

//---------------dance-single - ----------------
#NOTES:
     dance-single:
     :
     Hard:
     19:
     0.828040,1.476874,0.488475,2.516519,0.865735,1329.000000,1214.000000,112.000000,577.000000,118.000000,9.000000,0.828040,1.476874,0.488475,2.516519,0.865735,1329.000000,1214.000000,112.000000,577.000000,118.000000,9.000000:
// measure 0
0000
0000
0000
0000
,  // measure 1
0000
0000
0000
0000
,  // measure 2
0000
0000
0000
0000
,  // measure 3
0000
0000
1001
0000
,  // measure 4
0000
0000
0000
0000
0000
0000
0002
0000
0023
0030
0200
0320
2030
3000
2000
3002
,  // measure 5
0003
2000
3000
0000
0010
0000
0000
0010
0000
0100
0000
0001
0000
1000
1000
0000
,  // measure 6
0001
0010
0100
0020
0030
1000
0000
0001
0100
0020
0000
0030
0100
0000
0001
0000
,  // measure 7
1000
1000
0000
1002
0003
0000
0001
0000
0010
0100
0000
0000
0100
0000
0010
1000
,  // measure 8
0001
0000
0000
0002
0003
0000
0100
0010
0100
1000
0000
0000
1001
0000
0000
0000
,  // measure 9
0000
0000
0000
0000
,  // measure 10
0000
0000
0000
0000
,  // measure 11
0000
0000
0000
0000
,  // measure 12
0000
0000
0000
0000
,  // measure 13
0000
0000
0000
0000
,  // measure 14
0000
0000
0000
0000
,  // measure 15
0000
0000
0000
0002
0000
0000
0000
2000
,  // measure 16
0003
0000
0000
0000
0000
0000
0000
0000
0002
0003
0002
0003
3002
0003
0000
0000
,  // measure 17
0010
0220
0330
0002
0000
0000
0003
2000
,  // measure 18
0000
0000
3000
0002
0000
0000
1003
1000
,  // measure 19
1000
1001
0000
0020
0000
0000
0000
0230
,  // measure 20
0000
0000
0300
0002
0000
0000
0003
2000
,  // measure 21
0000
0000
3000
0020
0000
0000
0030
0200
,  // measure 22
0000
0000
0000
0000
0300
0000
0002
0000
1003
0000
1000
0000
1000
0010
0100
0010
,  // measure 23
0200
0000
0002
0300
0003
0000
2200
0000
0000
0000
0000
0000
3300
0000
0022
0000
,  // measure 24
0000
0000
0033
0220
0000
0000
0330
2200
,  // measure 25
0000
0000
3300
2020
0000
0000
3030
2002
,  // measure 26
0000
0000
3003
0002
0000
0000
0013
2000
,  // measure 27
0000
3001
0001
1001
0000
0110
0000
1010
,  // measure 28
0000
0000
2000
3000
0020
0030
2000
3000
0020
0030
2000
3000
0020
0030
2000
3000
,  // measure 29
0020
0030
2000
3000
0020
0030
2000
3000
0020
0030
2000
3000
0020
0030
2000
3000
,  // measure 30
0020
0030
2000
3000
0020
0030
2000
3000
0020
0030
2000
3000
0020
0030
0000
0002
,  // measure 31
0023
0230
0300
0000
1000
0000
1001
0000
0110
0000
0110
0000
0000
0000
0000
0000
,  // measure 32
0000
1001
1001
1001
1001
1001
1001
1001
,  // measure 33
1001
0000
1001
0000
1001
0000
0020
0030
0200
0300
0020
0030
0200
0300
0020
0030
,  // measure 34
0200
0300
0020
0030
0200
0300
0020
0030
0200
0300
0020
0030
0200
0000
0000
0000
,  // measure 35
0301
0001
1001
0000
0110
0002
1003
0000
,  // measure 36
0020
0032
0203
0300
0020
0032
0203
0300
0020
0032
0203
0300
0020
0032
0203
0300
,  // measure 37
0020
0032
0203
0300
0020
0032
0203
0300
0020
0032
0203
0300
0020
0032
0203
0300
,  // measure 38
0020
0032
0203
0300
0020
0032
0203
0300
0020
0032
0203
0300
0002
0000
2003
0000
,  // measure 39
3010
0010
0110
0000
0001
1001
0001
0100
,  // measure 40
0010
0000
1000
0000
0000
0000
2000
3000
0002
0003
2000
3000
0002
0003
2000
3000
,  // measure 41
0002
0003
2000
3000
0002
0003
2000
3020
0032
0003
2000
3020
0032
0003
2000
3020
,  // measure 42
0032
0003
2000
3020
0032
0003
2000
3020
0032
0003
2000
3020
0032
0003
2000
3020
,  // measure 43
0030
0200
0300
0022
0000
0033
MMMM
2200
,  // measure 44
0000
3300
MMMM
0022
0000
0033
MMMM
0220
,  // measure 45
0000
0330
MMMM
2200
0000
3300
MMMM
0022
,  // measure 46
0000
0033
MMMM
2000
0002
3000
0013
0000
,  // measure 47
0010
0100
0010
0100
0010
0100
0010
0000
1001
0000
0000
0000
0002
0000
0000
0000
,  // measure 48
0003
0000
0000
0000
2000
0020
3032
0003
2000
3020
0032
0003
2000
3020
0032
0003
,  // measure 49
2000
3020
0032
0003
2000
3020
0032
0003
2000
3020
0032
0003
2000
3020
0032
0003
,  // measure 50
2000
3020
0032
0003
2000
3020
0032
0003
2000
3020
0032
0003
0000
0000
0200
0000
,  // measure 51
0000
0310
0000
0000
2000
3001
0000
0000
,  // measure 52
0000
0000
0110
0000
0110
0000
2000
3200
0302
0003
2000
3200
0302
0003
2000
3200
,  // measure 53
0302
0003
2000
3200
0302
0003
2000
3200
0302
0003
2000
3200
0302
0003
2000
3200
,  // measure 54
0302
0003
2000
3200
0302
0003
2000
3200
0302
0003
2000
3200
0302
0003
2000
3200
,  // measure 55
0302
0003
2000
3200
0302
0003
2000
3200
0302
0003
2000
3000
0000
0000
0020
0000
,  // measure 56
0000
0130
0000
0000
2000
3001
0000
0110
,  // measure 57
0000
0000
0002
0003
2000
3000
0002
0003
2000
3000
0002
0003
2000
3000
0002
0003
,  // measure 58
2000
3000
0002
0003
2000
3000
0002
0003
2000
3000
0002
0003
2000
3000
0000
0000
,  // measure 59
0020
0000
0130
0000
0000
2000
3001
0000
,  // measure 60
0000
0000
0110
0000
0110
0000
0000
0000
2000
3200
0302
0003
2000
3200
0302
0003
,  // measure 61
2000
3200
0302
0003
2000
3200
0302
0003
2000
3200
0302
0003
2000
3200
0302
0003
,  // measure 62
2000
3200
0302
0003
2000
3200
0302
0003
2000
3200
0302
0003
2000
3200
0302
0003
,  // measure 63
2000
0000
0000
0000
3000
0000
0000
0001
0010
0100
0000
1000
0001
1000
0001
0010
,  // measure 64
0100
1000
0000
1000
0100
0010
0001
0000
0001
0010
0100
0000
1000
0000
0100
0000
,  // measure 65
0110
0000
0001
0000
1000
0000
0000
0000
1001
0000
0000
0000
1000
0001
0010
0100
,  // measure 66
0001
1000
0010
0100
0001
1000
0010
0001
1000
0100
0010
0000
0100
0001
0000
0000
,  // measure 67
1000
0000
0001
0000
0100
0000
0010
0000
0110
0000
0000
0001
0000
0001
1000
0001
,  // measure 68
0000
0001
0100
0001
0000
0001
0010
0001
0000
0001
1000
0001
0000
0001
0000
0000
,  // measure 69
0000
0000
1001
0000
0000
0000
0001
0010
0100
1001
0010
0100
1001
0010
0100
1001
,  // measure 70
0010
0100
1001
0010
0100
1001
0010
0100
1001
0010
0100
1001
0010
0100
0001
1000
,  // measure 71
0010
0100
1001
0010
0100
1001
0010
0100
1000
0001
0010
0100
1000
0001
0010
0100
,  // measure 72
1000
0001
0010
0100
1000
0001
0010
0000
1000
0000
0001
0010
0001
0000
1000
0100
,  // measure 73
1000
0000
0010
0001
0010
0000
0100
1000
0100
0000
0001
0010
0001
0000
0100
0000
,  // measure 74
0010
0100
1000
0002
0000
0000
0000
0000
,  // measure 75
1000
0000
1000
0000
1003
0000
0000
0000
0000
0000
0000
0000
0010
0001
1000
0001
,  // measure 76
1000
0000
0000
0000
0010
0010
0000
0000
1001
0000
0000
0000
0010
0100
0010
0000
,  // measure 77
0000
0000
0010
0100
0010
0000
0000
0000
0010
0100
0010
0000
0001
0000
1000
0000
,  // measure 78
1001
0000
0000
0000
0100
0000
0000
0000
1001
0000
0000
0010
0100
0010
0000
0000
,  // measure 79
0100
0010
0100
0000
0000
0010
0100
0010
0000
0000
0010
0100
0010
0000
0001
0000
,  // measure 80
2000
0000
3001
0000
1001
0000
0000
0002
,  // measure 81
0003
0000
0010
0000
1000
0000
0000
0000
100M
00M0
1M00
000M
10M0
0M00
100M
00M0
,  // measure 82
1M00
000M
10M0
0M00
100M
00M0
1M00
000M
10M0
0M00
100M
00M0
1M00
0000
0010
0000
,  // measure 83
0000
0000
0110
0000
0110
0000
0001
M000
00M1
0M00
M001
0MM0
0001
M0M0
0M01
0000
,  // measure 84
M0M1
0000
0000
0M00
0000
0000
0001
0000
0000
M0M0
0000
0000
0M01
0000
0000
0000
0000
0000
M0M1
0000
0000
0M00
0000
0000
0000
0000
0000
0000
0010
0000
0000
0000
0001
0000
0000
0000
1000
0000
0000
0000
0010
0000
0000
0000
0001
0000
0000
0000
,  // measure 85
1000
0000
0000
0000
0010
0000
0000
0000
0001
0000
0000
0000
1000
0000
0000
0000
0000
0000
0000
0000
0000
0000
0000
0000
1001
0000
0000
0000
0000
0000
0000
0000
0000
0010
0000
0000
0100
0000
0000
0010
0000
0000
0000
0000
0000
0000
0000
0000
,  // measure 86
0110
0000
0000
0001
1000
0001
0000
0000
0001
0010
0100
0000
0010
1000
0000
0000
,  // measure 87
1000
0010
0100
0010
0001
0000
0000
0001
0100
0010
0100
1000
0000
0000
1000
0001
,  // measure 88
0010
0001
1000
0000
1000
0010
0000
0100
0010
0000
0001
0000
1000
0100
1000
0000
,  // measure 89
0001
0010
0000
0100
0010
0000
0001
0000
1000
0000
0010
0100
0001
0100
0010
0001
,  // measure 90
0100
0010
0001
0100
0010
0001
0100
0010
0001
0100
0010
0001
0000
0010
0100
0000
,  // measure 91
1000
0010
0100
0001
1000
0010
0100
0001
0010
1000
0001
0100
0010
1000
0001
0100
,  // measure 92
0000
1010
0100
0000
0001
1000
0010
0000
0100
0001
1000
0010
0100
0001
1000
0010
,  // measure 93
1000
0100
0001
0100
0010
1000
0000
0000
1001
0000
0100
0000
0100
0010
1000
0001
,  // measure 94
1000
0001
0000
0000
0100
0000
0010
0000
0100
0000
0000
0000
1000
0000
0000
0000
,  // measure 95
1001
0000
0000
0010
0100
0010
0000
1001
0000
0000
0110
0000
0000
1100
0000
0000
,  // measure 96
1001
0000
0000
1000
0001
1000
0000
0010
0000
0100
0000
0000
0110
0000
0000
0000
,  // measure 97
0001
1010
0110
1001
,  // measure 98
1001
0000
1001
0000
0000
0100
0100
0001
0000
0001
0000
0100
0010
0100
0000
0010
,  // measure 99
0000
1000
0000
0001
0010
0001
1000
0000
0000
0010
0100
0000
0010
0001
0000
0000
,  // measure 100
0220
0000
0330
MMMM
2002
0000
3003
MMMM
,  // measure 101
2220
0000
0000
0000
3330
0000
MMMM
0000
2222
0000
0000
0000
3333
0000
0000
0001
,  // measure 102
1000
0001
0000
0000
0010
0100
0000
0000
0110
0000
0000
0000
0012
0000
0100
0000
,  // measure 103
1000
0000
0100
0000
0013
0000
0100
0000
2000
0100
0010
0000
0001
0100
0010
0000
,  // measure 104
0001
0100
0010
0000
3001
0100
0000
0000
0020
1000
0100
0000
1000
0100
0000
1000
,  // measure 105
0100
0000
1000
0000
0130
0000
0000
0000
0201
0000
0010
0000
0001
0000
0010
0001
,  // measure 106
0000
0001
0310
0000
0000
0000
1001
0000
0000
0000
0120
0000
1000
0100
0000
1000
,  // measure 107
0100
0000
1000
0000
0100
0000
0030
0000
2000
0001
0010
0100
0000
0010
0000
0000
,  // measure 108
3001
0001
0000
0110
1002
0100
0010
0100
,  // measure 109
1000
0100
0013
0000
2001
0010
0100
0010
,  // measure 110
3001
0000
0000
0000
0110
0000
0000
0000
1001
0000
0020
0030
0200
0320
0032
0003
,  // measure 111
2000
3020
0230
0300
0002
0023
0030
0200
0300
0020
0030
0000
0200
0300
0020
2030
,  // measure 112
3000
0000
0000
0000
1001
0000
0000
0002
2003
3020
0230
0302
2003
3020
0230
0302
,  // measure 113
2003
3020
0230
0302
2003
3000
0000
0000
1001
0000
0000
0000
0000
0000
0000
0000
,  // measure 114
0002
2003
3020
0230
0302
2003
3020
0230
0302
2003
3020
0230
0302
2003
3020
0230
,  // measure 115
0302
2003
3020
0230
0300
0000
2000
0000
0000
0000
3001
0000
0000
0000
0010
0100
,  // measure 116
0001
0000
0010
0100
0001
0000
0010
0100
0001
0000
0010
0100
0001
0000
0010
0100
,  // measure 117
0001
0000
0000
2000
3002
0203
0320
2030
3002
0203
0320
2030
3002
0203
0320
2030
,  // measure 118
3002
0203
0320
2030
3002
0203
0320
2030
3002
0203
0320
2030
3002
0203
0320
2030
,  // measure 119
3002
2003
3020
0230
0302
0003
0000
0000
1000
0000
0000
0000
1000
0001
1000
0001
,  // measure 120
1000
0001
1000
0001
0000
2000
3020
0230
0302
0203
0320
0030
0100
0000
0010
2000
,  // measure 121
3002
0203
0320
0230
0302
2003
3020
0032
0203
0320
0030
2200
3302
0023
0032
0203
,  // measure 122
0300
0020
2030
3002
0203
0320
0230
0300
2000
3020
0032
0223
2330
3202
0303
0020
,  // measure 123
0232
2303
3020
0230
0302
0203
0320
2030
3001
0000
0001
0000
0001
0000
0001
0000
,  // measure 124
1MMM
0MM0
100M
00M0
1MMM
000M
1MM0
0MM0
100M
0MM0
100M
0MM0
100M
00M0
1M00
000M
,  // measure 125
10M0
0M0M
10M0
0M0M
10M0
0M0M
10M0
0M0M
10M0
0M0M
10M0
0M00
100M
0000
0000
0000
,  // measure 126
0010
0100
0001
0010
2000
0000
0000
0000
,  // measure 127
0000
0000
0000
0000
0000
3000
0002
2003
,  // measure 128
0000
0000
0000
3001
0000
0010
0100
0010
,  // measure 129
0001
0000
1000
0010
0100
0000
0100
0010
,  // measure 130
0002
1003
0000
2002
0000
3003
0000
0010
,  // measure 131
0100
0000
0000
0010
0001
0000
0000
0000
0100
0000
0000
0000
1000
0000
0000
0000
0000
0000
1000
0000
0000
0000
0000
0000
0001
0000
0000
0000
0000
0000
0010
0000
0000
0000
0000
0000
0010
0000
0000
0000
0000
0000
0100
0000
0000
0000
0000
0000
,  // measure 132
0010
0000
0000
0001
1000
0001
1000
0000
0000
0000
0100
0000
0001
0000
0000
0000
,  // measure 133
0001
0000
0010
0001
1000
0010
0010
0100
,  // measure 134
0001
0000
0000
0001
0000
0000
0001
0000
0000
2000
0000
0000
0000
0000
0000
3001
0000
0000
0020
0000
0000
0000
0100
0000
,  // measure 135
0000
0000
0030
0000
0100
0002
0003
2000
3020
0230
0302
2003
3020
0230
0302
2003
,  // measure 136
3020
0230
0302
2003
3002
0203
0320
0130
0000
0020
2030
3002
0203
0320
0030
0200
,  // measure 137
2000
0000
0000
0300
3002
0000
0000
0000
0023
0000
0000
0000
0230
0000
0000
0000
0300
0000
0002
0000
0000
2003
0000
0000
3020
0000
0000
0230
0000
0000
0320
0000
0000
0030
0000
0000
0002
0000
0000
2003
0000
0000
3020
0000
0000
0230
0000
0000
,  // measure 138
0302
2003
3020
0230
0302
2003
3000
0000
0020
0000
0230
0000
0320
0000
0030
0000
,  // measure 139
2002
0000
0000
0000
3003
0000
0000
0000
0010
0000
0100
0000
0001
1000
0000
1000
,  // measure 140
0001
0100
0010
0100
1000
0000
1000
0010
,  // measure 141
0100
0000
0010
0000
1001
0000
0000
0000
0010
0000
1000
0000
0000
0001
1000
0000
,  // measure 142
0100
0010
0001
0000
0000
0000
0100
0000
0010
0000
0100
0000
0001
0000
0000
0000
,  // measure 143
2000
0000
3002
0000
0003
1000
0010
0000
,  // measure 144
0100
0100
0001
0010
0001
0000
1100
0000
,  // measure 145
1001
2000
3002
2003
3002
2003
3002
2003
,  // measure 146
3002
2003
3002
2003
3002
2003
3002
2003
,  // measure 147
3002
2003
3002
2003
3002
2003
3000
0020
,  // measure 148
0230
0320
2030
3200
0320
0032
0203
0320
,  // measure 149
0230
2300
3020
0230
0302
0023
0230
2300
,  // measure 150
3200
0320
0032
0023
0230
2300
3020
0030
,  // measure 151
0200
0302
0203
0320
2030
3002
0203
0320
,  // measure 152
0230
0302
2003
3020
0230
0302
2003
3020
,  // measure 153
0230
0302
2003
3020
0230
0302
2003
3000
,  // measure 154
2002
0000
3000
0000
,  // measure 155
0003
0000
0000
0000
0000
0000
0001
1010
0100
0001
0000
0000
,  // measure 156
2000
0000
0000
3001
0000
0010
0100
2010
3002
0023
0030
0100
,  // measure 157
0010
1000
0002
0003
0100
0010
0100
2001
3000
0210
0302
0003
,  // measure 158
1000
0010
0100
0000
0201
0300
0010
0100
2000
3002
0003
0120
,  // measure 159
0030
0100
1000
0001
0010
0001
1020
0030
0100
0001
0000
1020
,  // measure 160
0030
0100
0010
0001
0000
0000
0002
0000
0000
0000
0000
0000
,  // measure 161
1003
1001
0000
0000
;
