#TITLE:HEART BEAT FORMULA;
#SUBTITLE:(GITADORA Ver.);
#ARTIST:TAG feat. 96;
#TITLETRANSLIT:;
#SUBTITLETRANSLIT:;
#ARTISTTRANSLIT:;
#GENRE:;
#CREDIT:PaperBox440;
#BANNER:HEART BEAT FORMULA (GITADORA Ver.).png;
#BACKGROUND:HEART BEAT FORMULA (GITADORA Ver.)-bg.png;
#LYRICSPATH:;
#CDTITLE:;
#MUSIC:HEART BEAT FORMULA (GITADORA Ver.).ogg;
#OFFSET:0.000000;
#SAMPLESTART:45.913044;
#SAMPLELENGTH:16.434784;
#SELECTABLE:YES;
#BPMS:0.000000=230.000000
;
#STOPS:
;
#BGCHANGES:;
#KEYSOUNDS:;
#ATTACKS:;

//---------------dance-single - ----------------
#NOTES:
     dance-single:
     :
     Hard:
     13:
     0.668093,0.856860,0.616085,0.812113,0.214696,501.000000,435.000000,66.000000,87.000000,0.000000,0.000000,0.668093,0.856860,0.616085,0.812113,0.214696,501.000000,435.000000,66.000000,87.000000,0.000000,0.000000:
// measure 0
0000
0000
0000
0001
,  // measure 1
1000
0001
1100
1001
,  // measure 2
0001
1100
1010
0001
,  // measure 3
1000
0001
0100
0110
,  // measure 4
0010
1010
1100
0001
,  // measure 5
0001
1100
1010
1001
,  // measure 6
0011
0001
1001
0100
,  // measure 7
0010
0110
1010
1000
,  // measure 8
1001
0001
2000
0000
,  // measure 9
3000
0001
0020
0000
,  // measure 10
0000
0030
0100
2000
,  // measure 11
0000
0000
3000
0001
,  // measure 12
1001
0000
0000
1000
,  // measure 13
1100
0010
0100
0000
0110
0000
1000
0001
,  // measure 14
1000
2002
3003
0010
,  // measure 15
0100
0000
0110
0000
0001
1000
0001
0000
,  // measure 16
0110
0010
2000
3000
,  // measure 17
0001
0000
1001
0000
0100
0010
0100
0000
,  // measure 18
0011
0001
2200
3300
,  // measure 19
0100
0000
0110
0000
1000
0001
1000
0000
,  // measure 20
0001
1001
0220
0330
,  // measure 21
1000
0000
1001
0000
0001
0100
0010
0100
,  // measure 22
0001
1000
0001
0000
2200
0000
3300
0000
,  // measure 23
1001
0000
1000
0010
0001
0100
0001
0100
,  // measure 24
1000
0001
1000
0000
2002
0000
3003
0000
,  // measure 25
1000
0000
1001
0000
0010
0100
0010
1000
,  // measure 26
0001
1000
0220
0000
0330
0000
0001
0010
,  // measure 27
0000
1000
0100
0000
0000
0010
0100
0000
,  // measure 28
1000
0001
0000
1000
1000
0002
0000
0000
,  // measure 29
0000
0000
0003
0010
0200
0000
0000
0300
,  // measure 30
0000
2000
3002
0003
,  // measure 31
2000
3001
2002
0000
,  // measure 32
3003
0000
0000
0000
0010
0010
0200
0000
,  // measure 33
0300
0000
0002
0000
0003
1000
1000
0100
,  // measure 34
0010
0100
0100
0001
1000
0001
0000
1100
,  // measure 35
1100
0000
2002
0000
0000
3003
0000
0000
,  // measure 36
0000
0000
0000
0001
0001
0100
2000
0000
,  // measure 37
0000
0000
3010
0200
0000
0000
0300
0000
,  // measure 38
0002
0000
0023
0000
0030
2000
0000
0000
,  // measure 39
3000
0100
0001
0001
1000
1000
0010
0100
,  // measure 40
0100
0001
0000
0000
0220
0000
0000
0000
,  // measure 41
0000
0000
0330
0000
2002
3003
2002
0000
,  // measure 42
3003
0000
0010
0010
0100
1000
0001
2000
,  // measure 43
0000
3000
0200
0000
0001
0001
0300
0000
,  // measure 44
0001
0000
0001
0000
1000
0100
1000
0000
0000
0001
0000
0010
0000
0000
0010
0100
,  // measure 45
0000
0000
0100
0000
0001
0010
0001
0000
1000
0000
1000
0000
0220
0000
0000
0000
,  // measure 46
0330
0000
0000
0000
0010
0001
0000
0000
1000
0001
1000
0000
0010
0000
0000
0100
,  // measure 47
0000
0000
0100
0010
0000
0000
0010
0000
1000
0100
1000
0000
0001
0000
0100
0010
,  // measure 48
0100
0001
0000
0000
0001
1000
0000
0000
1000
0000
0000
0000
2002
0000
3003
0000
,  // measure 49
0220
0330
0000
2000
0000
0000
0000
3000
,  // measure 50
0200
0000
0002
0300
0000
0003
1000
0000
,  // measure 51
2000
0000
0000
0000
,  // measure 52
3000
0000
0001
0000
1001
0100
0100
0010
,  // measure 53
0100
0000
0001
0010
0001
0000
1000
0000
1000
0000
0000
0000
2002
0000
0000
0000
,  // measure 54
3003
0000
0000
0000
0100
0010
0100
0000
0001
0000
0000
0001
1000
0000
0000
1000
,  // measure 55
0010
0000
0100
0000
0010
0000
0000
0001
0000
0000
0001
1000
0000
0000
0000
0000
,  // measure 56
2200
0000
0000
3300
0002
0000
2000
0000
,  // measure 57
0000
0000
3003
0000
0100
0000
0110
1000
,  // measure 58
1010
0002
1003
0200
,  // measure 59
0320
0000
0000
0030
,  // measure 60
0001
0000
0001
0000
0010
0000
0000
1000
0001
1000
0000
0000
0010
0000
0100
0000
,  // measure 61
0100
0001
0000
0000
0001
0000
1000
0000
0000
1000
0000
0000
0220
0000
0000
0000
,  // measure 62
0330
0000
0000
0000
0001
0010
0001
0000
1000
0000
0100
0000
1000
0000
0001
0000
,  // measure 63
0100
0000
0100
0000
0001
0000
1000
0000
0001
0100
0000
0000
0100
0010
0000
0000
,  // measure 64
0010
0000
1000
0100
1000
0000
0001
0000
0000
0001
0000
0000
2200
0000
3300
0000
,  // measure 65
0022
0033
2000
0000
0010
0000
3010
0000
,  // measure 66
0100
2002
0000
3003
,  // measure 67
0100
2001
0010
0100
,  // measure 68
3010
0000
0000
0000
0100
0010
0010
0000
,  // measure 69
1000
1100
2002
0000
,  // measure 70
3003
0000
0000
0000
0100
0010
0100
0000
0001
0000
1000
0000
0000
1000
0001
0000
,  // measure 71
0000
0001
0100
0000
0110
0000
0000
1000
0000
0000
1000
0000
0001
0000
0000
0000
,  // measure 72
2002
3003
0100
0220
,  // measure 73
0000
0000
0330
0000
1001
0000
2200
3300
,  // measure 74
0000
2020
3030
0000
0101
0000
2200
0000
,  // measure 75
0000
0000
3300
0000
0001
0002
0000
0000
,  // measure 76
0000
0003
2000
0000
3200
0000
0310
0001
,  // measure 77
0000
2000
0000
0000
0001
0000
0010
0000
,  // measure 78
0010
0100
0001
0010
,  // measure 79
0001
0100
0100
0001
,  // measure 80
0010
0000
0001
0000
3100
0000
0010
0001
,  // measure 81
0000
0001
1000
0000
1000
0000
0010
0100
,  // measure 82
0010
0000
0001
0000
1000
0000
0000
0000
0000
0000
1000
0001
1000
0001
1000
0000
,  // measure 83
0000
0000
0000
0000
0000
0000
0001
1000
0001
1000
0001
0000
0000
0000
0100
0000
,  // measure 84
0010
0100
0000
0000
1000
0000
1001
0000
,  // measure 85
0010
0000
0100
0000
0001
0010
0001
0000
1000
0000
0000
0000
1000
0000
0001
0000
,  // measure 86
0000
0100
0010
0000
0001
0000
1000
0000
0000
0000
0000
0000
1000
0000
0010
0000
,  // measure 87
0100
0000
0001
0000
0000
0000
0001
0000
0000
1000
0100
0000
1000
0000
0000
0000
,  // measure 88
0001
0000
0100
0000
0000
0000
0100
0000
0001
0010
0001
0000
1000
0000
0000
0000
,  // measure 89
1000
0000
0001
0000
0100
0000
0000
0000
0100
0000
0010
0000
0000
0100
0001
0000
,  // measure 90
1000
0000
0000
0000
1000
0000
0000
0000
0010
0000
0100
0000
0001
0000
0000
0010
,  // measure 91
0001
1000
0000
1000
0010
0100
0010
0001
,  // measure 92
0000
0100
0001
0000
1000
0000
0000
0000
1000
0000
0000
0000
2002
0000
0000
0000
,  // measure 93
3003
0000
0100
0001
,  // measure 94
0000
0100
0001
0000
1000
0000
0000
0010
,  // measure 95
1000
0001
0010
0100
,  // measure 96
1000
0001
1000
0001
1000
0001
1000
0000
0000
0000
1001
0000
0000
0000
0000
0000
;

//---------------dance-single - ----------------
#NOTES:
     dance-single:
     :
     Medium:
     10:
     0.520072,0.630554,0.438727,0.597416,0.000000,390.000000,343.000000,47.000000,64.000000,0.000000,0.000000,0.520072,0.630554,0.438727,0.597416,0.000000,390.000000,343.000000,47.000000,64.000000,0.000000,0.000000:
0000
0000
0000
0001
,
1000
0001
1000
0001
,
1000
0011
1001
0100
,
0010
0100
0010
0100
,
0010
1001
1001
0010
,
0100
1000
0100
0010
,
0001
0001
1000
0001
,
0100
0010
0100
0001
,
0001
1000
1001
0000
,
0001
0000
0001
1000
,
0100
1000
0001
0001
,
1000
0100
0010
2002
,
0000
3003
0010
0100
,
0001
0100
0010
0100
,
1100
2002
3003
0000
,
0110
1010
1000
0010
,
0100
0001
2002
3003
,
0100
0010
1001
1000
,
0001
0220
0330
1001
,
0001
1000
0100
0001
,
0010
0001
2200
3300
,
0010
0110
1000
0001
,
0010
0001
2200
3300
,
0001
1000
0001
0110
,
0100
0010
2002
3003
,
0100
1001
0001
1000
,
0001
0000
2002
3003
,
0110
1100
0110
0011
,
1000
0000
1001
0000
0100
0010
0200
0000
,
0000
0300
0001
1000
0002
0000
0000
0003
,
2000
0000
0000
3000
0020
0000
0030
0000
,
0001
0000
1001
0000
2000
0000
0000
3000
,
0000
0000
0001
0010
1000
0000
2000
0000
,
3001
0020
0130
1000
,
0001
0000
0100
0010
0000
0000
1000
0001
,
1000
0000
2002
0000
0000
3003
0000
0000
,
0000
0000
0001
1000
0001
0000
0200
0000
,
0000
0000
0300
0000
0001
2000
0000
0000
,
3000
0001
0001
1000
,
1000
0000
0000
0010
0100
0000
0000
0001
,
1000
1000
0010
0200
,
0000
0300
0002
0000
0000
0000
0000
0000
,
0003
0020
0230
0000
,
0300
0000
0001
2000
0000
0000
0000
3000
,
0001
0010
0100
0000
0001
1000
0001
0000
,
0010
0100
0100
0000
1000
0001
2000
0000
,
3000
0100
0000
0010
0001
0000
0100
0100
,
0000
1000
0001
1000
0000
0002
0000
0000
,
1003
0000
0100
0010
0002
0000
0003
0010
,
0100
0000
2000
0000
0000
3002
0000
0000
,
0003
0200
0000
0300
0000
0001
1000
0002
,
0000
1000
1000
1000
,
1003
0000
0000
0000
0100
0010
0000
0001
,
0000
0110
0000
1100
0000
2002
0000
0000
,
3003
0000
0010
0100
0010
1000
1000
0001
,
0010
0100
0100
0000
0001
1000
0001
0000
,
0200
0000
0000
0300
0002
0000
0000
0000
,
0003
0000
0000
0000
0010
0100
1000
0000
,
0001
0001
1000
0100
1000
0000
0001
0000
,
0002
0000
0000
0000
0000
0000
0000
0003
,
0010
0100
1000
0000
0010
0000
0100
0100
,
0001
0010
0001
0000
1100
0000
2002
0000
,
0000
3003
0000
0010
0100
0010
1000
0000
,
1001
0000
0011
0000
1000
0010
0000
0200
,
0000
0000
0301
0001
1000
0000
0010
0000
,
0001
1000
0000
1000
0000
0010
0100
0000
,
0002
0000
2000
0003
0000
3000
0001
0000
,
2000
0001
0001
0001
,
3001
0000
0000
0100
1000
0000
1000
0000
,
0010
0100
0000
0000
2002
0000
3003
0000
,
0000
0000
0100
0010
0000
1000
0000
1000
,
0001
1000
0110
1100
,
2002
3003
0010
0220
,
0000
0330
2000
3001
,
0010
0100
0000
0000
1000
0001
2000
0000
,
0000
3000
0002
0000
0003
0010
0200
0000
,
0000
0300
2000
0000
3002
0000
0000
0000
,
0000
2000
0000
0000
0000
0000
0003
0000
,
0000
0000
0000
0000
,
0000
0000
0000
0000
,
0000
0000
0000
0000
3000
0000
0001
0010
,
0100
0010
1000
0000
0100
0000
0010
0001
,
1000
0000
1000
0000
0010
0100
0001
0001
,
0001
0000
0000
1000
1000
1000
0000
0000
,
0000
0000
0010
0000
0110
0000
0000
0010
,
0000
0100
0000
0000
0001
0000
1000
0000
,
0000
0010
0100
0000
0001
0000
1000
0000
,
0000
0001
0000
0010
0000
0000
0110
0000
,
0001
1000
0000
0000
1001
0000
0100
0000
,
0010
0001
0000
0100
1000
0000
1000
0000
,
0001
0000
0010
0001
0000
0000
1000
0010
,
0100
0000
0010
0000
0001
0000
1000
0001
,
0000
0000
0100
0010
0002
0000
0000
0000
,
0010
0000
1003
0000
,
0100
0000
0110
0000
,
1001
0000
0110
0000
,
1000
1000
1000
0000
1001
0000
0000
0000
;
