#VERSION:0.83;
#TITLE:Glacia;
#SUBTITLE:(STARDOM Remix);
#ARTIST:lapix;
#TITLETRANSLIT:;
#SUBTITLETRANSLIT:;
#ARTISTTRANSLIT:;
#GENRE:;
#ORIGIN:;
#CREDIT:PaperBox440;
#BANNER:Glacia (STARDOM Remix).png;
#BACKGROUND:Glacia (STARDOM Remix)-bg.png;
#PREVIEWVID:;
#JACKET:Glacia (STARDOM Remix)-jacket.png;
#CDIMAGE:;
#DISCIMAGE:;
#LYRICSPATH:;
#CDTITLE:;
#MUSIC:Glacia (STARDOM Remix).mp3;
#OFFSET:0.000000;
#SAMPLESTART:79.523071;
#SAMPLELENGTH:12.923080;
#SELECTABLE:YES;
#BPMS:0.000=130.000;
#STOPS:39.500=0.300,
103.500=0.300;
#DELAYS:;
#WARPS:;
#TIMESIGNATURES:0.000=4=4;
#TICKCOUNTS:0.000=4;
#COMBOS:0.000=1;
#SPEEDS:0.000=1.000=0.000=0;
#SCROLLS:0.000=1.000;
#FAKES:;
#LABELS:0.000=Song Start;
#BGCHANGES:;
#KEYSOUNDS:;
#ATTACKS:
;

//---------------dance-single - ----------------
#NOTEDATA:;
#CHARTNAME:;
#STEPSTYPE:dance-single;
#DESCRIPTION:;
#CHARTSTYLE:;
#DIFFICULTY:Hard;
#METER:15;
#RADARVALUES:0.762256,0.813804,0.489434,0.134354,0.806127,556.000000,505.000000,51.000000,14.000000,0.000000,0.000000,0.000000,0.000000,0.000000,0.762256,0.813804,0.489434,0.134354,0.806127,556.000000,505.000000,51.000000,14.000000,0.000000,0.000000,0.000000,0.000000,0.000000;
#CREDIT:;
#NOTES:
0000
0000
0000
0000
,
1001
0000
0000
0000
0001
0000
0001
0000
0010
0100
0010
0000
0001
0000
0100
0010
,
0100
0000
0000
0000
1000
0001
1000
0000
0000
0000
1000
0010
1000
0000
0000
0000
,
1001
0000
0010
0000
0100
0000
0100
0000
0001
0010
0001
0000
1000
0000
1000
0000
,
0110
0000
0000
0100
0000
0000
0100
1000
0000
0000
1000
0000
0001
0010
0001
0000
,
0100
0000
0000
0000
1001
0000
0100
0000
0100
0000
0010
0000
1000
0001
0010
0000
,
0100
0000
0001
0000
0010
0100
0010
0000
1000
0000
1000
0000
0001
0010
0100
0000
,
0000
1000
0100
0000
0001
0010
0001
0000
1000
0000
1000
0000
0000
0000
0010
0100
,
0001
0000
1000
0000
0010
0100
0010
0000
1000
0000
1000
0000
0001
0010
0100
0000
,
1001
0000
0010
0000
0100
0000
0100
0000
0001
0010
0001
0000
1000
0000
1000
0000
,
1001
0000
0100
0010
0100
0000
0001
0000
0001
0000
1000
0100
1000
0000
0010
0000
,
0110
0000
0001
0000
0100
0000
0100
0000
0001
0010
0001
0000
1000
0000
1000
0000
,
0001
0010
0100
0000
0010
1000
0100
0000
0001
0000
0001
0000
0110
0000
1000
0000
,
1000
0010
0011
0000
0001
0000
0010
0100
0000
0100
0000
0001
0010
0001
1000
1000
,
0000
0100
0010
0100
0000
0001
0001
0000
1000
0000
1000
0000
0110
0000
0000
0100
,
0000
0100
0001
0001
1000
1000
0000
0000
0010
0100
0001
1000
1000
0010
0100
0000
,
0001
1000
0010
0000
1001
0000
0100
0000
0100
0010
0000
1000
1010
0000
0001
0100
,
0000
0100
0001
0000
0001
1000
0000
0010
0100
0000
0100
0001
0010
0001
1000
0000
,
1000
0000
0000
0000
2000
0000
0000
3000
0002
0010
0010
0000
0103
1000
0100
0000
,
0020
0000
0000
0000
1000
0000
1000
0000
0100
0000
0100
0000
1030
0000
0001
0010
,
0100
0000
0100
0000
2000
0000
0000
0001
3002
0000
0000
0000
0203
0000
0000
0010
,
0320
0000
0000
0000
0000
0000
0000
0000
1030
0000
1000
0100
0100
0001
0010
0010
,
1000
0100
1000
0001
0001
0001
2000
0000
0100
0000
0000
3200
0010
0000
0000
0310
,
0020
0000
0001
1000
0000
0100
0000
0100
0000
0000
0031
0000
0002
0000
0000
0000
,
2003
0000
0010
0000
0100
0000
0100
0000
0001
3010
0000
0100
1000
0100
0000
0000
,
0110
0000
0000
1000
0001
0000
0001
0100
0100
0001
0010
0001
1000
0000
1001
0000
,
0110
0000
0100
0000
0110
0000
1000
0100
1010
0000
0000
0100
0010
0100
1000
0000
,
0011
0000
0010
0100
1010
0000
1000
0000
1100
0000
0010
0001
1010
0000
0100
0000
,
0110
0000
1000
0100
1010
0000
0011
0000
1100
0000
1000
0100
1010
0000
0011
0000
,
1100
0000
0010
0000
1010
0000
0001
0100
1001
0000
1000
0000
1001
0000
0000
0100
,
0110
0000
0000
0000
1001
0000
1000
0010
0100
0100
0010
0000
1001
0000
0100
0000
,
0101
0000
0010
1000
0110
0000
0001
0010
0001
0000
0100
0000
1010
0000
1000
0000
,
1100
0010
0100
0000
0001
1000
1000
0000
0100
0010
0100
0001
0000
0001
1000
0100
,
1000
0000
0000
0001
0000
0000
0001
0000
0000
0100
0000
0000
0010
0000
0000
0100
0000
0000
0000
0000
0000
1000
0000
0000
1000
0000
0000
0000
0000
0000
0000
0000
0000
0000
0000
0000
1001
0000
0000
0000
0000
0000
0000
0000
0001
0000
0000
0000
,
0010
0000
0000
0000
0000
0000
0000
0000
0100
0000
0000
0000
0010
0000
0000
0000
0100
0000
0000
0000
0000
0000
0000
0000
1000
0000
0000
0000
0100
0000
0000
0000
0010
0000
0000
0000
0100
0000
0000
0000
0001
0000
0000
0000
0000
1000
0000
0000
,
0001
0000
0010
0000
1000
0100
1000
0010
0010
0100
0010
0000
,
1001
0000
0000
0000
0010
0000
0100
0000
0000
1000
0100
0000
0010
0000
0010
0000
1000
0000
0000
0000
0100
0010
1000
0000
,
0001
0000
0000
0000
0001
0000
0000
0000
0010
0000
0000
0000
0100
0000
0000
0000
0000
0000
0010
0000
0100
0000
0000
0000
0000
0000
0000
0000
1000
0000
0000
0000
0000
0000
0000
0000
1001
0000
0000
0000
0000
0000
0000
0000
0000
0010
0000
0000
,
0001
0000
0110
0010
0100
0000
1100
0000
0001
0010
0001
0000
0100
0100
0001
0000
,
0001
0000
1000
0100
1000
0000
0000
0100
0010
0100
0001
0000
0001
0000
0100
0010
,
1000
0000
0001
0000
1001
0000
0000
0010
0100
0000
0100
0001
0010
0001
1000
1000
,
0000
0100
0010
0100
0001
0000
0001
0000
0100
0010
1000
0000
0002
0000
0000
0000
,
1000
0000
1000
0000
1003
0000
0010
0000
0100
0010
0100
0000
1001
0000
0100
0000
,
0100
0001
0010
0001
1000
0000
1000
0000
0010
0100
0001
0000
0010
0100
0000
0100
,
0001
0010
0001
0000
1000
0000
1000
0000
0001
0100
0010
0000
1000
0001
0100
0000
,
0010
0000
0010
0100
0001
0000
0001
0000
0100
0010
0100
0000
1001
0000
0100
0000
,
0000
0010
0100
0010
1000
0000
1000
0000
0001
0010
0001
0000
0100
0010
0000
0010
,
0000
1000
0100
1000
0001
0000
0001
0000
0100
0010
0100
0000
1001
0000
0010
0010
,
0100
0100
0001
0010
0001
1000
1000
0000
0010
0100
0001
0000
0100
0000
0001
0010
,
0001
0100
1000
0000
1100
0000
0010
0000
0010
0010
0001
1000
0100
1000
0001
0001
,
0110
0000
0100
1000
0000
1000
0001
0010
0001
0100
0100
0000
1001
0000
0010
0000
,
0010
0000
0000
1000
0100
1000
0100
0000
0001
0010
0010
0000
1001
0000
0002
0000
,
0000
0000
0000
0000
,
0003
0000
0000
0000
;

//---------------dance-single - ----------------
#NOTEDATA:;
#CHARTNAME:;
#STEPSTYPE:dance-single;
#DESCRIPTION:;
#CHARTSTYLE:;
#DIFFICULTY:Medium;
#METER:13;
#RADARVALUES:0.489434,0.534059,0.259112,0.211128,0.182338,357.000000,330.000000,27.000000,22.000000,0.000000,0.000000,0.000000,0.000000,0.000000,0.489434,0.534059,0.259112,0.211128,0.182338,357.000000,330.000000,27.000000,22.000000,0.000000,0.000000,0.000000,0.000000,0.000000;
#CREDIT:;
#NOTES:
0000
0000
0000
0000
,
1001
0000
0001
0100
0100
0010
1000
0001
,
1000
0000
1000
0000
0100
0000
0010
0010
,
0000
1000
0100
1000
0001
0001
0010
1000
,
0100
0000
0010
0001
0010
0100
1000
0000
,
1001
0000
0100
0100
0001
0000
0001
0010
,
0001
0100
0100
1000
0000
1000
0010
0100
,
0001
0000
0000
0000
0010
0100
0000
0000
0001
0000
0000
0000
0000
0010
1000
0000
,
0000
0000
1000
0000
0001
0000
0010
0000
0001
0000
0100
0010
0000
0000
0000
0000
,
1001
0000
0000
0000
0010
0000
0100
0000
0000
0000
0100
0010
0100
0000
2002
0000
,
3003
0000
0100
1000
0001
0000
0001
0000
,
0110
0000
0100
0100
1000
1000
0001
0010
,
0100
0010
1000
0001
0010
0001
0000
1000
,
0100
0010
0100
0001
0000
0001
0100
0100
,
1000
0000
0100
0010
0100
0001
1001
0000
,
0010
1000
0000
1000
0010
0001
0100
0000
,
0010
0000
1000
0001
1000
0000
0000
0000
0010
0000
0100
0000
1000
0000
0000
0010
,
0100
0000
0001
0100
1000
0000
0001
0001
,
1000
0000
2000
0100
3200
0010
0320
0001
,
0032
0000
0000
1000
0000
0100
0003
0000
,
1000
1001
0002
0013
0020
0130
0200
1300
,
2000
0000
0000
0000
0010
0000
3001
0010
0001
0000
0010
0000
0100
0000
0010
0000
,
0000
1000
0002
0010
0023
0000
2030
0000
,
3001
0020
0000
0000
0100
0000
0230
0300
,
2000
0000
0010
0001
3001
0000
0010
0100
,
0200
0000
0000
0310
0020
0000
0030
2000
,
3001
0000
0000
0000
1000
0000
1000
0001
0000
0000
0010
0000
0010
0100
0000
0000
,
1000
0010
0000
0001
0000
0001
0000
0100
0010
0000
0010
0000
1001
0000
0000
0010
,
0000
0100
0000
0100
1000
0000
0000
0000
1001
0000
0100
0000
0010
0000
0010
0000
,
1001
0100
0001
0001
1100
1000
1001
0001
,
0000
0010
1010
1000
1000
0001
0011
0000
,
0010
0100
0100
1000
1000
0000
1001
0000
,
0010
1010
0001
0100
0010
0010
0100
0001
,
1001
1000
1000
0001
0011
0000
1001
0000
,
0001
0000
0001
0000
0100
0000
0100
0000
0001
0000
0001
0000
,
1000
0000
0000
0000
1000
0000
0000
0000
0000
0000
0000
0000
0010
0000
0100
0000
0000
0000
1000
0000
0000
1000
0000
0000
,
0020
0000
0030
0000
0000
0001
0010
0100
0000
0000
1000
0000
1000
0000
0000
0000
,
0100
0001
0000
0000
0001
0000
1000
0000
1000
0000
0000
0000
1001
0000
0000
0000
,
0010
1000
0100
1000
0011
0000
0100
0010
,
1000
0100
1000
0000
0001
0000
0010
0000
0000
0100
0010
0000
0001
0000
1100
0000
,
0000
0000
0010
0000
0100
0000
0001
0010
0001
0000
1000
0000
1100
0000
0000
0000
,
0010
0000
0100
0000
0010
0000
0100
0000
0001
0010
0001
0000
2000
0000
0000
0000
,
0000
0000
0000
0000
3000
0000
0001
0010
0100
0000
0000
0000
1001
0000
0000
0000
,
0100
0000
0001
0010
0001
0000
1000
0000
1000
0000
0000
0000
1001
0000
0000
0000
,
0100
0000
0001
0000
0001
0000
0000
0000
0010
1000
0100
0000
0000
0000
0010
0000
,
0000
0000
0100
0000
0001
0010
0001
0000
1000
0000
1000
0000
0000
0000
0010
0100
,
0001
0000
0100
0010
0100
0000
1001
0000
,
0010
0000
0100
0000
1000
0000
0000
0000
0001
0010
1000
0000
0000
0000
0010
0000
,
0100
0000
0001
0000
0001
0000
0000
0000
0100
0010
0100
0000
0000
0001
0000
0000
,
0001
0010
0100
0010
1000
1000
0001
0001
,
1000
0000
0100
0010
0100
0000
1000
0000
,
0010
0000
0010
0000
0000
0000
0001
0010
0100
0000
0000
0000
1001
0000
0002
0000
,
0000
0000
0000
0000
,
0003
0000
0000
0000
;

//---------------dance-single - ----------------
#NOTEDATA:;
#CHARTNAME:;
#STEPSTYPE:dance-single;
#DESCRIPTION:;
#CHARTSTYLE:;
#DIFFICULTY:Easy;
#METER:8;
#RADARVALUES:0.342741,0.379671,0.115161,0.201532,0.000000,250.000000,238.000000,12.000000,21.000000,0.000000,0.000000,0.000000,0.000000,0.000000,0.342741,0.379671,0.115161,0.201532,0.000000,250.000000,238.000000,12.000000,21.000000,0.000000,0.000000,0.000000,0.000000,0.000000;
#CREDIT:;
#NOTES:
0000
0000
0000
0000
,
1001
0000
0001
0000
0001
0000
0010
0010
,
0100
0000
1000
0001
1000
0000
0100
0100
,
0010
0000
0001
0001
0100
0000
0100
0000
,
1001
0000
0010
0000
0100
0010
0100
0000
,
1001
0000
0010
0000
0100
0000
0001
0001
,
1000
0000
0100
0010
0001
0000
1000
1000
,
0001
0000
1000
0000
0010
0000
0100
0100
,
0010
0000
1000
0000
1000
0000
0010
0010
,
0100
0000
0001
0000
0100
0100
0000
2002
,
3003
0000
0010
0000
0010
0100
0100
0000
,
1000
0000
0010
0000
1000
0001
0010
0000
,
1000
0000
0001
0000
0100
0100
0100
0000
,
0010
0000
0100
0000
0010
0001
0000
1000
,
1000
0000
0010
0000
0100
0001
0001
1000
,
0000
0000
0010
0001
1000
0000
0010
0001
,
0100
0000
0010
0000
1000
0001
0001
0000
,
0010
0100
0000
0100
0001
0010
0001
0000
,
1000
2000
3200
0320
,
0032
0000
0000
0003
,
0000
0000
0002
0003
0020
0030
0200
0300
,
2000
0000
0000
3000
0010
0010
0100
0000
,
0000
0002
0023
2030
,
3000
0020
0000
0000
0000
0030
2000
0000
,
3002
0000
0000
0000
1003
2000
0000
3000
,
0020
0000
0000
0030
0200
0000
0000
0300
,
0001
0000
0001
0010
0000
0010
0100
0000
,
0100
1000
0000
1000
0001
0000
1001
0000
,
0100
0000
0100
0010
0000
0010
0001
0000
,
0001
1000
0000
1000
0000
0100
0100
0000
,
1000
0001
1000
0000
0010
0100
0010
0000
,
1000
0001
1000
0000
0010
0000
1001
0000
,
0000
0010
0000
0100
1000
0100
0001
0010
,
0001
1000
0100
1000
0001
0000
1001
0000
,
0000
0001
0000
0001
0000
0100
0000
1000
,
0001
1000
0000
0000
1000
1000
0000
0100
,
0010
0100
0000
0001
1000
0001
0000
1000
,
0000
0100
0000
1000
0000
0000
1001
0000
,
0000
0010
1000
0000
1000
0001
0010
0001
,
0000
0100
0000
0010
0010
1000
0000
1000
,
0001
0000
0001
0100
0000
0000
0010
1000
,
0000
1000
0001
0000
0100
0000
0010
2000
,
0000
3000
0000
1001
,
0001
0000
0010
0100
0010
0000
0100
0000
,
1000
0000
0001
1000
0000
0000
0001
0000
,
0100
0000
0010
0100
0010
0000
1000
0010
,
0000
0100
1000
0000
0001
0001
0000
0010
,
0100
0000
0100
0010
1000
0000
1001
0000
,
0100
0000
0001
0010
0001
0000
1000
0000
,
0100
0000
0010
0000
1000
0000
1000
0010
,
0000
0001
0100
0000
0100
0000
1001
0000
,
0010
0000
0010
0000
0100
0100
1001
0002
,
0000
0000
0000
0003
;

//---------------dance-single - ----------------
#NOTEDATA:;
#CHARTNAME:;
#STEPSTYPE:dance-single;
#DESCRIPTION:;
#CHARTSTYLE:;
#DIFFICULTY:Beginner;
#METER:4;
#RADARVALUES:0.263225,0.303737,0.134354,0.143951,0.000000,192.000000,178.000000,14.000000,15.000000,0.000000,0.000000,0.000000,0.000000,0.000000,0.263225,0.303737,0.134354,0.143951,0.000000,192.000000,178.000000,14.000000,15.000000,0.000000,0.000000,0.000000,0.000000,0.000000;
#CREDIT:;
#NOTES:
// measure 0
0000
0000
0000
0000
,  // measure 1
1001
0000
0001
0010
,  // measure 2
0010
0000
1000
0100
,  // measure 3
0100
0000
1000
0010
,  // measure 4
0010
1000
0001
1000
,  // measure 5
0000
1001
0000
0100
,  // measure 6
1000
0010
0100
0001
,  // measure 7
0001
0000
0010
0100
,  // measure 8
1000
0000
0100
0001
,  // measure 9
0001
1000
1000
0001
,  // measure 10
0000
1000
0010
0100
,  // measure 11
0010
0001
1000
1000
,  // measure 12
1000
0001
1000
0001
,  // measure 13
0001
0010
0100
0000
,  // measure 14
1000
1000
0001
0100
,  // measure 15
0010
0001
1000
0001
,  // measure 16
0100
0001
1000
1000
,  // measure 17
0001
1000
0010
0010
,  // measure 18
0100
2000
3200
0320
,  // measure 19
0032
0000
0003
1000
,  // measure 20
1000
0002
0023
0230
,  // measure 21
2300
3001
0001
0001
,  // measure 22
0000
1000
0010
0110
,  // measure 23
0002
0000
0000
2003
,  // measure 24
3002
0000
1003
1001
,  // measure 25
0020
0000
2030
3000
,  // measure 26
0000
0001
0001
1000
,  // measure 27
0100
1000
1000
1001
,  // measure 28
0010
0010
1000
1000
,  // measure 29
0001
0010
1000
0100
,  // measure 30
0110
0001
0001
1000
,  // measure 31
1000
0100
0001
1001
,  // measure 32
0010
0100
1000
0001
,  // measure 33
0100
0010
1000
0110
,  // measure 34
0000
0100
1000
0001
,  // measure 35
0000
0001
0000
1000
,  // measure 36
0100
0010
0100
0100
,  // measure 37
0000
0010
0001
1001
,  // measure 38
0000
0100
0010
0100
,  // measure 39
0001
0100
0001
1000
,  // measure 40
0001
1000
0000
0010
,  // measure 41
0100
0001
0001
2000
,  // measure 42
0000
3001
0001
1001
,  // measure 43
0010
0100
0010
0110
,  // measure 44
1000
0001
1000
1001
,  // measure 45
0000
0001
0001
0100
,  // measure 46
1000
0010
1000
0001
,  // measure 47
0001
0100
0010
0100
,  // measure 48
0010
0010
0001
0100
,  // measure 49
1000
0001
1000
0001
,  // measure 50
0100
0010
0100
1001
,  // measure 51
0010
0100
0100
1002
,  // measure 52
0000
0000
0000
0003
;
