#TITLE:Facination eXtasy;
#SUBTITLE:;
#ARTIST:M D M A;
#TITLETRANSLIT:;
#SUBTITLETRANSLIT:;
#ARTISTTRANSLIT:;
#GENRE:;
#CREDIT:PaperBox440;
#BANNER:Facination eXtasy.png;
#BACKGROUND:Facination eXtasy-bg.png;
#LYRICSPATH:;
#CDTITLE:cdtitle.png;
#MUSIC:Facination eXtasy.mp3;
#OFFSET:0.000000;
#SAMPLESTART:21.719299;
#SAMPLELENGTH:11.087719;
#SELECTABLE:YES;
#BPMS:0.000000=180.000000
,32.000000=190.000000
,100.000000=90.000000
,116.000000=180.000000
,180.000000=90.000000
,196.000000=290.000000
,222.000000=249.999985
,244.000000=300.000000
,297.000000=350.000000
;
#STOPS:
;
#BGCHANGES:;
#KEYSOUNDS:;
#ATTACKS:;

//---------------dance-single - ----------------
#NOTES:
     dance-single:
     :
     Medium:
     14:
     0.671072,1.198116,0.284419,0.082573,0.215608,512.000000,481.000000,31.000000,9.000000,0.000000,0.000000,0.671072,1.198116,0.284419,0.082573,0.215608,512.000000,481.000000,31.000000,9.000000,0.000000,0.000000:
0000
0000
0000
0000
,
0000
0000
0000
0000
,
0000
0000
0000
0000
,
0000
0000
0000
0000
,
0000
0000
0000
0000
,
0000
0000
0000
0000
,
0000
0000
0000
0000
,
0000
2002
3003
0000
,
0000
0100
0010
1000
0100
0001
0010
0000
,
1000
0010
0100
0000
1000
0010
0010
0001
,
1000
0100
1000
0010
0001
0001
0100
0100
,
1000
0010
0001
0100
1000
0000
1000
0010
,
0100
0010
0001
0001
0100
1000
0001
0100
,
1000
0000
1000
0010
0100
0001
0001
0000
,
1100
0000
0110
0000
0001
0001
0010
0100
,
1000
0001
0001
0010
0001
0100
1000
0000
,
0110
0000
0110
0000
0000
1001
0010
0100
,
0010
0001
1000
0100
1000
0010
0100
0001
,
0010
0001
0000
1100
0000
1000
0100
0010
,
0100
0010
0001
1000
0100
1000
0001
0010
,
0001
0100
0100
1000
0000
1010
0000
0010
,
0001
0100
0000
0100
1000
0010
0100
0001
,
0010
0001
1000
0000
0110
0000
0110
0000
,
0001
0010
0001
1000
0000
1000
0100
1000
,
0001
0100
0010
0100
0000
1001
0000
1001
,
0000
0000
0001
0000
0001
1000
0100
1000
0010
0100
0010
0100
0000
0001
0010
0001
,
1000
0000
0100
1000
0010
0000
0100
0010
0001
0000
0001
1000
0000
1000
0100
0010
,
0100
0001
0001
0000
1000
0001
0100
0000
0010
0100
0010
1000
1000
0000
0001
0100
,
0010
0000
0010
0001
0100
0100
0000
0020
0000
0000
0100
0130
0100
1000
0010
0100
,
0000
0010
0001
0100
1010
0010
0001
0001
,
1000
0110
0001
1000
0100
0100
0010
0000
,
0001
1100
0100
1000
0010
0010
0100
0001
,
0010
0001
1000
0000
1000
0010
0100
0010
,
0100
0001
1000
0100
1000
0001
0100
0010
,
0001
0010
0001
1000
0100
1000
0010
0100
,
0010
0001
1000
0001
1000
0010
0100
0001
,
0010
0001
1000
0100
1000
0010
0100
0010
,
0200
0300
0001
0000
0110
0000
0100
0010
,
0001
1100
0000
0100
1000
0000
1000
0010
,
0100
0011
0000
0001
1000
0100
1000
0010
,
0000
0010
0001
0000
0001
0100
0010
1000
,
0010
1000
0001
0100
0010
0100
0000
0100
,
1000
0001
1000
0001
0010
0001
1000
0100
,
1000
0100
0010
0010
0001
0010
0001
1000
,
1000
0100
1000
0010
0100
0010
0100
0000
,
1001
0000
0010
0100
0010
1000
1000
0001
0010
0001
0100
0000
0100
0010
1000
0100
,
0000
1100
0001
0010
0000
0010
0100
0010
1000
1000
0001
0000
0010
0001
1000
0100
,
1000
0000
0100
0010
0100
0001
1000
0100
1000
0000
1010
0010
0100
0001
0000
0011
,
1000
1000
0010
0100
0000
0101
0000
0010
1000
0100
1000
0010
0010
0000
0220
0000
,
0330
0001
0010
0001
,
1000
0000
0100
0001
1000
0000
0100
0000
,
0010
0000
0100
0000
0010
1000
0001
0000
,
1000
0000
0100
0010
1000
0000
0100
0000
,
1000
0000
0100
0010
0001
0000
0100
0000
,
0010
0100
1001
0000
,
1001
0000
0010
0001
,
0010
1000
0001
0000
1000
0010
0100
0000
,
1000
0010
0100
0000
0010
0001
0100
0000
,
1000
0010
0000
0010
0001
0100
1000
0100
,
0010
0001
1000
0100
1000
0000
1000
0010
,
0100
0001
1000
0100
0010
0100
0010
0000
,
1001
0100
0010
0001
,
1000
1000
0001
0100
,
0010
1000
0001
0010
,
0001
1000
0010
0100
,
0010
0100
1000
0100
,
0010
0010
0100
0001
,
1001
0000
0000
1001
0000
0000
0001
0000
,
1000
0100
1000
0010
,
0100
1000
0100
0000
0001
0010
0001
0000
,
1000
0100
1000
0010
,
0100
0000
0010
0000
0001
0100
0001
0000
,
1000
0010
1000
0000
0100
0000
0120
0000
,
0030
0000
0001
0010
0001
0000
1000
0100
,
1000
0100
0000
0100
,
0010
0100
0010
0100
,
1000
0001
0010
0001
,
0100
0100
0010
1000
,
0100
1000
0001
0010
,
0001
0100
0010
0001
,
0010
0100
1000
0100
,
1000
0010
0010
0100
,
0100
2002
0000
0000
,
0000
0000
0000
0000
,
0000
3003
0000
0000
;

//---------------dance-single - ----------------
#NOTES:
     dance-single:
     :
     Easy:
     10:
     0.461362,0.840184,0.330293,0.036699,0.004587,352.000000,316.000000,36.000000,4.000000,0.000000,0.000000,0.461362,0.840184,0.330293,0.036699,0.004587,352.000000,316.000000,36.000000,4.000000,0.000000,0.000000:
0000
0000
0000
0000
,
0000
0000
0000
0000
,
0000
0000
0000
0000
,
0000
0000
0000
0000
,
0000
0000
0000
0000
,
0000
0000
0000
0000
,
0000
0000
0000
0000
,
0000
2002
3003
0000
,
0000
0100
0010
0000
0000
0001
1000
0000
,
0010
0100
0000
0001
1000
1000
0000
1001
,
0000
0000
0000
0010
0010
0000
0100
0100
,
0001
0001
1000
0010
0100
0000
0110
0000
,
0110
0000
1000
0100
1000
0001
0000
0001
,
0000
0010
0000
0010
1000
0100
0000
0000
,
1001
0000
0000
0000
1001
0000
0000
0000
0100
0000
0000
0010
0000
0000
0001
0000
,
1000
0100
0001
0010
0000
0100
1000
0000
,
0110
0000
0110
0000
0000
0000
0001
1000
,
0000
0100
0010
0000
0001
1000
0000
0010
,
0100
0000
1001
0000
1001
0000
0010
1000
,
0000
0010
0100
0000
0010
0100
0001
1000
,
0010
0000
1001
0000
1001
0000
0010
1000
,
0000
1000
0010
0000
0100
0010
0000
0000
,
0001
1000
0000
0000
0110
0000
0110
0000
,
0001
0000
0100
0000
1000
0010
0000
0100
,
0000
0010
0000
0001
1000
0000
0110
0000
,
0110
0000
0100
0110
0000
1000
1000
1001
,
0010
0010
0100
0110
1000
0001
0001
1001
,
0100
0010
0010
0110
0000
1000
1000
1001
,
0010
0110
1000
1001
0010
0100
0100
0100
,
0000
0000
1000
0000
0100
0010
0100
0000
,
0010
0100
0001
0010
,
0001
1000
0100
1000
,
0010
0000
0100
0000
0010
0100
0001
0000
,
1000
0000
0100
0010
1000
0000
0010
0000
,
0001
0010
0001
1000
,
0100
1000
0010
0100
,
0010
0001
1000
1000
,
1001
0000
0010
0000
0010
0000
0001
0100
,
1000
0010
0100
0010
,
0001
0100
1000
0000
0100
0000
1000
0000
,
0001
0100
0010
1000
,
0001
1000
0001
0100
,
0010
0000
0100
0010
1000
0000
0010
0000
,
0001
0000
0010
0000
0001
0010
1000
0000
,
0100
0010
0100
1001
,
1001
0000
0010
1000
1000
0100
0000
0010
,
0010
1000
0000
0100
0100
0001
0000
1000
,
1000
0100
0000
0010
0010
0100
0000
0001
,
0010
1000
0000
0010
1000
0100
0000
0001
,
0000
0100
0010
0001
,
1000
0010
0100
0001
,
0000
0110
0000
0110
,
1000
0010
0001
1000
,
0100
1000
0001
0010
,
0100
0000
1001
0000
,
1001
0000
0000
1000
,
0001
0010
0001
1000
,
0100
1000
0010
0100
,
0010
0001
0010
0001
,
1000
0100
1000
0010
,
0100
0010
0001
0100
,
1000
0001
1000
0010
,
0100
0000
0010
0001
,
1000
0000
0110
0000
,
0110
0000
1000
0001
,
1000
0001
0100
0010
,
0000
0100
0000
1001
,
0000
1001
0000
1000
,
0001
0100
0000
0010
,
1000
0000
0010
0001
,
0100
0000
1000
0010
,
0001
0000
0100
1000
,
0010
0000
0100
0010
,
0001
1000
0100
1000
,
0000
0000
0000
1000
,
0001
1000
0100
1000
,
0001
0100
0010
1000
,
0001
1000
0001
0100
,
0010
0100
0010
1000
,
0100
0010
0001
1000
,
0100
1000
0010
0100
,
0010
0001
1000
0000
,
0220
0000
0000
0000
,
0000
0330
0000
0000
;

//---------------dance-single - ----------------
#NOTES:
     dance-single:
     :
     Hard:
     16:
     0.813937,1.468659,0.568839,0.073399,0.564251,621.000000,559.000000,62.000000,8.000000,0.000000,0.000000,0.813937,1.468659,0.568839,0.073399,0.564251,621.000000,559.000000,62.000000,8.000000,0.000000,0.000000:
// measure 0
0000
0000
0000
0000
,  // measure 1
0000
0000
0000
0100
0000
0100
0000
0110
,  // measure 2
0000
0001
0000
1000
1000
0000
0110
0000
,  // measure 3
0000
0000
0000
0010
0000
0010
0000
0110
,  // measure 4
0000
0000
0010
0000
1000
1000
0000
1001
,  // measure 5
0000
0100
0100
0110
,  // measure 6
0001
1001
1000
1100
,  // measure 7
0220
0000
0000
0330
0100
0010
0100
0010
,  // measure 8
0100
0000
0000
0000
0000
0010
0100
0000
0000
0100
1000
0001
0000
0010
0000
0001
,  // measure 9
0100
0000
0000
1010
0000
0000
0001
0100
0000
0010
0000
0100
0010
0000
0000
0000
,  // measure 10
0110
0000
0000
0000
1000
0010
0000
0000
0100
0010
0000
0000
0010
0001
0000
0000
,  // measure 11
0001
1000
0000
0100
1000
0000
0010
0000
0100
0010
0001
0100
1000
0000
0000
0000
,  // measure 12
1100
0000
0001
0000
0010
0000
0000
0100
0010
0000
1000
0100
0000
0010
0001
0000
,  // measure 13
0000
0000
0001
0100
0000
0010
0100
0000
1000
0001
0000
0000
0001
0100
0000
0000
,  // measure 14
1010
0000
0000
0000
0110
0000
0000
0000
0100
0000
0000
0100
0010
0000
0000
0010
,  // measure 15
0001
0000
1000
0000
0100
0000
0000
0100
0010
0000
1000
0000
0001
0000
0000
0001
,  // measure 16
0100
0000
1010
0000
0000
0000
0110
0000
0000
0010
0000
0100
0000
1000
0001
0000
,  // measure 17
0000
0001
0100
0010
0000
0000
0010
1000
0000
0100
1000
0001
0000
0000
0001
0100
,  // measure 18
0000
0000
0100
0000
1010
0000
0000
0000
0110
0000
0001
0000
0000
0010
0000
0100
,  // measure 19
0000
0001
1000
0000
0100
0000
1000
0010
0000
0100
0000
0010
0001
0000
0000
0001
,  // measure 20
0000
1000
0000
0000
1000
0000
0000
0000
0110
0000
0000
0000
1001
0000
0000
0000
,  // measure 21
0100
0010
0000
0000
0001
0100
0000
0010
0000
0000
0010
1000
0000
0100
1000
0001
,  // measure 22
0000
0000
0001
0100
0000
0000
0100
0000
1010
0000
0000
0000
0110
0000
0000
0100
,  // measure 23
0000
0010
0001
1000
0100
1000
0010
0000
0000
0100
0010
0001
0000
1000
1000
0010
,  // measure 24
0000
0100
0010
0001
1000
0000
0100
1000
0000
0000
0110
0000
0000
0000
1001
0000
,  // measure 25
0000
0100
0100
0010
1000
1000
0010
0001
0001
0010
0100
1000
0100
0010
0001
1100
,  // measure 26
0110
0010
0001
1100
1000
0010
0010
0100
0010
0001
1000
0100
1000
0010
0100
0100
,  // measure 27
0000
0011
0100
0100
1000
0010
0001
0001
0100
1010
0100
0010
0100
0001
0001
1100
,  // measure 28
0000
1000
0010
0100
0100
0010
0001
1000
2002
0000
3003
0000
0100
0010
0100
0010
,  // measure 29
0100
0000
0011
1100
0010
0100
0010
0100
,  // measure 30
1000
0001
0100
0100
0010
0001
1100
1000
,  // measure 31
0010
0100
0010
0001
0001
1000
0100
1000
,  // measure 32
0010
0100
0010
0001
1000
0001
1000
0010
,  // measure 33
0001
0100
0010
1000
0100
1000
0001
0010
,  // measure 34
1000
0100
0010
0100
0001
1000
0100
0010
,  // measure 35
0001
0010
0001
1000
0100
0010
0100
0010
,  // measure 36
0001
1000
0100
1000
0100
0010
0100
0000
,  // measure 37
1001
0000
1010
0100
1000
0001
0000
0110
,  // measure 38
0000
0010
1000
0100
1000
0001
1000
0001
,  // measure 39
0010
0100
0010
0001
1100
0000
0010
0100
,  // measure 40
0011
0100
0001
1000
0100
1000
0110
0000
,  // measure 41
0010
1000
0100
1000
0001
0001
0100
1010
,  // measure 42
0000
0100
0001
0010
0001
1000
0100
1000
,  // measure 43
0001
0100
0010
0100
1000
0001
0001
1000
,  // measure 44
0100
0000
1000
0000
0100
0000
0001
0000
0000
0100
0010
0100
0010
0100
0010
0100
,  // measure 45
0000
0000
0001
1000
0100
1000
0010
0000
0010
0100
0010
0001
1000
0100
1000
0001
,  // measure 46
0110
0100
1000
0010
0001
0100
0100
0000
1010
0001
0010
1000
0100
1000
0001
0010
,  // measure 47
0001
0100
1100
0010
0100
0010
0001
0001
0100
1000
0010
0100
0100
0000
0011
2000
,  // measure 48
3000
0100
0100
1000
0010
0100
0000
0010
0001
1000
0000
0000
0100
0010
0100
0010
,  // measure 49
0100
0000
1000
0000
0010
1000
0001
0100
,  // measure 50
1000
0001
0100
0000
1000
0010
0001
0000
,  // measure 51
1000
0100
0001
0000
0110
0000
0000
0000
,  // measure 52
0110
0000
0001
0000
1000
0010
0100
0000
,  // measure 53
0001
1000
0010
0000
0001
0100
1000
0001
,  // measure 54
0100
0010
1000
0000
0110
0000
0000
0000
,  // measure 55
0110
0000
0000
0001
1000
0100
0001
1000
,  // measure 56
0001
1000
0010
0100
0010
0001
0010
0001
,  // measure 57
0100
1000
0100
1000
0010
1000
0010
1000
,  // measure 58
0010
0100
0010
0100
0001
0010
0001
1000
,  // measure 59
0100
1000
0100
0010
0100
0010
0001
1000
,  // measure 60
0100
1000
0000
0000
0110
0000
1010
0000
,  // measure 61
0110
0001
0001
1000
,  // measure 62
0010
0100
0010
0001
,  // measure 63
0100
0000
1000
0000
0000
0110
0000
0000
,  // measure 64
0110
1000
0100
0001
,  // measure 65
0010
0001
1000
1000
,  // measure 66
0010
0100
0010
0100
,  // measure 67
0000
1001
0000
0000
1001
0000
0100
0000
,  // measure 68
1000
0011
0001
0100
,  // measure 69
0100
1000
0010
0100
,  // measure 70
0010
0001
0001
1000
,  // measure 71
1000
0010
0100
0010
0001
1000
0100
1000
,  // measure 72
0010
0100
0010
0001
1000
0000
0210
0000
,  // measure 73
0000
0010
0000
0000
0010
0000
0000
0010
,  // measure 74
0000
0310
0001
0110
,  // measure 75
0100
0010
1000
1001
,  // measure 76
0010
1000
0011
0010
,  // measure 77
0001
0100
1100
0001
,  // measure 78
0010
0001
0100
0100
,  // measure 79
1000
0010
0100
0001
,  // measure 80
0010
0001
1000
0100
,  // measure 81
1000
0010
0100
0010
,  // measure 82
0100
2002
0000
0000
,  // measure 83
0000
0000
0000
0000
,  // measure 84
0000
3003
0000
0000
;
