#VERSION:0.83;
#TITLE:FREEDOM DiVE;
#SUBTITLE:;
#ARTIST:Xi remixed by hero_c;
#TITLETRANSLIT:;
#SUBTITLETRANSLIT:;
#ARTISTTRANSLIT:;
#GENRE:;
#ORIGIN:;
#CREDIT:PaperBox440;
#BANNER:FREEDOM DiVE-hero_C mix-.png;
#BACKGROUND:FREEDOM DiVE-hero_C mix--bg.png;
#PREVIEWVID:;
#JACKET:FREEDOM DiVE-hero_C mix-'jacket.png;
#CDIMAGE:;
#DISCIMAGE:;
#LYRICSPATH:;
#CDTITLE:;
#MUSIC:FREEDOM DiVE-hero_C mix-.mp3;
#OFFSET:0.000000;
#SAMPLESTART:28.933334;
#SAMPLELENGTH:11.466667;
#SELECTABLE:YES;
#BPMS:0.000=150.000;
#STOPS:;
#DELAYS:;
#WARPS:;
#TIMESIGNATURES:0.000=4=4;
#TICKCOUNTS:0.000=4;
#COMBOS:0.000=1;
#SPEEDS:0.000=1.000=0.000=0;
#SCROLLS:0.000=1.000;
#FAKES:;
#LABELS:0.000=Song Start;
#BGCHANGES:;
#KEYSOUNDS:;
#ATTACKS:
;

//---------------dance-single - ----------------
#NOTEDATA:;
#CHARTNAME:;
#STEPSTYPE:dance-single;
#DESCRIPTION:;
#CHARTSTYLE:;
#DIFFICULTY:Beginner;
#METER:2;
#RADARVALUES:0.229345,0.397324,0.188082,0.040303,0.000000,239.000000,211.000000,28.000000,6.000000,0.000000,0.000000,0.000000,0.000000,0.000000,0.229345,0.397324,0.188082,0.040303,0.000000,239.000000,211.000000,28.000000,6.000000,0.000000,0.000000,0.000000,0.000000,0.000000;
#CREDIT:;
#NOTES:
0000
0000
0000
0000
,
0000
0000
0000
0000
,
0010
0000
0000
0100
,
0000
0010
0000
1000
,
0000
0001
0000
0100
,
0000
0010
0000
0000
,
0000
1000
0000
0100
,
0000
0010
0000
0001
,
0000
0010
0000
0100
,
0002
0000
0000
0000
0000
0003
0000
0000
,
0000
0010
0000
0100
,
0000
0010
0000
1000
,
0000
0001
0000
0100
,
0000
0010
0000
0001
,
1000
1000
1000
1000
,
1000
0001
0001
0001
,
0001
0010
0100
1000
,
0100
0010
0001
1001
,
0010
0010
0100
0100
,
0010
0001
1000
1000
,
0100
0010
0100
0100
,
0010
0001
1000
0100
,
0010
0010
0100
0000
,
1000
0000
0010
0010
,
0000
0100
0100
0001
,
1000
0100
0010
0000
,
0100
0100
0010
0001
,
0000
1000
0000
0100
,
0000
0010
0000
0001
,
0000
1000
0000
0100
,
0000
0010
0010
0001
,
0000
1000
0000
0100
,
0000
0010
0000
0001
,
0000
1000
1000
1000
,
0010
0100
0000
0100
,
0010
0000
0000
0001
,
0000
1000
0000
0001
,
0000
1000
0000
0010
,
0000
0100
0000
1000
,
0000
0001
0000
0010
,
0000
0010
0000
1000
,
0000
0000
0100
0000
,
1001
0010
0010
0110
,
0000
1000
1000
1001
,
0000
0010
0010
0110
,
0000
1000
1000
1001
,
0000
0010
0100
0110
,
0000
1000
0001
1001
,
0000
0010
0100
1001
,
1000
0100
0010
0110
,
2000
3000
0000
0000
,
0000
0000
0000
0000
,
0000
0000
0000
0000
,
0000
0000
0000
0000
,
0100
0000
0000
0010
,
0010
0000
0000
1000
,
1000
1000
0100
0010
,
0001
1001
1000
1001
,
0110
0001
0000
1000
,
0000
0010
0000
0100
,
0000
0010
0000
1000
,
0000
0100
0000
0010
,
0000
0001
0000
0010
,
0000
0100
0000
1000
,
0000
0100
0000
0010
,
0000
0010
0000
0001
,
1001
1000
0000
0100
,
0000
0010
0000
0001
,
0000
1000
0000
0100
,
0000
0010
0000
0100
,
0000
0001
0000
1000
,
0000
0100
0000
0010
,
0000
0100
0000
0001
,
1000
1000
1000
1000
,
1001
0000
0020
0030
,
0000
0110
0000
1000
,
0000
0010
0000
0100
,
0000
0001
0000
1000
,
0000
0100
0000
0010
,
0000
0100
0000
0001
,
0000
1000
0000
0000
,
0000
0000
0020
0030
,
1001
0010
0000
0100
,
0000
0010
2000
3000
,
1001
0000
0010
0000
,
0110
0000
1001
1001
,
1001
0000
0000
0000
,
0110
0000
0000
0000
,
1001
0000
0010
0010
,
1001
0110
0110
1001
,
2000
0000
0000
0000
,
3000
0000
0000
0000
;

//---------------dance-single - ----------------
#NOTEDATA:;
#CHARTNAME:;
#STEPSTYPE:dance-single;
#DESCRIPTION:;
#CHARTSTYLE:;
#DIFFICULTY:Easy;
#METER:4;
#RADARVALUES:0.352175,0.428475,0.315710,0.396316,0.000000,367.000000,320.000000,47.000000,59.000000,0.000000,0.000000,0.000000,0.000000,0.000000,0.352175,0.428475,0.315710,0.396316,0.000000,367.000000,320.000000,47.000000,59.000000,0.000000,0.000000,0.000000,0.000000,0.000000;
#CREDIT:;
#NOTES:
0000
0000
0000
0000
,
0000
0000
0000
0000
,
0110
1000
1000
0100
,
0100
0010
0010
0001
,
0001
0010
0010
0100
,
0100
1000
1000
0100
,
0010
0010
0001
0001
,
0010
0010
0100
0100
,
1000
1000
0100
0100
,
0012
0000
0003
1000
,
0100
0100
0010
0010
,
0001
0001
0010
0010
,
0100
0100
1000
1000
,
0100
0100
0010
0010
,
1000
0100
0110
0001
,
1001
0100
0110
1000
,
1001
0001
0010
0100
,
1000
0100
0010
0001
,
1000
1000
0100
0100
,
0010
0010
0001
0001
,
1000
1000
0010
0010
,
0100
0100
0001
0010
,
0100
0100
1000
1000
,
0010
0010
0100
0100
,
1000
1000
0001
0001
,
0010
0110
1000
1000
,
0001
0010
0100
0010
,
1000
0100
0010
0010
,
0001
1001
0100
0110
,
1000
1000
0010
0100
,
0110
0010
1000
1000
,
0010
0110
1000
1001
,
0100
1000
0001
0001
,
0100
0100
2000
3000
,
0102
0000
0000
0003
2000
3000
0020
0030
,
0200
0300
2000
3000
0200
0300
0020
0030
,
0002
0003
0020
0030
0200
0000
0000
0300
,
2000
3000
0200
0300
0020
0030
0002
0003
,
0020
0030
0200
0300
2000
0000
0000
0000
,
3001
0000
0020
0030
0200
0000
0000
0300
,
0020
0000
1030
0000
2000
3000
0200
0300
,
0010
0000
0002
0003
2000
3000
0002
0003
,
0110
0000
0000
0000
2000
3000
0200
0300
,
0020
0030
0002
0003
0020
0030
0200
0300
,
2000
3000
0020
0030
0200
0000
0000
0300
,
0002
0003
0020
0030
0200
0300
2000
3000
,
0020
0030
0200
0300
0002
0000
1003
0000
,
0100
0000
0020
0030
2000
3000
0001
0000
,
0020
0030
0200
0300
2000
3000
0200
0300
,
0020
0030
0002
0003
0020
0030
0200
0300
,
2001
0000
0000
0000
,
3000
0000
0000
0000
,
0000
0000
0000
0000
,
0000
0000
0000
0000
,
0000
0000
0000
0000
,
0000
0000
0000
0000
,
0001
0001
0001
0001
,
0010
0000
0110
0000
1000
0000
2002
3003
,
0100
0100
0001
0001
,
0100
0100
0010
0010
,
0100
0100
1000
1000
,
0001
0001
0100
0010
,
0110
0110
1000
1001
,
0010
0110
0001
0001
,
1000
1000
0100
0100
,
0001
1001
0100
0110
,
1000
1001
0010
0010
,
0100
1000
1000
0100
,
0010
0011
1000
1100
,
0010
0010
0001
0001
,
1001
1001
0100
0100
,
0110
0110
0001
1001
,
1000
1000
0001
0001
,
0010
0110
1000
1100
,
0010
0010
0100
0100
,
0001
0001
1000
1001
,
0010
0010
0100
0100
,
0001
0001
0100
0100
,
0110
0110
1000
1000
,
0010
0010
0100
0100
,
0001
0001
1000
1000
,
0100
0100
0012
0013
,
1001
0000
0100
0100
,
0010
0010
1000
1000
,
1001
0001
0010
0110
,
1000
1000
0001
0011
,
0110
0000
1000
1000
,
1001
1001
0010
0110
,
0100
0101
0001
0001
,
1000
1000
0100
0010
,
2001
0000
0000
0000
,
3002
0003
0000
0000
0000
0000
0000
0000
;

//---------------dance-single - ----------------
#NOTEDATA:;
#CHARTNAME:;
#STEPSTYPE:dance-single;
#DESCRIPTION:;
#CHARTSTYLE:;
#DIFFICULTY:Medium;
#METER:9;
#RADARVALUES:0.552732,0.581502,0.517226,0.201517,0.000000,576.000000,499.000000,77.000000,30.000000,0.000000,0.000000,0.000000,0.000000,0.000000,0.552732,0.581502,0.517226,0.201517,0.000000,576.000000,499.000000,77.000000,30.000000,0.000000,0.000000,0.000000,0.000000,0.000000;
#CREDIT:;
#NOTES:
// measure 0
0000
0000
0000
0000
,  // measure 1
0000
0000
0000
0000
0020
0000
0000
0030
,  // measure 2
1001
1000
0010
0110
,  // measure 3
0100
0110
0010
1010
,  // measure 4
1000
1001
0001
0011
,  // measure 5
0010
0000
0110
0000
1000
0001
0100
0010
,  // measure 6
0100
1001
0001
0011
,  // measure 7
0010
0110
0100
1100
,  // measure 8
1000
1001
0010
0110
,  // measure 9
1002
0000
1000
0000
1003
0010
1000
0100
,  // measure 10
0010
0110
1000
1001
,  // measure 11
0010
1010
1000
1100
,  // measure 12
0100
0110
0010
0011
,  // measure 13
0001
0000
1001
0000
1000
0010
0100
0010
,  // measure 14
0001
0000
0011
0000
0010
0000
0110
1000
,  // measure 15
0100
1100
0010
1010
,  // measure 16
2000
3000
0200
0300
0020
0030
0002
0003
,  // measure 17
0020
0030
0200
0300
2000
3000
0200
0300
,  // measure 18
0010
0000
0110
0000
1000
1000
0000
0001
,  // measure 19
0001
0100
1000
0010
0010
0000
1000
0000
,  // measure 20
0100
0100
0010
0000
1000
1000
0001
0000
,  // measure 21
0010
0010
1000
0100
0010
0100
0010
0001
,  // measure 22
1000
1100
0100
0000
0010
1010
0000
0100
,  // measure 23
0110
0000
0001
1000
0010
0000
0001
0100
,  // measure 24
0000
0100
0010
0010
1000
0100
1000
0000
,  // measure 25
0001
0010
0100
0010
0100
0010
0001
0010
,  // measure 26
1000
0010
1100
0000
0010
0000
1010
0000
,  // measure 27
0001
0101
0000
0010
1000
0000
1000
0100
,  // measure 28
0100
0010
0000
0001
0100
0100
0010
0000
,  // measure 29
1000
0000
1100
0000
0010
1000
0010
0001
,  // measure 30
0010
0100
0100
0000
1000
0010
1000
0100
,  // measure 31
1000
0001
0001
0000
0010
0010
0100
0000
,  // measure 32
0001
0010
0100
1000
1000
0001
0010
0001
,  // measure 33
1000
0100
0100
0001
0010
1000
1000
0000
,  // measure 34
1001
0000
0020
0130
1000
0000
1100
0001
,  // measure 35
0100
1000
0110
0000
0010
0100
0011
0000
,  // measure 36
0001
0010
1001
0000
2000
0000
0000
0000
,  // measure 37
3010
0000
0110
1000
0100
0010
0101
0000
,  // measure 38
0001
1001
2200
3300
,  // measure 39
0010
0001
2000
3000
0200
0000
0300
0010
,  // measure 40
0020
0130
1000
1000
,  // measure 41
1010
0110
0100
0101
,  // measure 42
0022
0033
0000
0000
1000
0000
1100
0000
,  // measure 43
0100
0000
0110
0000
0010
0000
0011
1000
,  // measure 44
1100
0010
2020
3030
,  // measure 45
0200
0310
0011
0001
,  // measure 46
1001
0000
1000
0000
2200
0000
3300
0001
,  // measure 47
0010
0000
1000
0000
2200
0000
3300
0001
,  // measure 48
0010
1000
1100
0100
,  // measure 49
0110
0010
0011
0001
,  // measure 50
2000
3001
0010
0010
0100
1000
0001
0010
,  // measure 51
0100
0010
1000
0100
1000
0001
0001
0010
,  // measure 52
0100
0010
1000
1000
0100
0010
0001
0001
,  // measure 53
0100
0100
1000
0010
0001
0100
0100
0010
,  // measure 54
1000
0100
1000
0001
0100
0010
0010
0001
,  // measure 55
1000
1000
0100
0010
0010
0001
1000
1000
,  // measure 56
1000
0010
0010
0010
1001
0000
1000
0000
,  // measure 57
1000
0010
0110
0001
0011
1000
1100
0000
,  // measure 58
0010
0010
0100
0000
1000
1000
0000
0001
,  // measure 59
0010
0100
0100
0000
0001
0001
0000
0100
,  // measure 60
0100
0010
0000
1000
1000
0001
0000
0010
,  // measure 61
0010
1000
1000
0001
0010
0100
0010
0001
,  // measure 62
1000
1000
0011
0000
0010
0010
0000
0000
,  // measure 63
0100
0100
0000
0010
0001
0001
0000
0100
,  // measure 64
1000
1000
0010
0000
0001
0001
0000
0010
,  // measure 65
0000
0100
0100
0000
1000
1000
0000
0010
,  // measure 66
0010
0000
0000
0000
,  // measure 67
0000
0000
0000
0000
0001
0010
0001
0100
,  // measure 68
1000
1000
0001
0000
0010
0010
0000
0100
,  // measure 69
0100
0010
1001
0000
0100
0100
0100
0001
,  // measure 70
0010
0000
0110
0000
1000
1000
1000
0100
,  // measure 71
0010
0000
0110
0000
0001
0000
0011
0100
,  // measure 72
0100
1000
0010
0000
0001
0001
0010
0100
,  // measure 73
1000
1000
1000
1000
0100
0100
0100
0100
,  // measure 74
0000
0010
0110
0001
1001
0000
0100
0100
,  // measure 75
0000
0010
0010
0000
1000
0000
1000
0001
,  // measure 76
0010
0001
0000
0100
0100
0010
0001
1000
,  // measure 77
0001
0001
0000
0010
0001
0100
0010
0100
,  // measure 78
1000
0010
0010
0000
0100
0100
0000
0001
,  // measure 79
0010
0010
0000
1000
1000
1001
0000
0010
,  // measure 80
0010
0100
0000
0001
0001
0000
0001
0100
,  // measure 81
0100
0010
1001
0000
0100
0100
1000
0010
,  // measure 82
0000
0100
0100
0000
0010
1000
0001
0100
,  // measure 83
0100
0010
0001
0000
1000
1000
0010
0100
,  // measure 84
0000
0001
0011
0000
1000
1100
0000
0010
,  // measure 85
0010
0100
0000
0001
1000
0000
0010
0010
,  // measure 86
0010
0001
1001
0000
0100
0100
0100
0000
,  // measure 87
0010
1010
0000
0100
0110
0010
0000
0001
,  // measure 88
0001
0000
0100
0010
0010
1000
1000
0001
,  // measure 89
0001
0100
0010
0010
1000
0010
1000
0010
,  // measure 90
2002
0000
0000
0003
,  // measure 91
3002
0003
0000
0000
0000
0000
0000
0000
;

//---------------dance-single - ----------------
#NOTEDATA:;
#CHARTNAME:;
#STEPSTYPE:dance-single;
#DESCRIPTION:;
#CHARTSTYLE:;
#DIFFICULTY:Hard;
#METER:15;
#RADARVALUES:0.678440,0.733521,0.967280,0.429902,0.127627,707.000000,563.000000,144.000000,64.000000,0.000000,0.000000,0.000000,0.000000,0.000000,0.678440,0.733521,0.967280,0.429902,0.127627,707.000000,563.000000,144.000000,64.000000,0.000000,0.000000,0.000000,0.000000,0.000000;
#CREDIT:;
#NOTES:
// measure 0
0000
0000
0000
0000
,  // measure 1
0000
0000
0020
0030
,  // measure 2
0001
0101
0001
1001
,  // measure 3
1000
1010
0010
0110
,  // measure 4
0100
0101
0001
0011
,  // measure 5
0001
0000
0000
0000
1001
0000
0000
0000
1000
0000
0010
0000
0100
0001
1000
0000
,  // measure 6
0100
0110
0010
1010
,  // measure 7
1000
1001
0001
0011
,  // measure 8
0010
1010
1000
1100
,  // measure 9
0210
0000
0000
0000
0010
0000
0000
0000
0310
0000
0001
0000
1000
0010
0100
0000
,  // measure 10
0001
1001
1000
1100
,  // measure 11
0100
0110
0010
0011
,  // measure 12
0001
1001
1000
1100
,  // measure 13
0100
0000
0000
0000
0110
0000
0000
0000
1000
0000
0000
0000
0100
0010
0100
0000
,  // measure 14
0001
1001
1100
1010
,  // measure 15
0110
0101
0011
1001
,  // measure 16
2200
3300
2020
3030
0220
0330
0202
0303
,  // measure 17
0022
0033
2002
3003
2200
3300
2020
3030
,  // measure 18
0100
0000
0100
0000
0110
0000
0000
0000
0001
0100
1000
0000
0001
0000
0010
0000
,  // measure 19
0010
0000
0000
0000
0011
0000
0000
0100
0000
0000
1000
0000
1000
0000
0010
0001
,  // measure 20
0010
0000
0110
0000
1000
1000
1001
0000
,  // measure 21
0010
0100
0010
0000
0000
0000
1000
0100
1000
0000
0010
0000
0010
0000
0000
0000
,  // measure 22
1001
1000
1001
0010
1010
1000
0000
0100
,  // measure 23
0100
0001
0011
0000
1000
1000
1100
0000
,  // measure 24
0010
0010
0001
1000
1000
1001
0000
0010
,  // measure 25
0100
0010
0100
0001
1000
0001
0010
0001
,  // measure 26
0100
0010
0100
0010
1100
0000
1001
0010
,  // measure 27
0010
0000
1000
0000
1001
0000
0100
0010
0000
0000
0010
0100
0000
1000
0100
0000
,  // measure 28
0010
0110
0000
0001
1000
1001
0000
0010
,  // measure 29
0100
0000
1000
0000
1000
0000
0100
0010
0000
0001
0000
0010
0000
1000
0100
0000
,  // measure 30
0010
0000
1010
0000
0001
0000
0100
0001
0000
0000
0010
0100
0000
1000
0001
0000
,  // measure 31
0100
0110
0000
0001
1001
1000
0100
0010
,  // measure 32
0110
0000
0001
0000
0001
0000
0100
0000
1000
0000
0000
0000
0100
0000
0000
0010
,  // measure 33
0000
0000
0000
0000
0000
0000
0010
0000
0000
1000
0000
0000
0100
0000
0000
0000
0000
0000
1000
0000
0000
0000
0000
0000
0001
0000
0000
0010
0000
0000
0100
0000
0000
0000
0000
0000
0000
0000
0000
0000
0100
0000
0000
0000
0000
0000
0000
0000
,  // measure 34
0002
0000
0000
0000
0000
0000
0000
0000
0000
0003
0000
0000
1020
0000
0030
0000
0000
0000
0102
0000
0003
0000
0000
0000
,  // measure 35
2100
3000
0000
0010
0000
0000
1000
0000
0000
1001
0000
0000
,  // measure 36
0210
0000
0300
0000
0000
0000
2001
0000
3000
0000
0000
0000
0012
0000
0000
0000
0000
0000
0100
0000
0000
0003
0000
0000
,  // measure 37
2100
0000
3020
0030
1002
0003
1200
0300
,  // measure 38
1002
0003
2100
3000
0012
0000
0003
0010
,  // measure 39
0100
0000
0000
2001
3000
0000
0201
0000
0000
1300
0000
0000
,  // measure 40
1000
0000
0021
0030
0100
0000
2001
3000
,  // measure 41
0021
0000
0000
0030
0000
0000
0100
0000
0000
0000
0000
0000
1020
0000
0030
0000
0000
0000
1002
0000
0003
0000
0000
0000
,  // measure 42
0220
0300
1030
0000
0102
0003
2100
3000
,  // measure 43
0010
0000
1200
0300
0021
0030
0001
0000
,  // measure 44
0210
0300
1002
0003
2100
0000
3010
0000
,  // measure 45
0102
0003
2100
3000
0021
0030
1200
0300
,  // measure 46
2001
3000
0010
0000
0020
0000
1030
0000
,  // measure 47
0100
0100
0002
0003
1020
0000
1030
0000
,  // measure 48
0010
0000
0001
0000
1200
0300
1010
0000
,  // measure 49
0012
0003
0120
0030
2100
3000
0210
0300
,  // measure 50
0011
0000
1000
0000
1000
0000
0100
0001
0100
0000
0010
0001
0010
0000
1000
0000
,  // measure 51
0100
0010
1000
0000
0001
0000
0001
0000
0010
1000
0100
0000
0010
0000
1000
0100
,  // measure 52
1000
0001
1000
0000
0010
0000
0100
1000
0100
0000
0001
0000
1000
0000
0010
0001
,  // measure 53
0010
0000
0100
0000
0001
0000
1000
0100
1000
0000
0010
0000
0100
0010
0001
0000
,  // measure 54
1000
0000
1000
0000
0100
0000
0010
0000
0001
1000
0001
0000
0110
0000
0000
0000
,  // measure 55
0011
0000
0100
0000
1000
0010
1000
0000
0100
0000
1000
0000
0010
0001
0100
0000
,  // measure 56
1000
1000
1100
0100
0110
0010
0011
1000
,  // measure 57
1001
0000
0000
0000
0110
0000
0100
0000
0110
0000
2000
0000
0000
3000
0000
0000
,  // measure 58
0001
0001
1100
0010
0010
0001
0110
0100
,  // measure 59
0010
1000
1100
0001
0010
0010
0110
0001
,  // measure 60
1000
1000
1001
0010
0100
0001
1010
0100
,  // measure 61
0100
0000
0010
0000
1000
0000
0100
0000
0001
0010
0100
0000
0010
1000
0000
0000
,  // measure 62
0100
0110
0000
1001
0001
0010
0100
0001
,  // measure 63
1000
1000
0010
0100
1000
0001
0101
1000
,  // measure 64
0100
0010
0110
0001
0001
1000
1010
0100
,  // measure 65
0001
0010
1010
0001
0100
0010
0110
0000
,  // measure 66
0001
1001
0000
0100
0001
0010
0100
0000
,  // measure 67
0010
0000
0100
0000
1000
0000
0000
0000
1000
0000
0001
0100
0010
0000
0100
0000
,  // measure 68
0010
1010
0001
0001
0100
0110
0000
1000
,  // measure 69
1000
0010
1001
0000
0100
0010
0100
0010
,  // measure 70
0100
1001
1001
0000
1000
0001
1000
0001
,  // measure 71
1000
0110
0110
0000
0001
0001
0010
1000
,  // measure 72
0100
0100
0010
0000
0001
0001
1000
1000
,  // measure 73
0010
0010
0010
0010
0100
0100
0100
0100
,  // measure 74
0001
1001
0000
0010
0100
0110
0000
0001
,  // measure 75
1000
1100
0000
0010
0010
1000
0100
1000
,  // measure 76
0001
0010
1001
0100
0010
0100
0011
0001
,  // measure 77
1000
0100
1100
0000
0011
0001
0110
0100
,  // measure 78
1000
0010
1010
0000
0100
0110
0000
0001
,  // measure 79
0001
1000
0001
0010
0100
0001
0000
0100
,  // measure 80
0010
0010
1000
0100
1000
0001
0001
0000
,  // measure 81
0100
0010
1000
0100
0100
0001
0000
0010
,  // measure 82
0010
0000
0010
0100
1000
0000
1000
0100
,  // measure 83
0010
0010
0001
1000
0100
0100
0010
0001
,  // measure 84
1000
1100
0010
0100
0000
0010
0011
0000
,  // measure 85
1000
1000
0010
0100
0100
0010
0001
1000
,  // measure 86
0100
0010
0110
0000
0001
0010
0100
1000
,  // measure 87
0001
1001
0000
0010
0110
0100
0001
0001
,  // measure 88
1000
0100
0100
0010
0010
0001
1000
0100
,  // measure 89
0010
0001
1100
0100
0110
0010
0011
0001
,  // measure 90
2002
0000
0000
0003
,  // measure 91
3001
0000
0000
0000
;
