#VERSION:0.83;
#TITLE:Elemental Creation;
#SUBTITLE:-xiRemix-;
#ARTIST:xi;
#TITLETRANSLIT:;
#SUBTITLETRANSLIT:;
#ARTISTTRANSLIT:;
#GENRE:;
#ORIGIN:;
#CREDIT:PaperBox440;
#BANNER:Elemental Creation -xiRemix-.png;
#BACKGROUND:Elemental Creation -xiRemix--bg.png;
#PREVIEWVID:;
#JACKET:Elemental Creation -xiRemix--jacket.png;
#CDIMAGE:;
#DISCIMAGE:;
#LYRICSPATH:;
#CDTITLE:;
#MUSIC:Elemental Creation -xiRemix-.mp3;
#OFFSET:0.000000;
#SAMPLESTART:20.578512;
#SAMPLELENGTH:15.619837;
#SELECTABLE:YES;
#BPMS:0.000=242.000,
230.000=241.000,
231.000=240.000,
232.000=239.000,
233.000=238.000,
234.000=237.000,
235.000=236.000,
236.000=235.000,
237.000=234.000,
238.000=233.000,
239.000=232.000,
240.000=231.000,
241.000=230.000,
242.000=229.000,
243.000=228.000,
244.000=227.000,
245.000=226.000,
246.000=225.000,
247.000=224.000,
248.000=223.000,
249.000=222.000,
250.000=221.000,
283.000=222.000,
285.000=221.000,
300.000=222.000,
302.000=223.000,
304.000=224.000,
307.000=225.000,
315.000=230.000,
322.000=232.000,
330.000=234.000,
338.000=236.000,
341.500=221.000,
362.000=222.000,
368.000=225.000,
393.000=242.000;
#STOPS:;
#DELAYS:;
#WARPS:;
#TIMESIGNATURES:0.000=4=4;
#TICKCOUNTS:0.000=4;
#COMBOS:0.000=1;
#SPEEDS:0.000=1.000=0.000=0;
#SCROLLS:0.000=1.000;
#FAKES:;
#LABELS:0.000=Song Start;
#BGCHANGES:;
#KEYSOUNDS:;
#ATTACKS:
;

//---------------dance-single - ----------------
#NOTEDATA:;
#CHARTNAME:;
#STEPSTYPE:dance-single;
#DESCRIPTION:;
#CHARTSTYLE:;
#DIFFICULTY:Hard;
#METER:18;
#RADARVALUES:0.954792,1.122471,0.868529,0.397042,0.661737,808.000000,703.000000,105.000000,48.000000,0.000000,0.000000,0.000000,0.000000,0.000000,0.954792,1.122471,0.868529,0.397042,0.661737,808.000000,703.000000,105.000000,48.000000,0.000000,0.000000,0.000000,0.000000,0.000000;
#CREDIT:;
#NOTES:
// measure 0
0000
0000
0000
0000
,  // measure 1
0001
0000
0010
0000
0100
0000
1000
0000
0000
1001
0000
0000
0000
0000
0000
0000
0000
0000
0000
0000
0000
0000
0000
0000
,  // measure 2
0001
1001
0000
0000
0000
0000
0000
0000
,  // measure 3
0000
0000
0000
1000
1001
0000
0000
0000
,  // measure 4
0000
0000
0100
0000
0110
0000
0000
0000
0000
0000
0001
0010
0100
1000
0000
0000
,  // measure 5
0000
1000
0000
1000
0000
0000
0001
0000
1001
0000
0000
0000
0000
0000
0100
0000
,  // measure 6
0110
0000
0000
1000
1001
0000
1000
1000
,  // measure 7
0001
0001
0001
0000
1100
0000
1010
0000
,  // measure 8
0110
0000
0011
0000
1000
0001
1000
0000
,  // measure 9
1001
0000
0002
0000
0000
0000
0003
2000
,  // measure 10
0000
0000
3001
0000
1000
0001
1000
0001
,  // measure 11
1000
0100
0010
0001
0200
0000
0300
0000
,  // measure 12
0001
0010
1000
0000
1001
0000
0000
0100
,  // measure 13
0220
0000
0000
0000
0000
0330
0000
0001
,  // measure 14
1000
1001
0000
0110
0000
0000
1001
0000
,  // measure 15
2000
0000
3001
0000
0002
0000
0013
0010
,  // measure 16
0100
0000
1000
0000
1000
0000
0001
0000
0010
0000
0100
0000
0100
1000
0000
0000
,  // measure 17
1000
0001
0000
0010
0001
0000
0100
0000
0100
0000
0010
0000
0000
0010
1000
0000
,  // measure 18
0100
1000
0000
0001
0000
0000
0001
0000
0000
0010
0100
0000
0010
0100
0000
0010
,  // measure 19
0100
1100
1010
1001
,  // measure 20
0001
0000
1001
0000
0010
0100
1000
0000
,  // measure 21
1000
0000
0001
0000
0010
0000
0001
0000
0100
0010
0100
0000
1000
0000
1000
0000
,  // measure 22
0001
0000
0010
0000
0100
0000
0000
1000
0100
0000
0001
0000
0010
0000
0001
0000
,  // measure 23
1000
1000
0010
0100
0001
0001
0100
0000
,  // measure 24
0001
0000
0001
1000
0100
1000
0010
0000
0000
0010
0100
0000
0100
0001
0010
0000
,  // measure 25
0000
1000
1000
0001
0110
0010
1100
1000
,  // measure 26
0011
0000
0000
0000
0001
0000
1100
0000
0100
0000
0001
0000
0001
1000
0000
0000
,  // measure 27
1000
0000
0100
0010
0100
0001
0000
0000
0001
0000
1000
0000
0100
0000
1000
0000
,  // measure 28
0011
0001
0110
0100
1010
0001
2100
0000
,  // measure 29
3000
0000
0100
0000
0010
0000
0010
0000
1000
0100
1000
0001
0000
0000
0001
0010
,  // measure 30
0000
0100
0010
0000
0100
0000
0000
0000
2002
0000
3003
0000
0010
0000
1000
0000
,  // measure 31
2200
0000
3300
0000
0010
0000
0010
0001
0000
0000
0001
0000
0100
1000
0000
0100
,  // measure 32
1000
0000
0010
0001
0000
0000
0001
0000
1000
0000
0001
0000
0010
0000
0001
0000
,  // measure 33
1000
0000
0000
1000
0000
0100
0000
0100
0000
0001
0010
0000
0001
0000
0100
1000
,  // measure 34
0000
0000
1000
0000
0001
0000
0000
0010
0100
0010
0100
0001
0000
0000
0001
0000
,  // measure 35
2200
3300
0000
0110
1000
0100
0011
1000
,  // measure 36
0010
1100
0002
0000
0003
1000
1000
0001
,  // measure 37
0010
0100
0010
1000
1000
0010
0100
0001
,  // measure 38
0001
1000
0000
1000
0001
0000
1001
0100
,  // measure 39
0010
0000
0100
0000
1000
0000
1000
0100
0001
0000
0000
0000
1001
0000
0100
0010
,  // measure 40
0000
0000
0100
0000
0010
0000
1000
0000
0100
0000
1000
0000
0001
0010
0000
0010
,  // measure 41
0001
0100
0000
0001
0010
0100
0000
0100
,  // measure 42
0001
0010
0001
0000
1100
0000
1001
0000
,  // measure 43
0011
0000
1000
1000
0100
0100
0000
0001
,  // measure 44
0010
0000
1001
0000
0001
1000
0001
0100
,  // measure 45
0010
0001
0100
0000
1000
0010
1000
0000
0001
0000
0010
0000
0100
1000
0100
0000
,  // measure 46
0001
0000
1000
0000
0100
0010
1000
0000
0001
0000
0001
1000
0100
0000
0010
0000
,  // measure 47
0100
0000
1000
1000
1000
0001
0001
0001
,  // measure 48
0010
0100
1000
0000
1000
0000
0100
0010
0000
0010
0000
0001
0100
0000
1000
0000
,  // measure 49
1000
0010
0000
0000
0010
0001
0100
0000
0000
0100
1000
0000
0010
0000
0010
0000
,  // measure 50
1000
0001
1000
0010
1100
0000
0110
0000
,  // measure 51
1100
0000
0000
0000
1001
0000
0100
0000
0000
0100
0000
1000
0000
0000
1000
0001
,  // measure 52
0010
0001
0100
0000
0000
0100
0000
0000
1001
0000
0000
0000
0010
0000
1000
0100
,  // measure 53
0000
0100
0010
0000
0000
0010
0001
0000
2200
0000
0000
0000
0000
0000
0000
0000
,  // measure 54
3300
0000
0000
0000
0011
0022
0000
0000
,  // measure 55
0033
0000
1001
2002
0000
0000
0000
0000
,  // measure 56
3003
0000
0110
0220
0000
0000
0330
0000
,  // measure 57
1000
0001
1000
0000
2000
0000
0000
0000
,  // measure 58
0000
0000
3000
0000
0100
0110
1010
0000
,  // measure 59
0000
0001
1000
1001
0000
0000
0001
0010
,  // measure 60
0100
0000
1000
1000
0000
0001
0000
0001
,  // measure 61
1000
1001
0000
0101
,  // measure 62
0000
0000
1000
0000
0000
0001
0010
0100
,  // measure 63
1000
1000
0100
0001
0001
0100
1000
0000
,  // measure 64
0002
0000
0000
0000
,  // measure 65
0000
0000
0000
2003
,  // measure 66
0000
0000
0000
0000
,  // measure 67
0000
0000
3200
0000
,  // measure 68
0000
0000
0000
0000
,  // measure 69
0000
0000
0302
0000
,  // measure 70
0000
0000
0000
0000
0003
0000
1000
0001
,  // measure 71
1000
2002
0000
3003
,  // measure 72
1100
0000
0000
0000
0010
0100
0010
0000
1000
0000
0100
0000
0001
0000
0010
0000
,  // measure 73
1000
2002
0000
0000
,  // measure 74
0000
0000
0000
3003
,  // measure 75
1001
0000
0000
0000
0110
0000
0001
0100
,  // measure 76
1000
0000
0000
0000
1000
0001
1000
0001
1000
0000
0000
0000
2002
0000
0000
0000
,  // measure 77
0000
0000
0000
0000
0000
0000
3003
0100
,  // measure 78
0100
0010
0001
1000
1000
0010
0220
0000
,  // measure 79
0000
0000
0330
1001
1001
0000
0000
0000
,  // measure 80
0010
0100
1000
0010
0100
1000
0000
0000
0220
0000
0000
0000
0000
0000
0000
0000
,  // measure 81
0330
0000
0000
0000
1001
0000
1001
0000
0000
0000
0000
0000
0000
0000
0010
0100
,  // measure 82
0001
0000
0010
0100
0001
0000
0000
0000
1001
0000
0000
0000
1001
0000
0000
0000
,  // measure 83
1100
1100
1010
1010
,  // measure 84
1001
0000
0000
0000
0100
0000
0000
0000
0110
0000
0000
0100
0000
0000
0100
0000
,  // measure 85
0010
1000
0001
1000
0001
0000
1000
0000
0100
0000
0001
0000
0001
0000
0010
0100
,  // measure 86
1000
0000
0010
0100
1000
0000
0000
0000
1001
0000
0000
0000
1000
0001
1000
0001
,  // measure 87
1000
0001
0000
0000
0010
0100
1000
0010
0100
1000
0000
0000
0001
0100
0001
0100
,  // measure 88
0001
0000
0000
0000
2002
0000
0000
0000
3003
0000
0100
0000
1000
0001
0000
0010
,  // measure 89
0000
0010
0100
0000
0000
0100
0001
0010
0001
1000
0000
0000
2000
0000
0000
0000
,  // measure 90
0000
3001
0010
0100
0000
0010
0100
0000
1001
0000
0000
0000
0100
0000
0010
0000
,  // measure 91
0000
0010
0000
0100
1000
0001
0000
0000
0001
0000
0000
0000
1100
0000
1010
0000
,  // measure 92
0001
0000
0000
0000
0100
0010
0000
0000
0001
1000
0000
0000
0100
0010
0000
0000
,  // measure 93
1000
0001
0000
0000
0100
0010
0000
0000
1000
0000
0001
0000
1000
0000
0010
0100
,  // measure 94
0010
0000
0001
0000
0000
0001
1000
0100
1000
0000
0010
0000
0010
0100
0000
0001
,  // measure 95
1000
0000
1000
0001
0010
0001
0000
0100
0000
0100
0000
0000
1010
0000
0000
0000
,  // measure 96
1100
0000
0001
1000
0100
1000
0010
0000
,  // measure 97
0010
0000
1100
0100
1001
0001
0000
0000
,  // measure 98
1000
0000
0000
0000
1001
0000
0000
0000
0100
0000
0000
0100
0010
0000
0001
1000
,  // measure 99
0001
0000
0100
0000
0000
0100
0010
0000
1000
0100
1000
0000
0001
0000
0000
0001
,  // measure 100
0100
0000
0010
1000
0000
0000
1000
0001
0000
0010
0001
1000
0000
1000
0100
0000
,  // measure 101
0010
0000
0100
0000
0000
0100
0001
0000
0001
1000
0100
1000
0000
0010
0000
0010
,  // measure 102
0100
0000
0001
0000
0001
1000
0100
1000
0000
0010
0000
0010
0100
0100
0001
0000
,  // measure 103
1000
0000
0000
1000
0100
0000
0001
0000
1001
0000
0000
1000
0000
0010
0000
0100
,  // measure 104
0000
0001
0000
0001
0000
1000
0000
1000
0010
0000
0000
0010
0100
0000
0000
0000
,  // measure 105
1100
0000
0000
0000
1010
0000
0000
0000
1001
0000
0001
0000
0100
0010
0000
0000
,  // measure 106
0010
0000
1000
0100
1000
0000
0001
0000
0001
0100
0000
0000
0100
0010
0000
0000
,  // measure 107
0010
0000
1000
0100
1000
0000
0001
0000
0001
0000
0000
0000
1010
0000
0000
0000
,  // measure 108
1100
0000
0000
0000
2002
0000
0000
0000
3003
0000
0000
0100
0000
0001
0000
0000
,  // measure 109
0001
0000
0100
0000
1000
0000
1000
0000
0001
0010
0100
0001
0010
0100
0000
0000
,  // measure 110
1000
0000
0001
0000
0000
0001
0000
0000
0010
0000
0100
0000
0100
0001
0000
0000
,  // measure 111
1001
0000
0000
0000
0100
0000
0001
0010
0001
1000
0000
0000
1000
0010
0000
0000
,  // measure 112
0010
0100
0000
0000
0100
0001
1000
0001
1000
0000
0000
0000
1100
0000
1100
0000
,  // measure 113
0000
0001
1001
0010
0100
0000
1001
1001
,  // measure 114
0000
0010
0100
0010
0000
0100
0100
0000
,  // measure 115
2002
0000
0000
0000
3003
0000
1100
1100
,  // measure 116
0010
0000
0010
0000
0100
0001
1000
0001
2000
0000
0000
0000
3000
0000
0000
0000
,  // measure 117
2002
0000
0000
0000
,  // measure 118
3003
0000
0000
0000
;
