#VERSION:0.83;
#TITLE:ENDYMION;
#SUBTITLE:-Full Version-;
#ARTIST:fallen shepherd ft. RabbiTon Strings;
#TITLETRANSLIT:;
#SUBTITLETRANSLIT:;
#ARTISTTRANSLIT:;
#GENRE:;
#ORIGIN:;
#CREDIT:;
#BANNER:ENDYMION -Full Version-.png;
#BACKGROUND:ENDYMION -Full Version--bg.png;
#PREVIEWVID:;
#JACKET:ENDYMION -Full Version--jacket.png;
#CDIMAGE:;
#DISCIMAGE:;
#LYRICSPATH:;
#CDTITLE:cdtitle.png;
#MUSIC:ENDYMION -Full Version-.mp3;
#OFFSET:0.000000;
#SAMPLESTART:107.250000;
#SAMPLELENGTH:23.318176;
#SELECTABLE:YES;
#BPMS:0.000=220.000,
14.000=440.000,
29.000=220.000,
33.000=440.000,
42.000=220.000,
48.000=440.000,
52.000=220.000,
59.000=110.000,
67.000=220.000,
74.000=330.000,
80.000=440.000,
185.000=880.000,
214.000=220.000,
222.000=440.000,
366.000=120.000,
464.000=220.000,
504.000=440.000,
613.000=220.000,
620.000=440.000,
624.000=220.000,
645.000=120.000,
647.500=90.000,
648.000=120.000,
658.000=220.000,
670.000=120.000,
672.000=220.000,
684.000=440.000,
693.000=220.000,
747.000=440.000,
752.000=220.000,
755.000=440.000,
764.000=220.000,
776.000=880.000,
794.000=220.000,
849.000=120.000,
851.500=220.000,
872.000=440.000,
887.000=220.000,
891.000=120.000,
893.000=880.000,
1008.000=440.000,
1080.000=220.000,
1113.000=110.000,
1117.000=440.000,
1238.000=220.000,
1244.500=440.000;
#STOPS:52.000=0.100,
67.000=0.100,
69.000=0.100,
71.000=0.100,
73.000=0.100,
617.000=0.100,
618.000=0.100,
619.000=0.100,
629.000=0.100;
#DELAYS:;
#WARPS:;
#TIMESIGNATURES:0.000=4=4;
#TICKCOUNTS:0.000=4;
#COMBOS:0.000=1;
#SPEEDS:0.000=1.000=0.000=0;
#SCROLLS:0.000=1.000;
#FAKES:;
#LABELS:0.000=Song Start;
#BGCHANGES:;
#KEYSOUNDS:;
#ATTACKS:
;

//---------------dance-single - ----------------
#NOTEDATA:;
#CHARTNAME:;
#STEPSTYPE:dance-single;
#DESCRIPTION:;
#CHARTSTYLE:;
#DIFFICULTY:Hard;
#METER:18;
#RADARVALUES:0.843544,1.942128,0.626617,0.668904,0.297931,1536.000000,1373.000000,163.000000,174.000000,0.000000,0.000000,0.000000,0.000000,0.000000,0.843544,1.942128,0.626617,0.668904,0.297931,1536.000000,1373.000000,163.000000,174.000000,0.000000,0.000000,0.000000,0.000000,0.000000;
#CREDIT:;
#NOTES:
// measure 0
0000
0000
0000
0000
,  // measure 1
0000
0000
0000
0000
0010
0100
0010
0100
,  // measure 2
0010
1000
0000
1000
0001
0010
1000
0100
,  // measure 3
0001
0010
1000
0100
0002
0000
0010
0000
,  // measure 4
0100
1000
0010
0100
,  // measure 5
0010
0010
0100
1000
,  // measure 6
0010
0000
2003
0000
,  // measure 7
3000
1001
0011
0110
,  // measure 8
1100
0010
0100
0010
,  // measure 9
0010
0001
1000
0100
,  // measure 10
0010
0001
0001
1100
,  // measure 11
0010
0000
0100
0000
0010
0000
0100
0000
1000
0001
1000
0000
0010
0000
0100
0000
,  // measure 12
0002
0000
0000
0000
,  // measure 13
1003
1100
0110
1010
,  // measure 14
0110
0000
1000
0000
1001
0000
0001
0000
0100
0000
0100
0000
0010
0000
0100
0010
,  // measure 15
0100
1000
1000
0001
0001
0010
0100
0100
0010
1000
1000
0100
0100
0001
0001
0010
,  // measure 16
0100
0100
0100
0010
1000
1000
1000
0001
0001
0010
1000
0000
0110
0000
0001
0000
,  // measure 17
0001
0000
1010
0100
0100
0000
0101
0010
,  // measure 18
0010
0000
0110
0000
1000
0001
0000
0001
,  // measure 19
0010
0100
0000
0100
0010
1000
0000
1000
,  // measure 20
0220
0000
0000
0000
0000
0000
0000
0330
,  // measure 21
2020
0000
0000
0000
,  // measure 22
3030
0000
0100
0010
0100
0010
0100
0010
,  // measure 23
0100
0010
0000
0001
0100
0001
0100
0001
,  // measure 24
1000
0001
1000
0001
0100
0000
0100
0000
,  // measure 25
0010
0010
1000
1000
,  // measure 26
0001
0000
0001
0010
0100
0010
0000
1000
,  // measure 27
0000
1000
0100
0001
0010
0000
0010
0000
,  // measure 28
0010
0100
1100
0110
,  // measure 29
0011
1001
2200
0000
,  // measure 30
3300
0000
0001
0100
0001
0100
0001
1000
,  // measure 31
0001
1000
0001
0000
1000
0000
0100
0010
,  // measure 32
0100
0000
0010
1000
0010
0000
0100
0000
,  // measure 33
0001
1000
0001
0000
1000
0100
0000
0020
,  // measure 34
0230
0320
0230
0300
0000
0000
2002
3003
,  // measure 35
0000
0000
0020
0030
0200
0300
0002
2003
,  // measure 36
3002
2003
3000
0000
0220
0330
0000
0000
,  // measure 37
2000
3002
0023
0230
0320
0030
0000
0000
,  // measure 38
0000
1010
0010
0110
,  // measure 39
0100
0101
0001
1001
,  // measure 40
1000
0000
1100
0000
0010
0100
0010
0100
,  // measure 41
0010
0100
0001
1000
0001
1000
0001
0000
,  // measure 42
0001
0010
0100
0010
1000
0000
1100
0000
,  // measure 43
0010
0000
0110
0000
0100
0001
1000
0001
,  // measure 44
0000
0020
0230
0300
0000
0200
0300
2000
,  // measure 45
3000
2000
3000
0020
0000
0000
0000
0000
,  // measure 46
0030
1001
0000
0000
,  // measure 47
1010
0000
0000
0110
,  // measure 48
0000
1000
0000
1010
,  // measure 49
0000
0010
0000
0011
,  // measure 50
0000
0000
0110
0000
,  // measure 51
0000
1100
0000
0000
,  // measure 52
1010
0000
0000
0110
,  // measure 53
0000
0000
0000
0000
0001
1000
0001
1000
,  // measure 54
0001
1000
0010
0000
0010
0100
0100
0010
,  // measure 55
0001
1000
1000
0000
1001
0000
0000
0000
,  // measure 56
0011
0000
0010
0100
,  // measure 57
0010
0100
1000
1000
,  // measure 58
1010
0001
0001
1001
,  // measure 59
0100
0100
0220
0330
,  // measure 60
2020
3030
0100
0001
,  // measure 61
0001
0000
0010
0000
0100
0000
1000
0001
,  // measure 62
1000
0010
0100
0010
1000
0000
1000
0001
,  // measure 63
0000
0000
0010
0000
0000
0010
0000
0001
,  // measure 64
0000
1000
0000
1000
0001
0000
0000
0010
,  // measure 65
0100
0000
0100
0010
0000
0001
1000
0000
,  // measure 66
1000
0001
0000
0000
0100
0010
0000
0010
,  // measure 67
0000
0010
1000
0100
1000
0000
0001
0000
,  // measure 68
0001
0000
0001
0010
0001
0010
0001
0000
,  // measure 69
0100
1000
0000
1000
0000
0010
0001
0100
,  // measure 70
0000
0100
0000
1000
0001
0010
0001
0000
,  // measure 71
0001
0000
1001
0000
,  // measure 72
1100
0000
0000
0010
0100
0010
0100
0000
,  // measure 73
0001
0000
0001
1000
0100
0000
0000
0000
,  // measure 74
0110
0000
1010
0000
,  // measure 75
0110
0000
0101
0000
,  // measure 76
0011
0000
1001
0000
,  // measure 77
0010
0100
0010
0100
0010
0100
0010
0000
,  // measure 78
0010
0000
0010
1000
0100
1000
0000
1000
,  // measure 79
0000
1000
0010
0000
0110
0000
0100
0000
,  // measure 80
0101
0000
0011
1000
,  // measure 81
0010
0001
1000
1100
,  // measure 82
0010
0001
1010
1000
,  // measure 83
0010
0110
0001
1000
,  // measure 84
0202
0000
0303
0202
,  // measure 85
0000
0303
2002
0000
,  // measure 86
0000
3003
2020
0000
,  // measure 87
0000
0000
0000
3030
,  // measure 88
0000
0000
0000
0000
,  // measure 89
0000
0000
0000
0000
,  // measure 90
0000
0000
0000
0000
,  // measure 91
0000
0000
0000
0000
0020
0030
0000
0100
,  // measure 92
0010
0000
0100
0000
0100
0000
0010
0000
0001
1000
0001
0000
0020
0000
0030
0000
,  // measure 93
0100
0100
0000
0010
0001
0000
0001
1000
1000
1000
0020
0000
0000
0030
0000
0000
,  // measure 94
0100
0000
0100
0000
0010
0000
0001
0000
2000
0000
0000
3100
0000
0020
0000
0000
,  // measure 95
0030
0000
0000
0001
2000
0000
0000
3000
0000
0200
0000
0300
0020
0000
0000
0000
,  // measure 96
0100
0000
0100
0000
0100
0000
0100
0030
,  // measure 97
2000
0001
0001
3001
,  // measure 98
0020
0230
0320
0230
0300
0200
0300
0200
0320
0030
0002
0003
2000
3002
2003
3000
,  // measure 99
0002
0003
0000
0020
0030
0020
0030
0200
0300
0020
0030
2000
3000
2000
3000
0000
,  // measure 100
0002
0003
0002
0003
0020
0030
0200
0300
0020
0230
0300
0000
2000
3002
0003
2000
,  // measure 101
3000
0002
0003
0020
0030
0020
0030
1000
1000
0000
0000
0100
0100
0000
0000
0010
,  // measure 102
0010
0000
0000
0001
0001
0000
0000
0000
0001
0010
0000
1000
0100
0000
0000
0000
,  // measure 103
0010
0100
0000
0000
1000
0010
0000
0000
0200
0302
0003
0000
0020
2030
3000
0000
,  // measure 104
0200
0302
0003
0000
0020
2030
3000
0000
0000
0000
0000
0000
0000
0000
0000
0000
,  // measure 105
0020
0000
0000
0000
0230
0000
0000
0000
0000
0000
0000
0000
0000
0000
0000
0300
,  // measure 106
0002
0003
0000
1000
0100
0010
0001
0010
0100
1000
0100
0010
0001
0010
0100
1000
,  // measure 107
0100
0010
0001
0010
0100
1000
0000
2000
0000
0000
0000
0000
3001
0000
0000
0000
,  // measure 108
0010
0000
0100
0010
0100
0010
0200
0000
0000
0000
0300
0000
0010
0000
0000
0000
,  // measure 109
1001
0000
0000
0000
0000
0000
0001
0020
0000
0000
0000
0000
0000
0000
0000
0000
,  // measure 110
0000
0000
0000
0000
2030
0000
3000
0000
0200
0320
0230
0300
0000
0001
0000
0001
,  // measure 111
0000
2000
3000
0002
0003
0020
0030
0200
0320
0030
0200
0300
0020
0000
0000
0230
,  // measure 112
0300
2000
0000
0000
0000
3000
0000
0010
0002
0000
0000
0000
0000
0000
0003
0000
,  // measure 113
1000
0000
0000
0000
0000
0000
0000
0000
0100
0010
0000
0000
0001
1000
0001
0000
,  // measure 114
0010
0000
0010
0000
0020
0000
0000
0000
0000
0000
0000
0230
0000
0000
0000
0000
,  // measure 115
0000
0000
0000
0300
0000
0000
0001
0000
0010
0000
0000
0000
0110
0000
0000
0000
,  // measure 116
1000
1100
0010
0110
,  // measure 117
0001
0000
1001
0000
0010
0100
0010
0000
,  // measure 118
1010
0000
1100
0000
0010
0001
0010
0001
,  // measure 119
1000
0000
1100
0000
0110
0000
0001
1000
,  // measure 120
0001
1000
0001
0000
1001
0000
1100
0000
,  // measure 121
0020
0000
0130
0000
1000
0100
1000
0000
,  // measure 122
0010
0000
0010
0100
0010
0000
1010
0000
,  // measure 123
0001
0001
1000
1000
0000
1001
0000
0010
,  // measure 124
0100
0110
1000
1100
,  // measure 125
0001
0100
0001
0100
0001
0100
0001
0100
0001
0000
0000
1000
0000
0000
0010
0100
,  // measure 126
0001
0100
0010
1000
,  // measure 127
0001
0100
0001
0000
1000
0100
1000
0000
,  // measure 128
0101
0000
0100
0001
1000
0000
0100
0000
,  // measure 129
0010
0000
0001
0000
1000
0000
0001
1000
,  // measure 130
0001
0000
0010
0100
0010
0100
0010
0000
,  // measure 131
0000
0000
1010
0000
0100
0010
0100
0001
,  // measure 132
0000
0001
0000
0001
1000
0100
1000
0000
,  // measure 133
0010
1010
0000
0110
,  // measure 134
0000
0001
0010
0001
1000
0100
1000
0000
,  // measure 135
0010
0110
1000
0000
,  // measure 136
1001
0000
0010
0100
0010
0100
0000
1000
,  // measure 137
0000
1000
0001
0010
0001
0000
0100
0010
,  // measure 138
1000
0000
1100
0000
,  // measure 139
0020
0000
0000
0000
0130
0000
0000
0001
,  // measure 140
0000
0001
0000
0001
1000
0000
1000
0000
,  // measure 141
0000
0000
0000
0000
0010
0100
0001
0000
,  // measure 142
0000
0000
0000
1000
0010
0100
0000
0000
,  // measure 143
0000
0000
0000
0000
1000
0001
0100
0000
,  // measure 144
0000
0000
0000
0010
1000
0001
0000
0000
,  // measure 145
0000
0000
0000
0000
0010
0001
0100
0000
,  // measure 146
0000
0000
0000
0000
1000
0010
0100
0000
,  // measure 147
0000
0000
0000
0000
0000
0000
0001
0010
,  // measure 148
1000
0000
0000
0000
0000
1000
0010
0100
,  // measure 149
0000
0000
0000
0000
0010
0100
0010
0100
,  // measure 150
0010
0000
0010
1000
0010
1000
0010
1000
,  // measure 151
0000
0001
0010
0001
0100
0000
0100
0010
,  // measure 152
1000
0100
1000
0000
0001
0010
0001
0010
,  // measure 153
0000
0010
2000
0000
0000
0000
3020
0000
,  // measure 154
0030
0110
1010
0110
,  // measure 155
0010
0001
0010
0001
,  // measure 156
1000
0100
0000
0001
0010
0000
0010
0100
,  // measure 157
0010
0000
1000
0000
2000
0000
3000
0000
0001
0000
0000
0000
0001
1000
0001
0000
,  // measure 158
0010
0000
0100
0000
0010
0000
0100
0000
0000
0001
0100
0000
0000
0000
0110
0000
,  // measure 159
0000
0000
1000
0010
1000
0000
0001
0000
0010
0000
0000
0000
0110
0000
0000
0000
,  // measure 160
1000
0001
1000
0000
0001
0000
0010
0000
0100
0000
0110
0000
0000
0000
1010
0000
,  // measure 161
0010
0000
0000
0000
0110
0000
1000
1000
1000
0100
0010
0001
0010
0100
1000
1000
,  // measure 162
1010
0001
0000
0000
0010
0000
0110
0000
1000
0000
1000
0100
0001
0001
0000
0010
,  // measure 163
0010
0000
2000
0000
3001
0001
0001
0000
1001
0000
0010
0000
0100
0010
0000
0001
,  // measure 164
1000
0000
0001
0000
0100
0100
0100
0000
0110
0000
0000
0000
0010
0000
0000
0000
,  // measure 165
1000
1001
0010
0110
,  // measure 166
1000
0001
1000
0001
0010
0010
0100
0001
,  // measure 167
1000
0000
0000
0000
1000
0000
1000
0000
0010
0100
0010
0100
0010
0000
1000
0001
,  // measure 168
1000
1000
1100
0100
,  // measure 169
0100
0110
0010
0010
,  // measure 170
0011
0000
0001
0010
1000
0100
0000
0000
,  // measure 171
0001
0001
0100
0100
,  // measure 172
1000
1000
0010
0010
,  // measure 173
0010
0200
0300
0020
,  // measure 174
0030
0000
0001
0010
0001
0001
1000
0100
,  // measure 175
0000
0100
0010
0010
0001
1000
0001
1000
,  // measure 176
1000
0020
1000
0000
1000
0030
0100
0100
,  // measure 177
0001
0010
1000
2000
0001
0000
0001
0000
,  // measure 178
3001
0000
0001
0000
0001
0000
0010
0020
,  // measure 179
0000
0000
0000
0000
0030
0100
0200
0000
,  // measure 180
0000
0000
0000
0000
0300
0000
0020
0030
0002
0003
0020
0030
2000
3000
0200
0300
,  // measure 181
2000
3000
0010
0000
0100
0000
0010
0000
0001
0000
0010
0000
0001
0000
1000
0000
,  // measure 182
0100
1000
0010
0100
0010
0001
0010
1000
,  // measure 183
0100
1000
0100
0020
0000
0030
0002
0000
,  // measure 184
0000
0000
0003
0000
2000
0000
3000
0000
2000
0000
3000
0000
2000
0000
0000
3000
,  // measure 185
2000
3000
1001
0000
0010
0001
0010
0001
,  // measure 186
0010
0000
1000
0100
1000
0100
1000
0000
,  // measure 187
0100
0010
0100
0010
,  // measure 188
1000
0001
1000
0001
1000
0001
1000
0000
,  // measure 189
0100
0010
0100
0010
,  // measure 190
2000
3000
0002
0003
2000
3000
0002
0003
,  // measure 191
1000
0001
1000
0001
1000
0001
1000
0001
,  // measure 192
1000
0000
0012
0000
0013
0002
0000
0000
,  // measure 193
0013
2000
0000
0000
3000
0020
0000
0030
,  // measure 194
1000
0000
1000
0000
,  // measure 195
0001
0001
0001
0000
,  // measure 196
1000
0000
0001
1000
,  // measure 197
1000
1000
0001
0001
,  // measure 198
0001
0000
2000
3000
,  // measure 199
0110
0000
0000
0000
0001
0000
0000
0001
0010
0000
0100
0000
1000
0000
0010
0000
,  // measure 200
0010
0000
0001
0000
1000
0100
0010
0001
0010
0100
1000
0000
0001
0000
0000
0000
,  // measure 201
0110
0000
0000
0000
1000
0000
0000
1000
0010
0000
0100
0000
0001
0000
0010
0000
,  // measure 202
0010
0000
0000
0000
0100
0000
0100
0000
0010
1000
0001
0000
0100
0000
0010
0100
,  // measure 203
0000
1000
0000
0000
1000
0000
0010
0100
0001
0000
0000
0001
0010
0100
0000
1000
,  // measure 204
0100
0010
0000
0000
0010
0000
0000
0010
0001
0000
0000
1000
0001
0000
1000
0001
,  // measure 205
0000
0000
0100
0000
0000
0100
0000
0010
0000
0000
1010
0000
0000
1000
0000
0000
,  // measure 206
1001
0000
0011
1000
0010
0000
0110
0000
,  // measure 207
0100
0001
1100
0000
1000
0000
1001
0010
,  // measure 208
0001
0000
0011
0000
0010
0001
0010
0001
,  // measure 209
0110
1000
0100
0000
1100
0001
1000
0001
,  // measure 210
1100
0100
0110
0010
,  // measure 211
0011
1001
1100
1010
,  // measure 212
0110
0010
0001
0001
0010
1000
1000
0100
,  // measure 213
0010
0000
1010
0000
0110
0000
0010
0001
,  // measure 214
0010
0001
1100
0000
0100
0010
0100
0010
,  // measure 215
0011
0000
1100
0000
0110
0000
0001
1000
,  // measure 216
0001
1000
0000
1100
0000
0010
0100
0010
,  // measure 217
0100
0010
0000
0011
0000
2002
3003
0000
,  // measure 218
0010
0100
0010
0100
0010
0100
0010
0100
,  // measure 219
0010
0000
1000
0100
1000
0010
0100
0010
,  // measure 220
0001
1000
0001
0100
0010
1000
0000
1000
,  // measure 221
0100
0001
0010
0001
0000
0000
0210
0000
,  // measure 222
0000
0000
0000
0000
0000
0000
0000
0000
0000
0000
0000
0000
0010
0000
0000
0000
0000
0000
0000
0000
0000
0000
0000
0000
0000
0000
0000
0000
0000
0000
0300
0000
0000
0000
0000
0000
0001
0000
0000
0010
1000
0000
0001
0000
0000
0000
0000
0000
,  // measure 223
0010
0000
0000
0100
0000
0000
0010
0000
0001
0000
0000
0000
1000
0000
0000
0000
0000
0000
0000
0000
0000
0000
0000
0000
0000
0000
0000
0000
0000
0000
0000
0000
0000
0000
0000
0000
0000
0000
0000
0000
0000
0000
0000
0000
0000
0000
0000
0000
,  // measure 224
0000
1100
0000
0000
,  // measure 225
0100
0000
0010
0000
,  // measure 226
0000
0010
1000
0000
,  // measure 227
0100
0000
1000
0001
,  // measure 228
0000
0001
0000
0001
,  // measure 229
0000
0010
0100
0010
,  // measure 230
0000
1000
0000
1000
,  // measure 231
0000
0000
1000
0001
,  // measure 232
0010
0000
0010
0000
,  // measure 233
0000
0010
1000
0000
,  // measure 234
0100
0000
0000
0100
,  // measure 235
0000
0000
0000
0000
,  // measure 236
1100
0000
0000
0000
,  // measure 237
0000
1001
0000
0000
,  // measure 238
0000
0000
0000
0011
,  // measure 239
0000
0000
0000
0010
,  // measure 240
0000
0000
0100
0000
,  // measure 241
1000
0000
0000
0000
,  // measure 242
0000
1000
0000
0000
,  // measure 243
0000
0000
1000
0000
,  // measure 244
0000
0000
1000
0000
,  // measure 245
0001
0000
0000
0000
,  // measure 246
0000
0001
0000
0000
,  // measure 247
0000
0000
0100
0000
,  // measure 248
0000
0000
0000
0100
,  // measure 249
0000
0000
0010
0000
,  // measure 250
0000
0010
0000
1000
,  // measure 251
0000
0000
1000
0000
,  // measure 252
0010
0010
0000
0110
,  // measure 253
1000
1000
0001
0011
,  // measure 254
1000
0000
1100
0000
,  // measure 255
0100
0110
0000
0001
,  // measure 256
1001
0000
1000
1010
,  // measure 257
0000
0100
0010
0100
,  // measure 258
0010
0100
0110
0000
,  // measure 259
0001
1001
0000
1000
,  // measure 260
0100
1000
0010
0100
,  // measure 261
0001
0001
0020
0030
,  // measure 262
1000
0100
1000
2200
,  // measure 263
3300
0010
0100
0010
,  // measure 264
0000
0022
0033
0100
,  // measure 265
0010
1000
1000
0000
,  // measure 266
2020
3030
0010
2020
,  // measure 267
3030
1000
2002
3003
,  // measure 268
0001
0000
0010
0000
0001
0010
0000
0010
,  // measure 269
1000
0000
0000
0001
1000
0000
0010
0100
,  // measure 270
0000
0000
0000
0000
,  // measure 271
0000
0220
0000
0000
,  // measure 272
0000
0000
0000
0000
,  // measure 273
0300
0000
2000
0000
,  // measure 274
0000
0000
0000
0000
,  // measure 275
3030
0000
0000
0000
,  // measure 276
0000
0001
0011
0000
,  // measure 277
0100
0000
1100
0000
1000
0000
0001
1000
,  // measure 278
0001
0000
1000
0000
0000
0010
0010
0000
0100
0100
0001
1000
0001
0010
0100
1000
,  // measure 279
0010
0002
0003
0000
0020
0000
0000
0000
0000
0000
0000
0000
0000
0000
0000
0000
,  // measure 280
0030
0000
0100
0010
0100
0000
0000
0000
,  // measure 281
0000
0100
0000
0000
0000
0100
0000
0000
0000
0001
0000
0000
,  // measure 282
0000
1000
0000
0000
0000
0001
0000
0000
0000
1001
0000
0000
,  // measure 283
0000
0000
1000
0100
1000
0100
1000
0000
,  // measure 284
0010
0100
0010
0100
0010
0100
0000
0000
,  // measure 285
0001
1000
0001
1000
0001
1000
0001
0000
,  // measure 286
0000
0011
0000
0011
,  // measure 287
0000
0000
0000
2000
0000
0000
0100
0000
0000
3000
0100
0000
,  // measure 288
0002
0000
0000
0010
0000
0000
0003
0010
0000
2000
0000
0000
,  // measure 289
0100
0000
0000
3000
0100
0000
0000
0000
0000
2000
0000
0000
,  // measure 290
0010
0000
0000
3000
0010
0000
0000
0002
0000
1000
0000
0000
,  // measure 291
0000
1003
0000
0000
0000
0000
1000
0000
0000
0000
1000
0010
,  // measure 292
0000
0000
0000
0010
0000
0100
0001
0000
0000
0100
0000
0000
,  // measure 293
0010
0000
0000
0100
0010
0000
1000
0000
0000
0010
1000
0000
,  // measure 294
0001
0000
0000
0000
0001
0000
0000
0000
0000
1001
0000
0000
,  // measure 295
0000
1000
0001
1000
0001
0000
0000
0000
,  // measure 296
0010
0100
0010
0100
0010
0000
0000
1010
,  // measure 297
0000
0000
1000
0001
0010
0000
0100
0010
,  // measure 298
0001
0000
1000
0010
0100
0000
0000
1100
,  // measure 299
0010
0001
0000
0100
0010
0100
1000
0000
,  // measure 300
0000
0000
1100
0000
0000
0000
0010
0100
,  // measure 301
0010
0000
0001
0000
0000
0010
0001
1000
,  // measure 302
0000
0000
1000
0000
0000
0001
0000
0000
,  // measure 303
1001
0000
0010
0000
0010
0100
0000
0010
,  // measure 304
1000
0000
0000
1000
0000
0001
0000
0000
,  // measure 305
0010
0000
0001
1000
0000
0000
1000
0010
,  // measure 306
0000
0000
0010
0000
0100
0010
0100
0010
,  // measure 307
0100
0010
1000
0100
1000
0100
1000
0100
,  // measure 308
0000
0000
0010
0001
1000
0000
0000
0000
,  // measure 309
0000
0000
0000
0000
0000
0000
0000
0000
0000
0000
0000
0000
0000
0000
0000
0000
0110
0000
0000
0000
0000
0000
0000
0000
0001
0000
0000
0000
0000
1000
0000
0000
,  // measure 310
0000
0000
0001
0000
0000
0000
0000
0000
0000
0100
0000
0000
0001
0000
0000
0000
0000
0000
0000
0000
0000
0000
1100
0000
0000
0000
0000
0000
0000
0000
0000
0000
,  // measure 311
0000
2002
0000
0000
0000
0000
0000
0000
,  // measure 312
0000
0000
0000
0000
,  // measure 313
0000
0000
0000
0000
,  // measure 314
0000
0000
0000
0000
,  // measure 315
0000
0000
0000
3003
;
