#TITLE:EGOISM 440;
#SUBTITLE:(Ange\;art remix);
#ARTIST:Ange\;art;
#TITLETRANSLIT:;
#SUBTITLETRANSLIT:;
#ARTISTTRANSLIT:;
#GENRE:;
#CREDIT:PaperBox440;
#BANNER:EGOISM 440 (Ange\;art remix).png;
#BACKGROUND:EGOISM 440 (Ange\;art remix)-bg.png;
#LYRICSPATH:;
#CDTITLE:;
#MUSIC:EGOISM 440 (Ange\;art remix).mp3;
#OFFSET:0.000000;
#SAMPLESTART:9.818182;
#SAMPLELENGTH:16.909090;
#SELECTABLE:YES;
#BPMS:0.000000=220.000000
;
#STOPS:
;
#BGCHANGES:;
#KEYSOUNDS:;
#ATTACKS:;

//---------------dance-single - ----------------
#NOTES:
     dance-single:
     :
     Hard:
     1:
     0.117888,0.109857,0.078179,0.034746,0.039089,95.000000,86.000000,9.000000,4.000000,0.000000,0.000000,0.117888,0.109857,0.078179,0.034746,0.039089,95.000000,86.000000,9.000000,4.000000,0.000000,0.000000:
// measure 0
0000
0000
0000
0000
,  // measure 1
2000
0000
3001
0000
0010
0100
0100
0010
,  // measure 2
0100
1000
1000
0001
0010
0001
2000
0000
,  // measure 3
3001
0000
0001
0000
1000
0100
1000
0000
0001
0000
0010
0000
0001
0000
0100
0000
,  // measure 4
1000
0001
1000
0000
0010
0000
0100
0000
0001
1000
0001
0000
2000
0000
0000
0000
,  // measure 5
3001
0110
1100
1001
,  // measure 6
0011
1010
0110
1100
,  // measure 7
1000
0001
1000
0001
1000
0001
1000
0000
,  // measure 8
2000
0000
3001
0000
0000
0000
0000
0000
0001
0010
0100
0000
1000
0000
1000
0000
,  // measure 9
0011
0000
1000
0100
0010
0010
1000
0100
,  // measure 10
1000
0001
0010
0100
0100
0001
1000
0001
,  // measure 11
1100
0000
0001
0001
1000
0100
1000
0010
,  // measure 12
0010
0000
0100
0000
0000
0010
0000
0000
0100
0001
0010
0001
0100
1000
0000
0000
,  // measure 13
0000
0000
1000
0000
0000
1000
0000
0000
0000
0000
0000
0000
0000
0000
0000
0000
;
