#VERSION:0.83;
#TITLE:Din Don Dan;
#SUBTITLE:(Fusion Remix);
#ARTIST:TAKU1175 feat.Kanata.N;
#TITLETRANSLIT:;
#SUBTITLETRANSLIT:;
#ARTISTTRANSLIT:;
#GENRE:;
#ORIGIN:;
#CREDIT:PaperBox440;
#BANNER:Din Don Dan (Fusion Remix)-bn.png;
#BACKGROUND:Din Don Dan (Fusion Remix)-bg.png;
#PREVIEWVID:;
#JACKET:Din Don Dan (Fusion Remix).png;
#CDIMAGE:;
#DISCIMAGE:;
#LYRICSPATH:;
#CDTITLE:;
#MUSIC:Din Don Dan (Fusion Remix).mp3;
#OFFSET:0.000000;
#SAMPLESTART:46.500000;
#SAMPLELENGTH:12.375000;
#SELECTABLE:YES;
#BPMS:0.000=160.000;
#STOPS:;
#DELAYS:;
#WARPS:;
#TIMESIGNATURES:0.000=4=4;
#TICKCOUNTS:0.000=4;
#COMBOS:0.000=1;
#SPEEDS:0.000=1.000=0.000=0;
#SCROLLS:0.000=1.000;
#FAKES:;
#LABELS:0.000=Song Start;
#BGCHANGES:;
#KEYSOUNDS:;
#ATTACKS:
;

//---------------dance-single - ----------------
#NOTEDATA:;
#CHARTNAME:;
#STEPSTYPE:dance-single;
#DESCRIPTION:;
#CHARTSTYLE:;
#DIFFICULTY:Hard;
#METER:14;
#RADARVALUES:0.617291,0.739635,0.624428,0.124886,0.299725,519.000000,444.000000,75.000000,15.000000,0.000000,0.000000,0.000000,0.000000,0.000000,0.617291,0.739635,0.624428,0.124886,0.299725,519.000000,444.000000,75.000000,15.000000,0.000000,0.000000,0.000000,0.000000,0.000000;
#CREDIT:;
#NOTES:
0000
0000
0000
0000
,
1001
0000
1001
0000
0010
0100
0000
0000
,
1001
1200
0000
0000
,
0300
0000
0000
0000
0000
0000
0000
0000
0010
0000
0010
0000
1000
0000
1000
0001
,
0000
0000
0000
0000
1000
0000
0000
0001
0000
0000
1000
0000
0002
0000
0000
0000
,
0000
0000
0000
0000
0000
0000
0000
0000
0003
0000
0000
0000
0000
0000
0010
0100
,
2000
0000
0000
3000
,
1001
0000
0000
0000
0000
0100
0000
0001
,
1000
1000
0001
0001
0010
0100
0010
0000
,
0001
0100
1000
0000
1000
0001
0001
0000
,
0100
0010
1000
0000
0002
0000
0000
0000
0000
0000
0000
0000
0003
0000
0000
0000
,
1000
0000
2000
0000
0000
0000
0000
0000
3010
0000
0001
0000
0010
0100
0010
0000
,
0100
0000
0000
0000
0001
0000
0000
0000
0001
1000
0000
0000
1000
0000
0000
0000
,
0000
1000
1000
0001
1001
0010
0110
1000
,
1100
0000
0000
0010
0001
2000
0000
3000
,
0110
0000
0000
0000
0010
1000
0000
0000
1100
0000
0000
0010
0000
0001
0000
0000
,
1001
0000
0000
0000
0010
0000
0000
0000
0100
0000
0010
0000
0100
0001
0000
0000
,
0001
0000
1000
0000
1000
0000
0000
0000
0001
0000
0100
0010
0000
0000
0010
0000
,
1001
0000
1000
1000
0010
0000
0110
0000
,
1001
0000
1000
0100
1000
0010
0000
0010
,
0100
0001
0000
0001
1000
0000
1000
0000
,
0002
0000
0000
0000
0000
0000
0000
0000
0013
0100
1000
0000
0000
0000
1000
0000
,
1001
0000
1100
0000
1000
0010
1000
0010
,
1000
0001
0010
0100
0000
0010
0100
0000
,
1000
0000
1001
0000
0001
1000
0001
1000
,
0001
1100
1001
0110
,
1010
0000
0000
0000
0100
0001
0000
0000
0010
0000
0100
0000
0010
0000
1000
0000
,
1000
0000
0011
1001
1100
0000
0001
0000
,
1001
0000
0110
0000
0000
0010
1000
0000
0010
1000
0000
0000
0100
0000
0100
0000
,
0010
0001
0000
0001
1100
0000
1001
0000
,
0110
1100
2000
0000
,
3001
0000
1100
0000
0011
0000
0001
1000
,
1000
0000
0100
0010
0100
0010
0100
0000
,
1001
0000
1000
0000
0110
0000
0001
0001
,
0000
1000
0001
1000
0001
1000
0110
0000
,
1001
0000
0010
0100
0100
0010
0000
0010
,
1000
0100
1000
0000
1001
0000
0001
0000
,
0110
0000
1000
0000
0001
1000
1001
0000
,
0010
0000
0000
0000
0010
0000
0100
0000
0001
0000
0001
0000
0000
1000
0000
0000
,
1001
0000
0000
0000
0010
0000
1000
0000
0000
0000
1000
0000
0010
0100
0000
0000
,
0110
0000
0000
0000
1000
0001
0000
0000
1001
0000
0000
0000
0010
0000
1000
0000
,
1100
0000
0000
0000
1001
0000
1001
0000
0000
0000
0001
0000
0000
0000
0010
0100
,
1000
0000
0000
1000
0100
0010
0001
0000
0000
0000
1001
0000
0000
0000
1000
0000
,
1100
0000
0000
0010
0000
0000
0010
0000
0100
0001
0000
0000
0001
0000
0100
0000
,
0110
0000
0000
0000
0001
0000
1000
0000
1000
0000
0000
0000
0001
0000
0000
0001
,
0000
0000
0010
0100
0000
1000
0000
0000
1000
0000
0000
0000
1000
0000
0001
0000
,
1000
0000
0001
0000
1000
0100
0010
0000
0000
0000
0000
0000
2002
0000
0000
0000
,
0000
0000
3003
0000
0000
0000
0001
0000
0001
1000
0000
0001
0000
0000
1000
0000
,
1000
0010
0000
0000
0010
0100
0000
0000
0100
0000
0000
0010
0000
0000
0010
0000
,
0100
0001
0000
0000
0001
0000
1000
0000
1001
0000
0000
0000
0010
0100
0010
0000
,
0000
0100
0010
0000
1000
0000
0000
0000
1001
0000
0000
0000
0001
0000
0001
0000
,
0000
0000
1100
0000
0000
0000
0010
0100
0010
0000
0000
1000
0000
0000
1000
0000
,
0011
0000
0100
1000
1001
0000
0010
0100
,
1001
0010
1100
1001
,
0011
1001
1100
2000
,
0001
0000
0000
0000
3000
0000
0000
0000
0000
0000
0001
1000
0001
0000
0010
0100
,
0010
0000
1000
0001
1000
0000
0010
0100
0010
0000
0001
1000
0001
0000
0100
0000
,
0110
0000
1000
1000
0001
0010
0001
0000
,
1000
1000
0010
0100
0020
0000
1030
1000
,
1001
0000
0000
0000
0010
0000
0001
0000
0100
1000
0000
0000
0100
0000
0010
0000
,
0010
1000
0100
1000
0002
0000
1003
0000
,
1100
0000
1001
0000
0010
1000
0000
1000
,
0001
0000
0010
0000
0001
0000
1000
0100
1000
0000
0000
0000
0200
0000
0000
0000
,
0310
0000
1010
0000
0001
0010
0001
0000
,
0000
0000
1000
0001
1000
0000
0010
0000
0100
0000
0000
0000
0001
0000
0000
0000
,
0010
1000
0000
0000
0110
0000
0000
0000
0100
0000
0001
0010
0001
1000
0000
0000
,
1000
0000
0010
0000
0100
0000
0010
0001
0000
0000
1000
0100
1000
0000
0001
0000
,
0000
0001
0010
0100
0010
0000
1000
0000
0000
1000
0000
0000
0100
0010
0001
0000
,
0000
0000
0001
0000
0000
0000
1000
0100
1000
0000
0010
0000
0010
0100
0000
0000
,
1001
0000
0000
0010
0000
0100
0000
0000
0010
0000
0010
0000
0100
0000
0000
0000
,
0100
0000
1000
0000
0001
0000
0000
0001
0000
0000
0100
0010
0000
0000
0010
0000
,
1000
0100
1000
0000
0001
0010
0000
0000
0010
0000
0001
1000
0000
0000
1000
0000
,
0011
0000
0000
0000
1100
0000
0000
0000
1001
0000
0000
0000
1000
0001
1000
0000
,
0010
0100
0010
0000
1000
0100
0000
0001
0010
0001
0100
0000
0100
0000
0010
0000
,
1000
0000
1100
0000
0000
0010
0100
0000
0001
0000
1001
0000
0000
0100
0010
0000
,
1000
0000
1100
0000
1001
0000
0000
0000
0110
0000
0000
0001
0000
0000
0001
0000
,
0000
2000
0000
0000
0000
0000
0000
0000
0000
0000
0000
0000
0000
0000
0000
0000
,
0000
3000
0000
0000
;

//---------------dance-single - ----------------
#NOTEDATA:;
#CHARTNAME:;
#STEPSTYPE:dance-single;
#DESCRIPTION:;
#CHARTSTYLE:;
#DIFFICULTY:Medium;
#METER:11;
#RADARVALUES:0.491216,0.507868,0.557822,0.191491,0.000000,413.000000,346.000000,67.000000,23.000000,0.000000,0.000000,0.000000,0.000000,0.000000,0.491216,0.507868,0.557822,0.191491,0.000000,413.000000,346.000000,67.000000,23.000000,0.000000,0.000000,0.000000,0.000000,0.000000;
#CREDIT:;
#NOTES:
0000
0000
0000
0000
,
1001
1001
0010
0200
,
0301
1001
0000
0000
,
0000
0000
0002
1003
,
0100
1000
1001
0011
,
0000
0000
0000
0000
0100
0000
0001
1000
,
0002
0000
0000
0000
,
1003
0000
0000
0000
0000
0000
1000
1000
,
0011
0000
0100
1000
0001
0000
0001
0000
,
0110
0000
1000
1000
0100
0100
0010
0000
,
1002
0000
0000
0000
0000
0000
0003
1000
,
0220
0000
0000
0330
0001
0001
0010
0100
,
1000
0100
0010
0001
,
1001
0000
1100
0000
0110
0000
1001
1001
,
0000
0100
0010
0100
,
1001
0100
1100
0001
,
1001
0000
1000
0000
1000
0010
0000
0010
,
0100
0000
0100
0001
0010
0000
0100
0000
,
1001
1000
0010
1001
,
1100
0010
0110
1000
,
1001
0000
0100
0000
0010
0100
0010
0000
,
0001
1000
0000
1000
0001
0010
0100
0000
,
1001
0000
1000
0000
0010
0100
0010
0000
,
0001
1001
0100
0010
,
1000
0000
1001
0000
0001
1000
0001
0000
,
1000
1001
0110
1010
,
1100
0000
0001
0000
0100
0010
0100
0000
,
0001
0001
1000
0000
1001
0000
0010
0010
,
0100
0000
0110
0000
0001
1000
0000
1000
,
0001
0001
1000
1001
,
0110
1100
2002
0000
,
3003
0000
0100
0010
1000
0001
1000
0000
,
0110
0001
1000
0000
,
1001
0000
0010
0000
0001
1000
1000
0000
,
0110
0000
1000
0000
0001
1000
0001
0000
,
0110
0000
1000
1000
0001
0000
0001
0000
,
1100
0000
0010
0000
0001
1000
0001
0010
,
0200
0000
0000
0300
1000
0000
1000
0000
,
0110
0000
1000
0000
0010
0100
0010
0000
,
1001
0000
0100
0010
0001
0000
1000
0000
,
1100
0000
0010
0100
0010
0000
1100
0000
,
1001
0000
0100
0100
0000
1000
0001
0000
,
0001
0100
0011
1001
,
1100
0010
0100
1100
,
1001
0000
0100
1000
0001
0000
0001
0100
,
0010
0000
0010
1000
0100
1000
0001
0001
,
0000
0010
0100
1000
0000
0000
2002
0000
,
0000
0000
3003
0000
0010
0100
1000
0000
,
1001
0000
0110
0000
0001
1000
1000
1000
,
0001
0001
0001
0000
1000
0010
0100
0000
,
0100
0010
2000
0000
3001
0000
0010
0001
,
0100
0010
0100
0001
2000
0000
0000
0000
,
3020
0130
1001
0002
,
0000
0003
0000
0010
0100
0010
1000
0000
,
1001
1100
0220
0000
,
0000
0000
0330
0000
1000
1000
0001
0001
,
0100
0100
0001
0001
1000
1000
0100
0000
,
0220
0000
0000
0330
0000
1000
0001
0000
,
0100
0010
0100
0000
1001
0000
0000
0000
,
1100
0000
0001
0000
0010
0100
0001
0000
,
0001
0000
0100
0010
0100
0000
1001
0000
,
0010
0100
0001
0010
0001
0000
1000
0000
,
1000
0000
0010
0100
0010
0000
0110
0000
,
1000
0000
0010
0001
0100
0000
0100
0000
,
0001
1000
0001
0000
2002
0000
3003
0000
,
1000
0000
1000
0000
0010
0100
0000
0100
,
0001
0010
0001
0000
0010
0000
0010
0000
,
1000
0000
1000
0001
0001
0000
1000
0000
,
0010
0100
0010
0000
0001
0000
0010
0100
,
1000
0000
1001
0000
0100
0010
0100
0000
,
0001
0100
1100
1001
,
0010
0000
0010
1000
0100
0000
0100
0000
,
0010
0001
1000
0000
1000
0001
0010
0001
,
0100
0100
0010
0100
1000
0001
1000
0000
,
0100
0100
0001
0001
1000
1000
0100
0100
,
0010
0010
1000
0000
2002
0000
0000
0000
,
0000
3003
0000
0000
;

//---------------dance-single - ----------------
#NOTEDATA:;
#CHARTNAME:;
#STEPSTYPE:dance-single;
#DESCRIPTION:;
#CHARTSTYLE:;
#DIFFICULTY:Easy;
#METER:6;
#RADARVALUES:0.375846,0.444384,0.574473,0.133211,0.000000,316.000000,247.000000,69.000000,16.000000,0.000000,0.000000,0.000000,0.000000,0.000000,0.375846,0.444384,0.574473,0.133211,0.000000,316.000000,247.000000,69.000000,16.000000,0.000000,0.000000,0.000000,0.000000,0.000000;
#CREDIT:;
#NOTES:
// measure 0
0000
0000
0000
0000
,  // measure 1
1000
1001
0110
0000
,  // measure 2
0001
1001
0000
0000
,  // measure 3
0000
0000
0001
1000
,  // measure 4
0100
0110
1001
0000
,  // measure 5
0000
0000
0100
0010
,  // measure 6
2002
0000
0000
3003
,  // measure 7
0110
0000
0000
1000
,  // measure 8
1100
0100
0010
0001
,  // measure 9
1001
0010
0100
0010
,  // measure 10
1100
0020
0000
0030
,  // measure 11
1001
0000
0001
1000
,  // measure 12
0110
0001
0001
0000
,  // measure 13
1000
0001
1000
0001
,  // measure 14
1000
1000
0010
0100
,  // measure 15
1001
0000
1100
0010
,  // measure 16
0110
1000
0010
0001
,  // measure 17
1001
0100
0001
0001
,  // measure 18
2000
3000
1001
0100
,  // measure 19
0110
1000
1001
0010
,  // measure 20
0110
1000
0001
0001
,  // measure 21
2000
0000
3000
0000
,  // measure 22
0010
0001
1000
0001
,  // measure 23
1000
0100
0110
1000
,  // measure 24
0001
0001
1000
0001
,  // measure 25
1000
0001
1001
1100
,  // measure 26
0110
1000
0000
1000
,  // measure 27
0001
1001
0110
0000
,  // measure 28
0110
1001
0000
1000
,  // measure 29
0001
1000
1001
1001
,  // measure 30
0110
1010
0002
0003
,  // measure 31
1001
0010
0100
0100
,  // measure 32
0110
0001
1000
0000
,  // measure 33
1100
1010
0001
1000
,  // measure 34
0001
0001
1000
0010
,  // measure 35
0110
1000
0001
0001
,  // measure 36
1000
0001
0010
0100
,  // measure 37
0110
0001
0001
1000
,  // measure 38
1001
0100
0010
1010
,  // measure 39
1100
0001
0010
0011
,  // measure 40
1001
0010
0110
1000
,  // measure 41
1100
0010
0001
0001
,  // measure 42
0010
1000
1001
1001
,  // measure 43
0110
0001
0010
0001
,  // measure 44
1100
0100
0000
0010
,  // measure 45
0001
1000
0001
1000
,  // measure 46
0010
0100
0110
2002
,  // measure 47
0000
3003
1000
0001
,  // measure 48
0010
0100
0100
0001
,  // measure 49
1000
1000
0001
0010
,  // measure 50
0001
0000
1001
0100
,  // measure 51
0110
0000
1100
0000
,  // measure 52
1001
0001
1000
1100
,  // measure 53
0110
0000
0100
0110
,  // measure 54
0010
1001
1000
1001
,  // measure 55
0000
0000
0100
0010
,  // measure 56
0100
1000
1001
1000
,  // measure 57
0002
0003
0010
0100
,  // measure 58
0010
0100
2000
3000
,  // measure 59
1001
1000
0001
0100
,  // measure 60
0010
0100
0020
0030
,  // measure 61
1001
0100
0010
0100
,  // measure 62
0001
0001
1100
1001
,  // measure 63
0010
0100
0011
1001
,  // measure 64
1000
1000
0001
0000
,  // measure 65
0110
1000
0001
0001
,  // measure 66
1000
0001
0200
0000
,  // measure 67
0000
0000
0000
0000
,  // measure 68
0302
0000
0000
0013
,  // measure 69
0110
1000
1000
0010
,  // measure 70
0100
0010
2000
0000
,  // measure 71
0000
0000
3000
0001
,  // measure 72
1000
0001
0010
0100
,  // measure 73
1000
0010
0002
0003
,  // measure 74
1000
1000
0001
0001
,  // measure 75
0100
0010
0200
0000
,  // measure 76
0000
0300
0000
0000
;
