#VERSION:0.83;
#TITLE:Diamond Dust Black Diamond Dust;
#SUBTITLE:;
#ARTIST:azuma;
#TITLETRANSLIT:;
#SUBTITLETRANSLIT:;
#ARTISTTRANSLIT:;
#GENRE:;
#ORIGIN:;
#CREDIT:;
#BANNER:Diamond Dust Black Diamond Dust.png;
#BACKGROUND:Diamond Dust Black Diamond Dust-bg.png;
#PREVIEWVID:;
#JACKET:Diamond Dust Black Diamond Dust-jacket.png;
#CDIMAGE:;
#DISCIMAGE:;
#LYRICSPATH:;
#CDTITLE:;
#MUSIC:Diamond Dust Black Diamond Dust.ogg;
#OFFSET:0.000000;
#SAMPLESTART:13.714285;
#SAMPLELENGTH:18.857141;
#SELECTABLE:YES;
#BPMS:0.000=175.000;
#STOPS:;
#DELAYS:;
#WARPS:;
#TIMESIGNATURES:0.000=4=4;
#TICKCOUNTS:0.000=4;
#COMBOS:0.000=1;
#SPEEDS:0.000=1.000=0.000=0;
#SCROLLS:0.000=1.000;
#FAKES:;
#LABELS:0.000=Song Start;
#BGCHANGES:;
#KEYSOUNDS:;
#ATTACKS:
;

//---------------dance-single - ----------------
#NOTEDATA:;
#CHARTNAME:;
#STEPSTYPE:dance-single;
#DESCRIPTION:;
#CHARTSTYLE:;
#DIFFICULTY:Hard;
#METER:13;
#RADARVALUES:0.610046,0.689384,0.445204,0.172630,0.099944,470.000000,421.000000,49.000000,19.000000,0.000000,0.000000,0.000000,0.000000,0.000000,0.610046,0.689384,0.445204,0.172630,0.099944,470.000000,421.000000,49.000000,19.000000,0.000000,0.000000,0.000000,0.000000,0.000000;
#CREDIT:;
#NOTES:
0000
0000
0000
0000
,
0000
0000
2000
0000
0000
0000
0000
3000
,
0100
0010
0100
0010
0001
0001
1000
0100
,
1000
0000
0110
0000
0100
0001
0000
0001
,
1000
0100
1000
0010
0000
0010
0000
1001
,
0000
0001
1000
0100
1000
0010
0010
0100
,
0000
0100
1001
0000
0001
0000
0010
1000
,
0100
1000
0001
0000
1001
0000
0100
0010
,
0100
0001
0001
1000
1000
0010
0000
0000
,
1100
0000
1010
0000
0110
0000
0110
0001
,
1001
0000
0010
0010
0100
0010
0000
1000
,
1000
0001
0000
1001
0000
0010
0100
0000
,
1000
1000
0001
0010
0100
0010
1000
2000
,
0000
3001
0000
1001
0000
0010
0010
0100
,
0010
1000
1000
0010
0001
0001
0000
0000
,
1001
0000
0000
0000
1100
0000
0000
0000
1010
0000
0000
0000
1000
0001
1000
0001
,
0000
0100
0100
0000
0001
1000
1000
0000
,
0011
0000
1100
0000
1010
0100
0011
1000
,
1100
0000
0010
0010
0100
0000
0001
0001
,
1000
0001
1000
0000
0000
0010
0000
0100
,
0010
0100
0001
0001
1000
0100
1000
0000
,
1001
0000
0010
1010
0000
1000
1000
0001
,
0010
0000
1000
0100
0010
0100
0001
0001
,
1100
0000
1010
0000
0002
0000
0000
0003
,
0100
1000
1000
0000
0011
0000
1010
0000
,
0110
1000
2002
0000
0000
0000
0000
0000
,
0003
0000
0010
0010
0000
0100
0010
0001
,
3000
0000
0010
0000
0010
0000
0100
0000
0010
0000
1000
0100
1000
0000
0001
0000
,
0010
0001
0100
0000
0100
0001
1000
0100
,
1000
0000
0010
0000
0000
0000
0010
0000
0100
0000
0001
0000
0001
0000
1000
0100
,
0000
0000
0100
0010
0000
0000
1000
0000
0000
0000
0100
0010
0000
0000
0001
0000
,
0001
1000
0100
0000
1001
0010
0100
0000
,
1100
0001
0010
0000
1001
0000
1000
0010
,
0100
0000
0010
0000
0010
0100
0001
0000
1100
0000
0000
0000
1000
0000
0001
0000
,
0010
0100
0001
0000
0100
1000
0100
0000
0010
0000
2000
0000
0000
0000
0000
0000
,
3001
0000
0010
0100
1000
0010
0010
0100
,
0000
0100
0001
0010
0001
1000
0000
1000
,
0010
0020
0200
0030
0300
0000
0010
0010
,
0001
1000
0000
1000
0001
0100
0010
0010
,
2000
0000
0000
3001
0000
0000
0001
0000
,
0010
0100
0000
0000
1000
0000
1000
0000
0010
0000
0100
0000
0002
0000
0000
0000
,
0000
0000
0000
0003
2000
0000
0000
0000
,
3002
0000
0000
0203
0000
0000
0300
0000
,
1001
0000
1000
0100
1000
0000
0010
0100
,
0001
0001
0100
0000
0100
0010
1000
0000
,
1001
0010
0001
0000
1100
0000
1010
0000
,
0001
0001
0100
0010
0000
0100
0010
0000
,
1100
0001
0000
0001
1010
0000
0100
0001
,
1001
0000
1000
0010
0100
0000
0100
0010
,
2000
0000
0000
0000
,
0002
0000
0000
0000
0000
3000
0000
0000
,
1003
0000
1000
1000
0010
0100
0000
0001
,
0001
0000
1000
0000
0100
0000
0110
0000
0000
0000
0001
0000
0001
1000
0000
0000
,
0000
0000
0010
0000
0010
0100
0000
0000
0100
0000
0001
0000
0001
0000
0000
0000
,
0010
1000
0000
0000
1000
0000
0100
0000
0000
0000
0000
0000
1000
0000
1000
0000
,
0010
0100
0010
0000
0001
0100
0000
0100
,
0010
1010
1100
0000
,
1000
0001
1000
0001
0001
0010
0100
0010
,
1000
0000
1001
0000
1010
0000
0022
0033
,
1100
0000
0010
0010
0100
0000
1000
1000
,
0001
0000
0000
1000
0000
0000
0001
0000
0000
0000
0010
0000
0010
0000
0000
0000
,
0000
0000
0100
0100
0010
1000
0001
1000
,
0000
0100
0010
0000
0010
0000
1000
0001
,
1000
0000
0010
0100
0100
0001
0010
0001
,
1000
1100
1001
0000
,
0010
0100
0100
0010
1000
0000
1001
0000
,
2000
0000
0000
0000
,
0001
0010
0100
0010
0001
0000
0010
0000
,
3001
0000
1000
1000
0010
0000
1000
0001
,
0001
0000
0000
0000
0010
0100
0000
0000
0100
0000
0010
0000
1000
0000
0000
0001
,
1000
0000
0000
0000
0100
0000
0010
0000
0100
0001
0000
0000
0001
1000
0000
0000
,
1000
0000
0010
0100
1000
0001
1000
0000
,
1001
0000
0000
0000
0010
0000
0100
0000
1000
0000
0001
0000
0000
0000
0010
0100
,
0000
0000
0100
0000
0000
0010
0000
0000
0100
0000
1000
0000
0001
0000
0001
0000
,
0000
0100
0010
0100
0010
0000
1000
0000
0001
0000
1000
0000
0001
0000
0000
0000
,
1000
0100
0010
0100
0001
0001
2000
3000
;

//---------------dance-single - ----------------
#NOTEDATA:;
#CHARTNAME:;
#STEPSTYPE:dance-single;
#DESCRIPTION:;
#CHARTSTYLE:;
#DIFFICULTY:Medium;
#METER:10;
#RADARVALUES:0.469865,0.517890,0.381603,0.127201,0.000000,362.000000,320.000000,42.000000,14.000000,0.000000,0.000000,0.000000,0.000000,0.000000,0.469865,0.517890,0.381603,0.127201,0.000000,362.000000,320.000000,42.000000,14.000000,0.000000,0.000000,0.000000,0.000000,0.000000;
#CREDIT:;
#NOTES:
0000
0000
0000
0000
,
0000
2000
0000
3000
,
0100
0010
0100
0000
0001
0000
0001
1000
,
0000
1000
0001
0000
0001
0000
0100
0000
,
0100
0010
1000
0100
1000
0000
0001
0000
,
0001
0000
0100
0010
0100
0000
0010
0001
,
2000
0000
3000
0010
0001
0000
1001
0000
,
0100
0000
0010
0000
0010
1000
0100
1000
,
0001
0000
0001
0000
0100
0010
0100
0000
,
1001
0001
1001
1000
,
1001
0100
0001
0001
,
1000
0100
1000
0010
,
0100
0100
0001
0010
,
0001
0000
1000
0000
1000
0000
0100
0010
,
0100
0000
0001
0000
1000
0100
0010
0100
,
0001
0000
0001
0000
0010
1000
1000
1000
,
0000
0010
0100
0000
0100
0000
0001
1000
,
0001
0010
0110
1100
,
1001
0010
1000
0100
,
1000
0000
0001
0000
0001
0000
0010
0100
,
0000
0000
0100
1000
0001
0000
0001
0000
,
0100
0010
0010
0000
1000
0001
1000
0000
,
0010
0000
0100
1000
0001
0000
0001
0000
,
0110
1100
1001
0000
,
0010
0100
0110
1100
,
2002
0000
0000
0000
,
0000
0000
3003
0000
,
1001
0000
0010
0010
0000
0100
1000
0000
,
1000
0000
0001
0010
0001
0000
0100
0000
,
0010
0000
0010
0000
1000
0100
1000
0000
,
0001
0100
0100
0000
0000
0100
0010
0000
,
0001
0000
0110
0000
,
1100
0000
1001
0000
,
0110
1100
1010
0101
,
1001
0000
0100
0010
2000
0000
0000
0000
,
3001
0010
0001
0001
,
1000
0100
1000
0000
0000
1000
0000
0001
,
0100
0000
0010
0000
0010
0000
1000
0100
,
1000
0000
0001
0100
0100
0000
0010
0000
,
0010
0000
1000
0001
1000
0000
0110
0000
,
0001
0000
1100
0000
0010
0001
0000
0100
,
0010
0000
0001
1000
1000
0000
0100
0010
,
0100
0010
0010
2002
,
3003
0000
0000
0010
0100
0000
0100
0000
,
0000
0010
0000
1000
0100
1000
0001
0000
,
0001
0000
0100
0000
0110
0000
1000
0001
,
0000
0000
0001
1000
0000
0000
1000
0000
,
0001
1001
0010
0100
,
0010
0100
0010
0000
0001
1000
1000
0000
,
0220
0000
0000
0330
,
2200
0000
0000
0000
,
3300
0000
0001
0001
1000
0000
0100
0100
,
0000
0010
0000
0100
1000
0000
0001
0000
,
0100
0010
0000
1000
0001
1000
0000
0000
,
0100
0010
0000
0001
0000
0100
1000
1000
,
0000
0000
0100
0010
0100
0000
0001
0000
,
1000
1100
1001
0000
,
0100
0010
0100
0000
1000
0001
0000
0001
,
0000
0010
0110
1100
,
1001
0000
0010
0000
0001
0000
0000
0100
,
0010
0000
0001
0000
1000
0100
1000
0000
,
0100
0000
0010
0000
0010
0000
1000
0100
,
1000
0000
0001
0100
0000
0100
0000
0000
,
0010
1000
1000
0000
0001
0010
0001
0000
,
1000
1100
1001
0000
,
0001
0010
0001
0000
1000
0000
1001
0000
,
0200
0020
0000
0000
,
0000
0000
0000
0330
,
1001
0000
0100
0000
0010
0100
0001
0000
,
0001
1000
0000
1000
0010
0000
0100
0100
,
0001
0001
1000
1001
,
1100
0110
0001
1001
,
0010
0000
0100
0000
0100
0000
0010
1000
,
0000
1000
0001
0000
0010
0100
0010
0000
,
0001
1000
1000
0000
0001
0010
0100
0000
,
1000
0001
0100
0020
,
0030
0000
0000
0000
;

//---------------dance-single - ----------------
#NOTEDATA:;
#CHARTNAME:;
#STEPSTYPE:dance-single;
#DESCRIPTION:;
#CHARTSTYLE:;
#DIFFICULTY:Easy;
#METER:5;
#RADARVALUES:0.306321,0.414312,0.354346,0.090858,0.000000,236.000000,197.000000,39.000000,10.000000,0.000000,0.000000,0.000000,0.000000,0.000000,0.306321,0.414312,0.354346,0.090858,0.000000,236.000000,197.000000,39.000000,10.000000,0.000000,0.000000,0.000000,0.000000,0.000000;
#CREDIT:;
#NOTES:
// measure 0
0000
0000
0000
0000
,  // measure 1
0000
2000
0000
3000
,  // measure 2
0001
0001
1000
0001
,  // measure 3
0100
0100
0010
0010
,  // measure 4
0001
1000
1000
0100
,  // measure 5
0001
0001
0110
0000
,  // measure 6
0000
1001
0000
1000
,  // measure 7
1000
0001
0010
0001
,  // measure 8
0100
0100
0000
0010
,  // measure 9
1000
1001
0010
0110
,  // measure 10
0000
1000
1000
0000
,  // measure 11
0001
0001
0100
0010
,  // measure 12
0000
1000
0001
1000
,  // measure 13
1000
0010
0000
0100
,  // measure 14
0100
0000
1000
0001
,  // measure 15
0000
0100
0110
0000
,  // measure 16
0000
1000
1000
0010
,  // measure 17
0100
0001
1001
1000
,  // measure 18
1001
0000
0110
0000
,  // measure 19
0000
1001
0000
0100
,  // measure 20
0010
1000
1000
0000
,  // measure 21
1000
0100
0001
0001
,  // measure 22
0000
1000
0010
0100
,  // measure 23
0001
1000
1001
0000
,  // measure 24
1000
0010
0100
0110
,  // measure 25
2002
0000
0000
0000
,  // measure 26
0000
0000
0000
0000
,  // measure 27
3003
0010
0000
0100
,  // measure 28
0000
1000
0000
0001
,  // measure 29
0000
1000
0000
0001
,  // measure 30
0001
1001
0000
0110
,  // measure 31
1001
0000
1000
0000
,  // measure 32
0001
0000
1000
0000
,  // measure 33
0110
1000
1001
0001
,  // measure 34
0100
0100
0100
0100
,  // measure 35
1001
0000
1000
1000
,  // measure 36
0000
0001
0000
1000
,  // measure 37
0000
0001
0000
0100
,  // measure 38
0000
0100
0000
0010
,  // measure 39
0000
0001
0000
1000
,  // measure 40
0000
0100
0000
0010
,  // measure 41
0000
0000
2000
0000
,  // measure 42
0002
0000
0000
0000
,  // measure 43
3003
0000
0000
0000
,  // measure 44
0100
0100
0001
0000
,  // measure 45
0110
0000
0000
1001
0000
0000
0110
0000
,  // measure 46
0000
0001
0000
0000
,  // measure 47
0110
0000
0000
1001
0000
0000
0110
0000
,  // measure 48
0000
0000
1000
0000
,  // measure 49
0002
0000
0000
0000
,  // measure 50
0200
0003
0000
0300
,  // measure 51
0000
0010
1001
0000
,  // measure 52
0100
0110
0000
1000
,  // measure 53
1000
0001
0001
0010
,  // measure 54
0001
0100
1000
1000
,  // measure 55
0010
0100
0001
0001
,  // measure 56
1000
0100
0110
0000
,  // measure 57
1001
1000
0001
0000
,  // measure 58
1000
0001
0110
1100
,  // measure 59
1001
0000
0100
0100
,  // measure 60
0010
0100
1000
1001
,  // measure 61
0000
0100
0100
0010
,  // measure 62
0100
0110
0000
0001
,  // measure 63
0001
1000
1000
0000
,  // measure 64
0001
1000
1001
0000
,  // measure 65
0100
0110
0001
1100
,  // measure 66
2002
0000
0000
0000
,  // measure 67
0000
0000
0000
0000
,  // measure 68
3003
0100
0000
0010
,  // measure 69
0000
1000
0000
0001
,  // measure 70
0000
1000
0000
0100
,  // measure 71
0010
0110
0000
1000
,  // measure 72
0000
0100
0000
0100
,  // measure 73
0001
0000
0001
1000
,  // measure 74
0100
1000
0001
0100
,  // measure 75
0100
0001
1001
0020
,  // measure 76
0030
0000
0000
0000
;
