#TITLE:Dancing Roach Autotune;
#SUBTITLE:;
#ARTIST:Riflly2;
#TITLETRANSLIT:;
#SUBTITLETRANSLIT:;
#ARTISTTRANSLIT:;
#GENRE:;
#CREDIT:;
#BANNER:Dancing Roach Autotune.png;
#BACKGROUND:Dancing Roach Autotune-bg.png;
#LYRICSPATH:;
#CDTITLE:cdtitle.png;
#MUSIC:Dancing Roach Autotune.mp3;
#OFFSET:0.000000;
#SAMPLESTART:5.550000;
#SAMPLELENGTH:15.599999;
#SELECTABLE:YES;
#BPMS:0.000000=200.000000
;
#STOPS:
;
#BGCHANGES:0.000=Dancing Roach Autotune.avi=1.000=0=0=0=StretchNoLoop====,
99999=-nosongbg-=1.000=0=0=0 // don't automatically add -songbackground-
;
#KEYSOUNDS:;
#ATTACKS:;

//---------------dance-single - ----------------
#NOTES:
     dance-single:
     :
     Hard:
     17:
     0.684119,1.119677,0.432726,0.692361,0.706785,166.000000,151.000000,15.000000,24.000000,0.000000,0.000000,0.684119,1.119677,0.432726,0.692361,0.706785,166.000000,151.000000,15.000000,24.000000,0.000000,0.000000:
// measure 0
0000
0020
0000
0000
,  // measure 1
0030
0000
0000
0000
0000
0000
1000
0001
,  // measure 2
1000
0000
0000
0000
0010
0000
0000
0000
0010
0000
0000
0000
0000
0100
2000
0000
,  // measure 3
0000
0000
0020
0000
,  // measure 4
3030
0000
0000
0000
0000
0000
0200
0300
0000
0000
0000
0000
0001
0000
0001
0000
,  // measure 5
0010
0000
0110
0000
1000
0000
1000
0100
0010
0100
0010
0100
0000
0001
0000
1001
,  // measure 6
0000
2002
0000
0000
0000
0000
3003
0000
,  // measure 7
0000
0000
0020
0030
0020
0030
0020
0000
,  // measure 8
0000
0000
0000
0000
,  // measure 9
0030
0000
0000
0000
0000
0000
0000
0000
0000
0000
0002
0003
0100
0010
0100
0000
,  // measure 10
1000
0000
0010
0000
0100
0000
0000
0110
0000
0000
0011
0000
0002
0000
0000
0000
,  // measure 11
0003
0000
0000
0000
0000
0000
0000
0000
2000
3000
0000
1000
0010
0000
0010
0000
,  // measure 12
0100
0000
0001
0000
1000
0000
0100
0010
0000
0010
0000
0001
1000
0000
0100
0000
,  // measure 13
0100
0001
0000
0000
0000
0010
0000
0010
1000
0000
0001
0000
0001
0000
0000
0000
,  // measure 14
0100
0010
0100
0010
0100
1000
0002
0000
0003
0010
0000
1010
0000
0000
0100
0000
,  // measure 15
0010
0000
0020
0000
0000
0030
0000
0000
0110
0000
0000
0000
0010
0001
0000
0100
,  // measure 16
1000
0000
2000
0000
3000
0000
0001
0000
0001
0000
0000
0000
0010
0100
1000
0000
,  // measure 17
1000
0002
0000
0000
0003
0000
0000
0000
,  // measure 18
2000
3000
0000
0000
0000
0000
0000
0000
1000
1000
0010
0100
0001
0000
0010
0000
,  // measure 19
1100
0000
0000
1010
0000
0000
0220
0000
0000
0000
0000
0000
0000
0000
0000
0000
,  // measure 20
0000
0000
0330
0000
0000
0000
0000
0000
0000
0000
0000
0000
0001
0010
0000
0000
,  // measure 21
1000
0000
1000
0000
0100
0010
0100
0010
0100
0010
0100
0000
0001
0000
0001
0010
,  // measure 22
0000
1000
0000
1000
0000
0100
0010
0000
0001
0000
0000
0010
0000
0010
0000
0020
,  // measure 23
0000
0030
0000
0000
0000
0000
0000
0000
1000
0001
1000
0001
1000
0000
0000
0000
,  // measure 24
1010
0000
0000
0000
0110
0000
0000
0000
0001
0000
0001
0000
0001
0000
0010
0100
,  // measure 25
0010
0100
0010
0000
1000
0010
1000
0010
1000
0100
1000
0100
1000
0000
0010
0100
,  // measure 26
0010
0100
0010
0100
0010
0100
0000
0000
1010
0000
0000
0000
0110
0000
0000
0000
,  // measure 27
0000
0202
0000
0000
0000
0000
0303
0000
,  // measure 28
0000
2000
0000
0000
0020
0000
3030
0000
;

//---------------dance-single - ----------------
#NOTES:
     dance-single:
     :
     Medium:
     14:
     0.519271,0.743206,0.259635,0.634664,0.302908,126.000000,117.000000,9.000000,22.000000,0.000000,0.000000,0.519271,0.743206,0.259635,0.634664,0.302908,126.000000,117.000000,9.000000,22.000000,0.000000,0.000000:
0000
0020
0000
0000
,
0030
0000
0000
0000
0000
0000
2000
3200
,
0300
0000
0200
0000
0300
0000
0020
0000
0030
0000
0001
0000
1000
0200
0000
0000
,
0000
0020
0000
0000
,
0330
0000
0000
0000
0000
0001
0001
0010
,
0000
0100
0000
0010
0100
0010
0100
0000
,
1100
0220
0000
0330
,
0000
0000
0002
0003
0010
0000
0000
0020
,
0000
0000
0000
0000
0000
0000
0000
0030
,
0000
0000
0000
0000
0000
0000
0000
0000
0000
0020
0030
0000
0100
0000
0100
0000
,
0010
0001
1000
0000
0000
0100
1000
0000
0000
0000
0000
0000
0002
0000
0000
0000
,
0000
0000
0000
0000
0000
0000
0003
0000
2000
3000
0000
0000
0010
0000
0010
0000
,
0100
0000
0000
0000
0000
0000
0000
0000
0010
0000
0000
0001
1000
0000
0000
0000
,
0100
0010
0000
0000
0000
0001
1000
0000
0000
0000
1000
0000
0001
0000
0001
0000
,
0100
0010
0100
0010
0100
0010
0000
0000
2000
3000
0001
0000
1001
0000
0000
0000
,
0010
0000
0000
0000
0000
0000
1000
0000
0000
0000
0000
0000
0001
0000
0001
0010
,
0000
0000
0000
0000
1000
0000
0100
0000
0100
0010
0000
0000
0001
1000
0001
0000
,
0020
0000
0030
0000
,
0000
0000
0000
0000
1000
0001
0000
0000
0010
0100
0010
0000
1000
0000
0000
0000
,
1000
0000
1001
2002
0000
0000
0000
0000
,
0000
0000
3003
0000
0000
0000
0000
0000
0000
0000
0000
0000
0020
0030
0000
0000
,
0100
0010
0100
0000
1000
0000
1000
0000
1000
0000
0001
0010
0000
0000
0100
0000
,
0000
0000
0010
0000
0010
0000
0000
0000
1000
0001
0000
0000
0200
0000
0000
0000
,
0310
0000
0000
0000
0000
0000
0000
0000
0001
0000
0001
0000
0000
0000
1000
0010
,
0000
0000
0100
0001
0000
0000
0010
0000
0100
0010
0100
0000
0000
0000
1000
0000
,
0010
0010
0010
0010
0010
0010
0010
1100
,
0000
0110
0000
1001
0000
0110
0000
0010
,
0000
2000
0000
0000
0000
0000
0000
0000
,
0000
0002
0000
0000
0000
3003
0000
0000
;

//---------------dance-single - ----------------
#NOTES:
     dance-single:
     :
     Easy:
     10:
     0.506907,0.701917,0.317332,0.721209,0.000000,123.000000,112.000000,11.000000,25.000000,0.000000,0.000000,0.506907,0.701917,0.317332,0.721209,0.000000,123.000000,112.000000,11.000000,25.000000,0.000000,0.000000:
0000
0020
0000
0000
,
0030
0000
0000
0000
0000
0000
2000
3000
,
0002
0003
0002
0003
0002
0000
0003
0020
,
0230
0000
0000
2300
0000
0000
0000
3000
,
0000
0000
0000
0100
0000
0001
0000
0001
,
0000
1000
0000
0010
0100
0010
0100
0000
,
1100
0220
0000
0330
,
0000
0001
0011
0220
,
0000
0000
0330
0000
,
0000
0000
0000
0000
2000
3000
0000
0001
,
0001
0010
0000
0010
0100
0000
2020
0000
,
0000
3030
0000
0200
0300
0000
0010
0000
,
0010
1000
0000
1000
0001
0010
0100
0000
,
0100
0010
1000
0000
1000
0001
0010
0000
,
0100
0010
0100
0000
0101
0000
1100
0000
,
1000
0000
0010
0000
0110
0000
1000
0001
,
1000
0001
0010
0010
0100
0010
1000
0000
,
1000
0000
2200
0000
0000
3300
0000
0000
,
0000
0000
0002
0003
1000
0000
1000
0000
,
0100
0110
0220
0000
,
0000
0330
0000
0000
0000
0002
0003
0010
,
0010
0100
0010
1000
0000
1000
0001
0000
,
0001
0100
0010
0000
0010
0000
0010
2000
,
0000
3000
0000
0001
0001
0010
0100
0010
,
1000
0100
0000
0000
0001
1000
0001
1000
,
0001
1000
0001
1000
0001
1000
0001
1000
,
0001
1000
0001
1000
0001
1000
0001
1000
,
0001
1000
0002
0000
0000
0000
0000
0000
,
0000
0023
0000
0000
0000
0030
0000
0000
;

//---------------dance-single - ----------------
#NOTES:
     dance-single:
     :
     Beginner:
     5:
     0.337938,0.412892,0.173090,0.375029,0.000000,82.000000,76.000000,6.000000,13.000000,0.000000,0.000000,0.337938,0.412892,0.173090,0.375029,0.000000,82.000000,76.000000,6.000000,13.000000,0.000000,0.000000:
0000
0020
0000
0000
,
0030
0000
0000
1000
,
1000
1000
0010
0020
,
0000
0030
0200
0000
,
0300
0000
0000
0001
,
0001
0010
0100
0010
,
0100
0220
0000
0330
,
0000
1000
1001
0000
,
2002
0000
0000
3003
,
0000
0000
0000
0010
,
0010
0100
0010
0110
,
0000
0000
0000
1000
,
1000
0001
0010
0100
,
0010
0010
1000
0001
,
1000
1000
0001
0010
,
0010
0110
1000
0000
,
0001
0001
0010
0100
,
0010
2000
0000
3000
,
0000
0000
0001
0010
,
0001
0001
2002
0000
,
3003
0000
0000
0010
,
0010
0100
0010
0010
,
1000
1000
0001
0001
,
2000
3000
0001
0010
,
0010
0100
1000
1000
,
1000
1000
1000
1000
,
1000
1000
1000
1000
,
1000
2000
0000
0000
,
3002
0000
0000
0000
0000
0003
0000
0000
;
