#VERSION:0.83;
#TITLE:Dance Whit The Dead;
#SUBTITLE:;
#ARTIST:BEMANI Sound Team "SYUNN";
#TITLETRANSLIT:;
#SUBTITLETRANSLIT:;
#ARTISTTRANSLIT:;
#GENRE:;
#ORIGIN:;
#CREDIT:PaperBox440;
#BANNER:Dance With The Dead.png;
#BACKGROUND:Dance With The Dead-bg.png;
#PREVIEWVID:;
#JACKET:Dance With The Dead-jacket.png;
#CDIMAGE:;
#DISCIMAGE:;
#LYRICSPATH:;
#CDTITLE:;
#MUSIC:Dance With The Dead.mp3;
#OFFSET:0.000000;
#SAMPLESTART:14.800000;
#SAMPLELENGTH:12.400001;
#SELECTABLE:YES;
#BPMS:0.000=150.000;
#STOPS:;
#DELAYS:;
#WARPS:;
#TIMESIGNATURES:0.000=4=4;
#TICKCOUNTS:0.000=4;
#COMBOS:0.000=1;
#SPEEDS:0.000=1.000=0.000=0;
#SCROLLS:0.000=1.000;
#FAKES:;
#LABELS:0.000=Song Start;
#BGCHANGES:;
#KEYSOUNDS:;
#ATTACKS:
;

//---------------dance-single - ----------------
#NOTEDATA:;
#CHARTNAME:;
#STEPSTYPE:dance-single;
#DESCRIPTION:;
#CHARTSTYLE:;
#DIFFICULTY:Hard;
#METER:14;
#RADARVALUES:0.625386,0.744489,0.507435,0.369826,0.528937,509.000000,450.000000,59.000000,43.000000,0.000000,0.000000,0.000000,0.000000,0.000000,0.625386,0.744489,0.507435,0.369826,0.528937,509.000000,450.000000,59.000000,43.000000,0.000000,0.000000,0.000000,0.000000,0.000000;
#CREDIT:;
#NOTES:
0000
0000
0000
0000
0000
0000
0000
0000
0000
0000
0000
0000
0000
0000
0000
2000
,
0002
0000
0000
0003
0020
0000
0030
0000
,
0200
0000
0000
0300
0002
0000
3003
0020
,
0000
0030
0100
0000
2000
0000
0000
3001
,
0010
0000
0110
0000
0001
0100
0000
0100
,
0000
1001
1001
0000
0100
0100
0001
0010
,
0001
1000
1000
0010
0100
0100
0001
0010
,
0001
1000
1000
0010
0100
0010
0001
0100
,
0110
2000
0000
3001
,
1001
0200
0000
0000
0300
0000
1100
0000
,
1010
0000
0110
1000
0001
0010
1100
0100
,
0001
1000
0101
0001
0010
0100
0110
1000
,
1000
0001
0011
0100
1000
0010
1001
0000
,
0000
0000
0100
0010
0100
1000
0001
0010
0000
0100
0000
0000
0100
0001
0010
0001
,
1000
0000
1000
0000
0100
0010
0000
0010
0001
0100
0000
0100
1000
0000
0001
0100
,
0001
0000
0001
0010
0001
0000
1000
0000
1000
0100
1000
0100
2000
0000
0000
0000
,
3001
0000
0000
0010
0000
0100
0000
0000
0010
0100
0010
0000
1001
0000
0000
0100
,
0010
0100
0000
0000
1100
0000
0010
0000
0001
0000
0010
0000
0010
0000
1000
0100
,
1000
0000
0001
0000
0100
0000
0100
0001
0010
0001
1000
0000
1000
0000
0000
0100
,
0010
0100
0001
0000
0000
0001
1000
0100
1000
0010
0000
0010
0100
0001
0000
0001
,
1000
0100
1000
0010
0000
0010
0100
0000
0000
0100
0000
0001
0010
0001
1000
0000
,
1000
0100
0000
0000
0100
0010
0000
0010
0001
0000
1000
0000
1001
0000
0000
0010
,
0100
0010
0000
0000
1100
0000
1010
0000
0000
0001
0000
0000
0100
0010
0100
0000
,
1000
0000
1000
0000
0001
0010
0000
0000
0001
0010
0000
0000
0001
0010
0000
0000
,
1001
0000
0000
0000
1100
0000
0001
0000
0010
0010
1000
0100
1000
0000
0001
0000
,
0110
0000
0000
0000
1000
0000
1000
0000
1000
0000
0100
0010
0100
0000
0001
0000
,
0001
0000
1000
0000
1001
0000
0000
0000
0100
0010
0100
0000
0001
0000
0001
1000
,
0000
1000
0100
1000
0001
0001
0100
0010
0100
0000
1000
0000
0000
1000
0001
0000
,
0000
0001
0000
0000
1100
0000
0000
0000
1010
0000
0000
0001
0000
0001
0000
0000
,
0110
0000
0000
1000
0100
1000
0001
0000
0001
0100
0000
0100
0010
0000
0010
0000
,
0001
0000
0100
0000
0100
1000
0000
0000
1000
0001
0010
0001
0000
1000
0000
0000
,
1000
0000
0000
0000
0100
0010
0000
0100
0010
0000
0100
0010
0000
0100
0010
0000
,
0000
1000
0000
0000
1001
0000
0000
0000
0100
0010
0100
0000
0001
0000
0001
0000
,
2200
0000
0000
0300
,
0002
0000
0000
0000
,
3000
0000
0200
0000
,
0003
0000
0010
0300
0001
1000
1000
0000
,
1001
2002
0000
0000
,
0003
0000
3200
0000
0000
0000
0001
0001
,
0301
0000
2000
0000
0000
0000
0010
0010
,
3010
0000
0002
0000
0100
0100
0103
0000
,
1001
1100
0010
0110
,
1001
0110
0010
1010
,
1000
0000
1000
1000
0100
0100
0010
0100
,
0010
0000
0010
1000
0100
1000
0001
0001
,
0100
0000
0100
0000
0001
0010
0001
0000
1000
0100
1000
0000
0010
0100
0010
0000
,
0001
0000
0010
1000
0100
1000
0001
0000
0000
0001
0100
0010
0100
1000
0000
1000
,
0001
0000
0001
0000
0010
0100
0000
0000
1000
0100
0000
0000
0001
0010
0000
1000
,
0000
1000
0000
0100
0000
0000
0000
0100
0000
0000
1001
0000
0020
0000
0030
0000
,
0110
0000
1000
1000
0100
0002
0003
0002
,
0003
0000
1000
0000
2002
0000
3003
0000
0110
0000
0000
0000
0001
1000
0001
0000
,
0100
0000
0100
0001
0010
0001
0000
0100
1000
0000
0000
0000
1001
0000
0000
0000
,
0100
0010
0100
0001
0000
0000
0001
0000
1100
0000
0000
0000
1000
0100
1000
0000
,
0001
0010
0001
0000
0100
0000
0000
0100
0000
0000
2002
0000
3003
0000
1000
0000
,
2200
3300
0010
0000
0220
0000
0330
0000
,
1000
0001
0010
0001
0100
0000
0100
0000
0010
0000
1000
0100
1000
0000
0001
0000
,
0001
0000
0100
0010
0100
0000
0001
0000
0000
0001
1000
0000
1000
0000
1000
0100
,
0010
2002
3003
0010
2200
3300
0000
0100
,
0022
0000
0033
0000
0000
0000
1001
0000
0010
0100
0010
0000
0100
0000
0000
0100
,
1000
0000
0000
1002
0000
0000
0003
0000
0000
0110
0000
0000
1000
0000
0001
0010
,
0001
0000
0100
0000
0010
0000
0010
0000
1000
0100
1000
0001
0000
0001
0000
0000
,
0110
0000
0000
1010
0000
0001
0000
0001
0000
0001
1000
0100
1000
0000
0000
0000
,
1001
0000
0010
0100
0010
0000
1100
0000
0010
0000
0110
0000
0000
0001
1000
0000
,
1001
0020
0030
2000
3000
1001
0000
1100
,
0200
0000
0000
0000
0300
0000
1001
0000
0000
0000
0010
0000
1000
0100
0010
0000
,
0001
1000
0000
0001
2000
0000
0000
0000
0000
0000
0002
0000
0000
0000
0000
0000
,
0003
0010
0200
0000
0000
0300
0000
0000
,
0000
0000
0000
0000
,
0000
0000
0000
0000
,
0000
3000
0000
0000
;

//---------------dance-single - ----------------
#NOTEDATA:;
#CHARTNAME:;
#STEPSTYPE:dance-single;
#DESCRIPTION:;
#CHARTSTYLE:;
#DIFFICULTY:Medium;
#METER:12;
#RADARVALUES:0.470576,0.536032,0.473033,0.223616,0.012901,383.000000,328.000000,55.000000,26.000000,0.000000,0.000000,0.000000,0.000000,0.000000,0.470576,0.536032,0.473033,0.223616,0.012901,383.000000,328.000000,55.000000,26.000000,0.000000,0.000000,0.000000,0.000000,0.000000;
#CREDIT:;
#NOTES:
0000
0000
0000
0000
0000
0000
0000
0000
0000
0000
0000
0000
0000
0000
0000
2000
,
0002
0000
0000
0003
0020
0000
0030
0000
,
0200
0300
0002
3003
,
0020
0000
0130
0000
2000
0000
0000
3001
,
0010
0110
0001
0100
,
0000
1000
1001
0000
0100
0000
0001
1000
,
0001
0000
1000
0000
0100
0010
0100
0000
,
0010
0000
1000
0001
1000
0000
0001
0000
,
1001
0010
0100
0010
,
1000
1000
0000
0000
0001
0000
1100
0000
,
1001
0000
0100
0000
0100
0000
0010
0001
,
0000
0001
0100
0000
0100
0010
0000
0010
,
0001
0000
0001
1000
0000
1000
0010
0000
,
0010
0100
0100
0001
1000
1000
0001
0001
,
0010
0100
0010
1000
0100
1000
0001
0001
,
1000
1000
1000
0001
0001
0001
2000
0000
,
0000
3001
0000
0010
0010
0000
2000
0000
,
3000
0000
1001
0000
0000
0010
0000
0000
0110
0000
0000
0000
1000
0000
1000
0000
,
0001
0001
0010
0100
0010
1000
1000
0001
,
0001
0100
0010
0100
1000
1000
0001
0001
,
0001
0100
0010
0100
1000
1000
0001
0001
,
0100
0010
0100
1000
1000
0001
0001
0010
,
1000
0100
1000
0001
0001
0010
2000
0000
,
3001
0000
0001
0010
1000
0100
0010
0100
,
1001
0000
0100
0010
0001
0000
0110
0000
,
1100
0000
0001
0001
0001
0001
1000
1000
,
1000
1000
0010
0001
1001
0000
0010
0100
,
0100
0001
0010
0001
1000
1000
0011
0000
,
0110
1100
1001
0010
,
0100
0010
0001
0001
1100
0000
0010
0001
,
1001
0000
0100
1000
1100
0000
1001
0000
,
1001
0000
0000
0010
0100
0001
0010
1000
,
0100
0001
0010
1000
0100
0000
0110
0000
,
2002
0000
0000
0003
,
0200
0000
0000
0000
,
3000
0000
0002
0000
,
0300
0000
0000
0003
0100
0000
1000
0000
,
1001
2002
0000
0000
,
3003
0000
0200
0000
0000
0000
0000
0001
,
0301
0000
2000
0000
0000
0000
0010
0010
,
3001
0000
0000
0000
1001
0000
0000
0000
0100
0010
0000
0000
1000
0000
0000
0000
,
1001
0011
0110
1100
,
0001
0010
0100
0100
,
1000
0001
1000
0010
,
0010
0100
1100
0001
,
1000
0100
0010
0100
0100
0001
0001
0010
,
0100
0001
0001
1000
1000
0100
0010
0002
,
0000
0000
0010
0000
0100
1000
1000
0100
,
0103
0000
1001
2200
,
0000
3300
0001
0001
0010
0000
0110
0000
,
1001
0000
0100
0000
1100
0000
0001
1000
,
0001
1000
0001
0000
0110
1000
1000
0000
,
1100
0001
0001
0000
1001
0000
0100
0000
,
0011
1000
1000
0000
1100
0000
0001
0000
,
0110
1000
1000
0000
1001
0000
0001
1000
,
0001
0000
1000
0000
1000
0000
0010
0100
,
0010
0000
1001
0000
1000
0001
0010
0001
,
0000
1001
0000
0100
0000
1100
0000
0000
,
0110
0000
0001
0010
0001
1000
1000
0000
,
0110
0000
2000
0000
3001
0000
0000
0001
,
1000
0001
1000
0010
0100
0010
0100
0001
,
0001
1000
1000
0000
0110
0000
0001
0000
,
1100
0000
0011
0000
0110
0000
0001
1000
,
1100
0020
1030
1001
,
0011
0000
2200
0000
3300
0000
0001
0001
,
0010
0100
2000
0000
0000
0000
0001
0000
,
0000
0000
0000
0000
,
0010
0010
0000
0000
,
0000
0000
0000
0000
,
0000
3000
0000
0000
;

//---------------dance-single - ----------------
#NOTEDATA:;
#CHARTNAME:;
#STEPSTYPE:dance-single;
#DESCRIPTION:;
#CHARTSTYLE:;
#DIFFICULTY:Easy;
#METER:6;
#RADARVALUES:0.325594,0.433793,0.447231,0.154811,0.000000,265.000000,213.000000,52.000000,18.000000,0.000000,0.000000,0.000000,0.000000,0.000000,0.325594,0.433793,0.447231,0.154811,0.000000,265.000000,213.000000,52.000000,18.000000,0.000000,0.000000,0.000000,0.000000,0.000000;
#CREDIT:;
#NOTES:
// measure 0
0000
0000
0000
0000
,  // measure 1
0002
0000
0000
0000
0000
0020
0003
0000
,  // measure 2
0000
0230
0000
0000
2000
0300
0000
0000
,  // measure 3
0000
0000
0020
0000
,  // measure 4
0030
0000
3010
0100
,  // measure 5
0001
1001
0000
0001
,  // measure 6
0000
1000
0100
0100
,  // measure 7
0010
0000
1000
0001
,  // measure 8
1001
0000
0100
0001
,  // measure 9
1000
1001
0010
0110
,  // measure 10
0000
1000
1000
0000
,  // measure 11
0001
0001
0000
0100
,  // measure 12
0100
0000
0010
0010
,  // measure 13
0001
0010
0100
1000
,  // measure 14
0100
0010
0001
0010
,  // measure 15
0100
0100
1000
1000
,  // measure 16
1001
0010
0100
0000
,  // measure 17
0020
0130
1000
1000
,  // measure 18
0001
0001
0010
0100
,  // measure 19
0010
1000
1000
0001
,  // measure 20
0001
0010
0100
0010
,  // measure 21
1001
1000
0001
0110
,  // measure 22
0000
1100
1001
0000
,  // measure 23
1001
0100
0100
0010
,  // measure 24
0110
0001
0010
0100
,  // measure 25
0010
1000
1000
1000
,  // measure 26
1000
0001
0001
0001
,  // measure 27
0001
0010
0100
1001
,  // measure 28
1100
0110
0011
0000
,  // measure 29
0110
0000
1000
1001
,  // measure 30
0100
0100
0001
0010
,  // measure 31
1000
0100
0100
0001
,  // measure 32
0001
0010
1000
0100
,  // measure 33
2002
0000
0000
0003
,  // measure 34
0200
0000
0000
3000
,  // measure 35
0000
0000
0002
0300
,  // measure 36
0000
0003
0100
1000
,  // measure 37
1001
2002
0000
0000
,  // measure 38
3003
0200
0000
0000
,  // measure 39
0301
2000
0000
0010
,  // measure 40
3001
1001
0000
0110
,  // measure 41
1000
1000
0001
0001
,  // measure 42
0010
0100
0010
0001
,  // measure 43
1000
0001
0100
0010
,  // measure 44
0100
0010
0100
1000
,  // measure 45
1001
0001
1000
0100
,  // measure 46
0010
0100
0010
0001
,  // measure 47
1000
1000
0001
0001
,  // measure 48
0110
0000
2002
3003
,  // measure 49
0110
0001
1001
1001
,  // measure 50
0100
0110
0001
1001
,  // measure 51
0100
1100
0011
0000
,  // measure 52
1100
0000
0110
0000
,  // measure 53
1001
0100
1100
0001
,  // measure 54
1001
0200
0310
0001
,  // measure 55
0001
1000
1000
0101
,  // measure 56
0010
0110
1000
1000
,  // measure 57
1001
0010
0100
0110
,  // measure 58
0001
1000
0001
1100
,  // measure 59
0011
0100
0110
0001
,  // measure 60
0001
0001
0100
1000
,  // measure 61
1001
0010
0110
1000
,  // measure 62
1100
0001
1001
0000
,  // measure 63
0110
2000
3001
0000
,  // measure 64
0110
1100
0000
0001
,  // measure 65
0001
1001
0000
0001
,  // measure 66
0000
0000
0000
0000
,  // measure 67
0010
0010
0000
0000
;
