#TITLE:Dance Dance Revolution X3 vs 2nd Mix;
#SUBTITLE:;
#ARTIST:Various Artists;
#TITLETRANSLIT:DDR X3 vs 2nd mix;
#SUBTITLETRANSLIT:;
#ARTISTTRANSLIT:;
#GENRE:;
#CREDIT:;
#BANNER:DDR X3 vs 2nd Mix.png;
#BACKGROUND:DDR X3 vs 2nd Mix-bg.png;
#LYRICSPATH:;
#CDTITLE:cdtitle.png;
#MUSIC:DDR X3 vs 2nd Mix.mp3;
#OFFSET:0.000000;
#SAMPLESTART:353.061127;
#SAMPLELENGTH:6.140015;
#SELECTABLE:YES;
#BPMS:0.000000=162.000000
,72.000000=166.000000
,104.000000=128.000000
,143.000000=170.000000
,192.000000=190.000000
,260.000000=220.000000
,331.000000=280.000000
,356.000000=290.000000
,382.000000=300.000000
,432.000000=48.000000
,436.000000=68.000000
,437.500000=88.000000
,439.500000=108.000000
,440.500000=118.000000
,441.500000=128.000000
,444.000000=177.000000
,508.000000=192.000000
,637.000000=140.000000
,701.250000=300.000000
,783.000000=200.000000
,797.000000=100.000000
,808.000000=120.000000
,812.000000=159.000000
,814.000000=190.000000
,816.250000=220.000000
,820.000000=280.000000
,823.000000=380.000000
,893.500000=100.000000
,896.000000=599.000000
,905.000000=230.000000
,972.000000=148.000000
,1008.000000=188.000000
,1042.000000=280.000000
,1099.000000=249.999985
,1183.000000=360.000000
,1370.500000=100.000000
;
#STOPS:443.729156=0.200000,
895.979187=1.500000
;
#BGCHANGES:;
#KEYSOUNDS:;
#ATTACKS:;

//---------------dance-single - ----------------
#NOTES:
     dance-single:
     :
     Hard:
     17:
     1.047718,1.433636,0.834623,0.119232,0.755981,2891.000000,2562.000000,329.000000,47.000000,0.000000,0.000000,1.047718,1.433636,0.834623,0.119232,0.755981,2891.000000,2562.000000,329.000000,47.000000,0.000000,0.000000:
0000
0000
0000
0000
,
0100
0100
0010
0001
1010
0100
0010
1000
,
0011
0100
1100
0010
0010
1000
0001
0100
,
0011
0000
1010
0001
1100
0010
0010
0001
,
0100
0100
0110
0000
0011
0000
1010
0000
,
0200
0310
1000
0100
0010
0001
0011
1000
,
0100
0100
1010
0001
0001
1000
0010
0100
,
0010
0110
0000
0001
1000
0100
1000
0010
,
0001
0100
0100
0010
1000
0100
0011
0001
,
2000
0000
0000
3000
,
0010
0100
0010
1000
0100
0100
0001
0010
,
1000
1000
0010
0100
0010
0100
0011
1000
,
0100
1000
1000
0010
0100
0100
0002
0010
,
0010
0000
0013
0000
0100
1000
1000
0010
,
0100
0110
0001
0010
1000
1001
0010
0100
,
0101
1000
1000
1000
0010
0100
0110
0001
,
0001
1000
0100
1000
1010
0100
0010
0001
,
1100
1000
0100
0010
0020
0000
0000
0000
,
0230
0000
0320
0000
,
2000
0000
0030
0000
0002
0000
3000
0003
,
0000
0110
0110
0000
1001
0010
1000
0001
,
1100
1100
0010
0100
0000
0011
0101
0100
,
1010
1100
0002
0000
0020
0000
0003
0000
,
2000
0030
0200
0000
,
3300
0110
0110
0000
1000
0001
0000
1010
,
1010
0100
0010
0100
0001
1010
0100
0101
,
0011
0000
1000
0100
0100
0001
0010
0100
0000
0010
1000
0000
0100
0000
0100
0000
,
0011
1001
0100
1010
0100
0001
0011
1000
,
1100
0000
1000
0010
0100
0000
0001
0010
1000
0100
1000
0001
0010
0000
0010
0100
,
0010
0000
1000
0000
0100
1001
0010
0000
0100
0010
1000
0000
1010
0000
0100
0001
,
0000
0001
1000
0100
1000
0000
0010
0100
0010
0000
0001
0000
0011
0000
1010
0000
,
0100
0010
0100
0001
1000
0100
1000
0001
0010
0000
0010
0100
0000
0010
0001
0000
,
0110
1010
1100
1001
0200
0010
0001
1300
,
0010
0000
0000
0001
0000
0000
0010
0000
0000
0200
0000
0000
0000
0000
0000
0000
0000
0000
1000
0000
0000
0010
0000
0000
0000
0000
0000
0001
0000
0000
1000
0000
0300
0000
0000
0000
0000
0000
0000
0001
0000
0000
0100
0000
0000
0000
0000
0000
,
0010
0100
1000
0000
0102
0000
0010
0000
1000
0000
0100
0003
0100
0000
0010
0000
,
0100
1010
1000
0011
0100
0110
2020
0000
,
3030
0000
0100
0000
0100
1000
0000
0010
0100
0000
0010
0001
1000
0000
0000
1000
,
0010
0000
0100
0010
0001
0000
1000
0000
0020
0000
0000
0000
0100
0000
0030
0000
,
0100
0010
1000
0000
0001
0010
0001
1000
0100
0000
1000
0010
0000
0000
1010
0000
,
0000
0110
0000
0000
0101
0000
0000
0010
0100
0010
0100
0000
0001
1000
0010
0000
,
0010
0001
0100
0000
1010
0000
0000
0100
1000
0001
0010
0000
0001
0100
1010
0000
,
0000
0010
0100
0001
0000
0001
1000
0000
0100
1000
0000
0010
0100
0000
0010
0001
,
1100
0000
0000
0000
1010
0000
1010
0000
0100
0010
0001
0000
0000
0001
0100
0000
,
1010
0000
0010
1000
0000
0100
1000
0000
0001
0010
0001
0100
0000
1010
0000
0000
,
0110
0000
0000
0100
0000
0010
0010
0000
0100
1000
0001
0000
0001
0100
0000
0000
,
0100
1010
0000
0000
0010
1000
0000
0100
1000
0011
0000
0000
0001
0100
0010
0000
,
0000
0010
1000
0000
0100
1000
0011
0000
0000
0001
1000
0100
0000
1000
0010
0100
,
0010
0100
0000
0001
0001
1000
0000
0100
1000
0010
0000
0100
0010
0000
0100
0000
,
2002
0000
0000
0000
3003
0000
0000
0000
1000
0000
1000
0000
0110
0000
0100
1000
,
0001
0010
0001
0000
0100
1010
0000
0000
0010
1000
0000
0100
1000
0001
0000
0010
,
0001
0100
1010
0000
0000
0010
1000
0000
0100
1000
0011
0000
0000
0001
0010
0000
,
0100
0010
1000
0000
0100
1000
0001
0000
0001
0100
1010
0000
0000
0010
0001
1000
,
0000
0100
1000
0010
0000
0010
0001
0100
1000
0010
0010
0100
0000
0001
1000
0000
,
1010
0000
0100
0001
0010
0000
0001
1000
0100
0010
0100
0000
0010
1000
0000
0001
,
0100
0001
1000
0000
0000
1001
0000
0000
0010
0001
0100
0000
1010
0000
1000
0010
,
0100
0000
0010
0001
1000
0100
1000
0000
0010
0100
0000
2002
0000
0000
3003
0000
,
0100
0010
0100
0010
0100
0000
0000
0000
1100
0000
0100
0000
0110
0000
0000
0000
,
0011
0000
1010
0000
0100
0001
1000
0000
0100
1000
0001
0100
0000
0000
0110
0000
,
1001
0000
0000
0010
0000
0100
0010
1000
0100
1000
0001
0000
0010
0001
0000
0000
,
1010
0000
0110
0000
0000
0001
0000
0100
0010
1000
0100
1000
0001
0000
0110
0000
,
1001
0000
0000
0100
0010
0001
0010
1000
0000
0100
1000
0001
0000
0010
0001
0000
,
1100
0000
1010
0000
0000
0100
0001
0100
0010
0000
0010
0001
1000
0100
1000
0001
,
0000
0000
0110
0000
1001
0000
0110
0000
0100
1000
0001
0010
0000
0100
0000
0000
,
1010
0000
0110
0000
0010
0001
0100
0010
1000
0100
1000
0000
0010
0001
0010
0001
,
0010
1000
0100
1000
0010
0001
0100
0000
0100
0010
1000
0010
1000
0000
0100
0000
,
0220
0000
0000
0000
,
0000
0000
0330
0000
0001
0010
1000
0100
,
1000
1000
0001
0010
0100
1010
0100
0001
,
0011
1000
0100
1000
1000
0010
0110
0100
,
0011
0010
1000
0100
1000
0011
0001
0100
,
1010
0010
0100
1000
0101
0001
0010
0001
,
0100
1010
1000
0001
0100
0110
0010
1000
,
0011
0001
0100
1010
1000
0100
1000
0010
,
0001
0011
0100
1010
0100
0001
0001
1000
,
1000
0000
0100
0010
0100
0000
0010
0100
0010
0000
0100
0000
0011
0000
1000
0000
,
1010
0100
0110
0001
1000
1001
0010
0100
,
0110
0000
0100
0010
1000
1000
0011
0001
,
0100
1010
0010
1000
0000
0010
1100
0010
,
0100
0010
1001
0100
0001
0100
0010
1000
,
0100
1010
0101
0010
0001
0100
1010
0010
,
0001
1000
0100
1010
0100
0010
0001
0100
,
1010
0000
1000
0000
0011
0000
1000
0000
0100
0000
1000
0000
0010
0000
0100
0010
,
0000
0100
0010
0001
1000
0000
0100
1000
0010
0001
0100
0000
1000
0000
0001
0000
,
0100
0010
0001
0100
0010
1000
0100
1000
,
0001
0010
0001
0100
1000
0110
0000
0100
,
0010
1001
1000
0001
0110
0010
0100
1000
,
0011
1000
0100
0010
0001
0100
1000
0010
,
0001
0100
1010
0100
0010
1000
0002
0000
,
0000
0000
1000
0000
1000
0010
0103
0010
,
0000
1000
0010
0100
1001
0000
1000
0001
,
0110
0000
0100
1010
0000
0010
1000
0011
,
0000
0001
1000
0110
0000
0010
1000
0001
,
0001
0110
0000
0100
1010
0000
1000
0100
,
1000
0011
0000
0001
0100
1010
0000
0100
,
0010
0001
1100
0000
1000
0100
0001
1000
,
0010
0100
0000
0010
1000
0001
1000
0100
,
1000
0001
0010
0100
0010
1000
0001
0010
,
0001
1000
0010
0100
0010
1000
0100
1000
,
0001
0010
0001
0010
0100
0010
1000
0001
,
1000
0001
1000
0001
0010
0100
0010
0100
,
1000
0001
0010
0001
1000
0010
0001
0100
,
1000
0100
1000
0100
1000
0010
0001
0100
,
1010
0000
0100
0010
0100
1001
0000
1001
,
0000
0010
0001
0100
1000
0010
0001
1000
,
0100
1000
0000
0010
0100
0010
0100
0010
,
0100
0010
1000
0100
1000
0001
0010
0001
,
0100
1010
0000
1000
0100
0010
0100
1001
,
0000
0001
0010
0001
1000
0100
0010
0100
,
0000
1000
1000
0010
0100
0001
0001
1000
0100
1000
0010
0100
0100
0001
1000
0010
,
0110
0000
0100
0100
0010
1000
1001
0000
0001
0000
0110
1000
0100
0000
1000
0000
,
0010
0000
1010
0000
0000
0100
0100
0000
0001
0000
0100
0000
0010
0000
0100
0000
,
0000
0000
0000
0000
1000
0000
0000
0000
0100
0000
0001
0000
0010
0001
0100
1000
,
0000
0010
0000
0100
0010
0001
0000
0000
0001
0000
0000
1000
0010
0000
0100
0000
,
0010
0000
0000
0010
0001
1000
0000
0100
1000
0000
0110
0000
0000
0010
0100
0000
,
1001
0000
0000
0001
1000
0000
0100
1000
0010
0000
0100
0010
0001
0000
0000
0001
,
1000
0100
0000
1000
0010
0100
0000
0010
0001
1000
0100
0000
1000
0000
0100
0000
,
0010
0000
0010
0000
0100
0001
0000
0010
1000
0000
0100
1000
0001
0000
0001
0010
,
0100
0000
0010
0000
1000
0001
0100
0000
0010
1000
0000
0100
1000
0001
0000
0000
,
0001
0100
1010
0000
0000
1000
0010
0100
0000
0010
0001
1000
0000
0000
1000
0000
,
0020
0000
0000
0000
0130
0000
0100
0000
0001
0000
1010
0000
0000
1000
0010
0100
,
0000
1001
0000
0000
0001
0100
0010
0000
0000
0010
0001
1100
0000
0000
0100
0000
,
0000
0100
1000
0001
0000
0010
0001
1000
0000
0000
1000
0010
0000
0000
0010
0000
,
0100
0010
0001
1000
0000
0100
1000
0010
0000
0000
0010
0000
0001
0000
1000
0000
,
1000
0000
0010
0100
0001
0000
0000
0001
1000
0000
0000
1010
0000
0000
0001
0000
,
0010
0100
0000
0010
1000
0001
0000
0000
0001
0000
0110
0000
0000
0010
1000
0000
,
0100
1000
0000
0010
0001
0000
0100
1010
0000
0000
0010
1000
0000
0100
1000
0000
,
0001
0001
0000
0010
0001
1000
0000
0100
1000
0000
0110
0000
1000
0000
0010
0000
,
1001
0000
0010
1000
0011
0000
0001
1000
,
0010
0100
0010
1000
0001
1000
0010
0100
,
0010
0100
1000
0001
0100
0001
0010
1000
,
0010
0100
1000
0010
0100
0001
1000
0001
,
1000
0000
1010
0000
0100
0001
0010
0001
,
0100
1010
0000
0010
1000
0001
0100
0010
,
0100
0000
0001
1010
0000
1000
0001
0100
,
0010
1000
0001
0100
0100
0010
0001
1000
,
1000
0020
0000
0000
0130
0100
0001
1000
,
0100
0000
1000
0010
0100
0000
0001
0000
0010
0001
1000
0000
0100
1000
0010
0100
,
0000
0010
1000
0000
0001
0000
0010
0001
0100
0010
0000
0000
1010
0100
0000
0000
,
0100
0001
0000
0000
1001
0100
0010
0000
1000
0000
0000
1100
0001
0010
0000
0000
,
0110
0000
0000
0001
1000
0000
0000
1001
0100
0000
0010
0100
0000
0000
1010
0000
,
0100
0001
0000
0000
1001
0000
0010
0000
0100
0001
0000
0000
1001
0100
0000
0010
,
1000
0100
0000
1000
0001
0000
0010
0000
1000
0001
0000
0010
0001
0100
0000
1010
,
0000
0000
0010
0000
0100
0010
0000
1001
0100
0000
1000
0000
0020
0000
0000
0000
,
0030
0000
0100
0000
0100
0000
0001
0000
0000
0100
1010
0000
0000
0010
0001
1000
,
0100
0000
1000
0010
0000
0001
0100
0000
1010
0000
0011
0000
1100
0000
0000
0000
,
0001
0000
0000
0000
0010
0000
0010
0100
0001
1000
0100
1000
0001
0000
0010
0100
,
0000
0000
1010
0000
0000
0100
0001
0000
0000
0110
0000
0000
0010
0000
1000
0000
,
0001
1000
0001
0000
1000
0000
0100
0010
0000
0010
0000
1001
0000
0000
0001
0110
,
0000
0000
0010
0000
1000
0000
0100
1000
0000
0001
0110
0000
0000
0100
1010
0000
,
0000
1000
0001
0010
0000
0001
0100
0000
1010
0000
1000
0000
0100
0000
0100
0010
,
0000
0010
0001
1000
0000
0010
0100
0000
0002
0000
0000
0000
2003
0000
3000
0000
,
0010
0000
0001
0000
0110
0000
0000
0100
0000
1010
0000
0000
0010
1000
0000
0011
,
0000
0000
0001
0000
0100
0000
1010
0000
0000
0010
0100
0000
0000
0100
1000
0001
,
0000
0000
0001
0000
0110
0000
0000
0010
0100
0000
1001
0000
0000
0001
1000
0000
,
0100
1000
0000
0110
0000
0000
0010
0100
0000
0001
0000
1000
0000
0001
1000
0000
,
0010
0100
0000
0010
0100
0000
0000
0100
0000
1010
0000
0000
1000
0011
0000
0000
,
0001
0100
0000
1010
0000
0000
0010
0001
1000
0000
0100
1000
0000
0100
0000
0000
,
0011
0001
0100
1010
0010
0100
1001
0000
,
0001
0000
0100
0000
0010
0000
0100
0000
0000
1000
0010
0001
1000
0001
0010
0000
,
0100
0010
0001
1000
0100
0100
0000
0000
0100
0010
0000
0001
0000
0000
1000
0001
,
0100
0010
0000
0000
0010
0000
1000
0000
1000
0001
0100
0100
0000
0010
0100
0000
,
0001
0000
0010
0001
1000
1000
0000
0100
1000
0000
0010
0010
0001
0100
0000
0100
,
1000
0000
0001
0100
0000
0010
0010
1000
0000
1000
0001
0100
0000
0100
0001
0000
,
2000
0000
0000
0000
3010
0010
0000
0001
0000
0010
0100
0000
0010
1000
0001
0000
,
0000
0001
0001
1000
0000
0000
1000
0010
0000
0100
0100
1000
0001
0000
0000
0001
,
1000
0000
0100
0010
0010
0001
0000
0001
1000
0000
0100
0010
0000
0010
0001
1000
,
0100
1000
0000
0010
0010
0000
0000
1000
0100
1000
0001
0010
0100
0010
0100
0000
,
0010
0001
0100
0010
1001
0000
0100
0000
0010
0100
0100
0000
1000
1000
0000
0010
,
0100
0001
0000
0000
0001
1000
0100
1000
0011
0000
0001
0000
0100
1010
0000
0000
,
0010
0001
0000
0100
1010
0000
0000
0010
0001
1000
0000
0100
1000
0000
0110
0000
,
0010
0001
1000
0000
0100
1000
0001
0000
0001
0100
0000
0100
0000
0000
1010
0000
,
0000
0010
0001
0100
0000
1010
0000
1000
0110
0000
0000
0010
0000
1000
0001
0100
,
0010
0000
0010
0001
1000
0100
1000
0010
0100
0000
0110
0000
0000
0000
0010
1000
,
0001
0100
0010
0100
0010
0001
1000
0000
0100
1000
0010
0000
0000
0100
0010
0000
,
0010
0001
1000
0000
0100
1000
0001
0000
0001
0100
0000
0000
1010
0000
0100
0001
,
0001
1000
0100
1000
0010
0000
0000
0000
0000
0000
0100
0000
1000
0000
0000
0000
,
0010
0001
0000
0110
0000
1100
0000
1000
,
0010
0100
0000
0011
1000
1000
0001
0100
,
0010
0010
1000
0001
1000
0100
0010
0100
,
0010
0001
1000
0100
1000
0001
0100
0010
,
0000
0100
1000
0001
1000
0001
1000
0010
,
0100
0010
0001
0100
1000
0010
0010
1000
,
0000
0010
1001
0000
1000
0001
0100
0010
,
1000
0000
0100
1000
0000
0001
0010
0001
,
1000
0100
0100
0010
0000
0010
0001
0100
,
1010
0000
1000
0001
0010
0001
0100
0000
,
0110
0000
1010
0000
0100
1000
0001
0010
,
0001
1000
0000
1000
0010
0100
0010
0001
,
1000
1000
0011
0000
0101
0000
0110
0000
,
1010
0000
1100
0000
0000
0001
0010
0001
,
1000
0010
0100
0010
0000
0000
0110
0000
,
1010
0110
0101
0011
,
0101
0110
1010
0110
,
0001
1000
0001
0000
0110
0000
1010
0000
,
0110
0000
0101
0000
0110
0000
0010
0001
,
1000
0100
1000
0010
0001
0000
0000
1000
,
0100
1000
0001
0010
0100
1010
0010
0100
,
0001
1000
0010
1100
0010
0010
0001
1000
,
0100
1000
0101
0100
0010
0010
2200
0000
,
0000
0000
3300
0000
0000
0001
0001
1000
0010
0100
0100
0001
0010
0100
1000
0010
,
0001
0100
1000
0010
0001
0100
0100
1000
0100
0010
0001
0001
1000
0100
1000
0010
,
0010
0001
0100
0100
0010
1000
0100
1000
0001
0010
0001
1000
0010
0100
0010
0000
,
1001
0000
1000
0000
0100
0010
0100
0010
0001
0001
1000
0100
1000
0100
0010
0000
,
0100
0000
0100
0001
0010
0001
1000
0010
0100
0000
0000
0000
0010
0001
1000
0000
,
0010
0100
0000
0000
0000
0001
1000
0000
0100
0000
1000
0001
0100
0000
0010
0000
,
1000
0000
0010
0000
0001
0100
0000
1000
0010
0000
0100
0000
0010
0000
0000
0000
,
1000
0010
0001
0100
,
1000
0010
0100
0010
,
0001
0000
1000
0001
0100
0000
1000
0000
,
0100
1010
0001
0100
,
0010
0000
0001
0100
1000
0000
0001
0000
,
0110
0000
0010
0000
1000
0010
0100
0000
,
1000
0000
0001
0000
0011
0000
0100
0001
,
0010
0000
1000
0000
0100
0000
0010
1000
,
0001
0000
1000
0010
0100
0000
1000
0100
,
0010
0000
0100
0000
0010
0000
0001
0100
,
1000
0001
1000
0001
,
0100
1000
0010
0100
,
0010
0000
0001
0010
0001
0000
1000
0000
,
0100
0010
1000
0000
0010
0000
0100
0000
,
0010
0100
0001
0000
1000
0010
0100
0000
,
1000
0000
0110
0001
0000
0010
0001
1000
,
0100
1000
0001
0000
0001
1000
0100
0001
,
0020
0000
0000
0000
0000
0000
0030
0000
0000
0000
0101
1000
0010
0100
2002
0000
,
0000
3003
0000
0000
1001
0000
0000
0000
,
1001
0000
1001
0000
,
1001
0000
0000
0000
0000
0010
0100
0010
,
0100
0010
0100
0000
0001
0001
1000
1000
,
0010
0100
0110
0001
1000
1010
0100
0001
,
0011
1000
0010
1010
0000
0110
0001
1000
,
0001
1000
0010
1001
0000
0100
0010
0100
,
1001
1000
0001
0010
0110
0000
0010
1000
,
1000
0010
0100
0010
0001
0001
1000
0100
,
1000
0010
0010
0001
0100
0100
1000
0001
,
0100
1010
0100
0010
0001
0001
1000
1000
,
0100
0010
0100
0010
0100
0000
0010
1000
,
0001
0110
0001
0100
1010
1000
0010
0001
,
0001
1000
1000
0220
0000
0330
0000
0100
,
0010
1000
0011
0001
0100
1010
0000
0100
,
0010
1000
0001
1000
0001
0010
0100
0010
,
1001
0100
1000
0001
0100
0010
0010
1000
,
0001
0100
0100
2002
0000
3003
0000
0000
,
1000
0100
0011
0000
0101
0000
1010
0000
,
0000
0000
0100
0000
0101
0000
0110
0000
0000
0000
1010
0000
1001
0000
0000
0100
,
0000
0010
0000
0000
0010
0100
0000
0000
0100
0000
0001
0000
0000
0001
1000
0000
,
0000
1000
0010
0000
0100
0010
0000
0000
0010
0000
0001
1000
0000
0100
1000
0000
,
0001
0000
0010
0001
1000
0000
0000
1000
0010
0000
0100
0000
0010
0001
1000
0000
,
0001
1000
0000
1000
0010
0000
0100
0010
0001
1000
0100
0000
1000
0000
0110
0000
,
0000
0000
0010
0100
0000
0000
0100
0000
1000
0001
0000
0000
0001
0000
0010
0001
,
0000
0100
0000
1010
0000
0000
0010
1000
0000
0100
1000
0001
0000
0010
0100
0000
,
0100
0000
0010
0000
0100
0000
1001
0000
0000
0001
0000
0100
0010
0000
0000
0100
,
0010
0000
1000
0001
0000
1000
0000
0001
0000
0010
0000
0100
0000
0010
0100
0000
,
2002
0000
0000
0000
3003
0000
0000
0010
0000
0100
1000
0000
0001
0010
0000
0000
,
0001
0100
0000
0000
1010
0000
0000
0000
0010
1000
0000
0100
1000
0001
0000
0010
,
0000
0001
1000
0100
0000
1000
0001
0000
0100
0010
0000
0100
0010
0000
1000
0000
,
0100
0000
1000
0001
0010
0000
0001
1000
0100
0000
1000
0010
0000
0100
0010
0000
,
0000
0100
1000
0001
0000
0010
0000
0001
1000
0000
0100
1000
0000
0100
1000
0010
,
0000
0000
0010
0001
0000
0100
0000
1010
0000
0000
0010
0001
0000
0000
0001
0100
,
0000
1010
0000
0000
1000
0000
0000
1000
0010
0000
0100
0000
0010
0100
0000
0010
,
0001
0000
0010
0000
0001
0100
0000
1000
0000
0100
0000
1000
0000
0010
0000
0100
,
0010
0100
2002
0000
0000
0000
0000
0000
,
0000
0000
3003
0001
,
0010
0100
1000
1001
,
0000
0000
0010
0100
0010
1000
0001
0000
,
0010
0001
1000
0100
1000
0001
1000
0001
,
0010
0100
0000
0110
0000
0001
1000
0100
,
0000
1000
0001
0010
0100
0010
1000
0000
,
0001
0010
0001
0010
1000
0000
0010
0100
,
1000
0100
0000
1000
0001
0010
0100
0010
,
0100
0001
0010
0001
1000
0100
1000
0001
,
0010
0001
1000
0010
0100
0010
1000
0010
,
0001
1000
0001
0100
0010
0010
1000
0100
,
0011
0001
0100
1010
0000
0100
1000
0001
,
0100
0110
0000
0100
1000
0001
0001
0010
,
0001
0110
1010
1100
,
0000
0000
1001
0000
0000
0100
0000
0000
1010
0001
0000
0000
0010
0100
1000
0000
,
0100
0001
0000
0000
0010
0100
1000
0000
0001
0010
0001
0000
1000
0100
0000
0010
,
0100
0000
0000
0010
1001
0000
0100
0000
0001
0010
0000
0100
0010
0000
1000
0000
,
0001
0010
0000
0001
1000
0100
0000
0010
0100
0000
0010
0000
1100
0010
0001
0000
,
0100
0000
0010
0000
0010
1000
0000
0001
0100
0000
0100
0000
0100
1000
0001
0010
,
0000
0001
0100
0000
1010
0000
0000
1000
0010
0000
0000
0001
0100
0000
0100
1000
,
0000
0010
0001
1000
0100
0000
0100
0000
1000
0010
0000
0100
0010
0000
0100
0001
,
0000
0010
0001
1000
0100
0000
1000
0001
0100
0000
0000
0000
0110
0000
0000
0000
,
1010
0000
0000
0001
0000
0100
0000
1010
0000
0000
0010
1000
0100
0000
1000
0001
,
0010
0000
0001
0100
0000
0010
0100
0000
1001
0000
1000
0000
0001
0010
0000
0100
,
0000
0010
0000
0000
1100
0000
0000
0000
1010
0000
0001
0000
0001
0110
0000
0000
,
0100
0000
0010
1000
0000
0100
1000
0001
0010
0000
0001
0100
0000
1010
0000
0000
,
0010
0100
0001
0000
0000
0001
1000
0000
0100
0000
1000
0100
0000
0010
0000
0100
,
0010
0000
0000
0010
0000
0010
0001
1000
0000
0100
1000
0001
0000
0001
0100
0000
,
0100
0000
1010
0000
0000
0010
0001
1000
0000
0100
1000
0000
0001
0010
0000
0001
,
1000
0000
0000
1000
0010
0000
0100
0010
0000
0100
0000
0000
1001
0000
0000
0110
,
0000
0000
1010
0000
0000
1000
0001
0010
0000
0001
0000
0100
0000
1010
0000
0000
,
0001
1000
0000
0100
1000
0000
0010
0000
0000
0110
0000
0000
1001
0000
0000
0001
,
1000
0000
0100
0000
1000
0001
0000
0010
0000
0001
0100
0000
0000
1010
0000
0000
,
1010
0000
0000
1010
0000
0000
1000
0001
0000
0010
0000
0001
0000
0000
1010
0000
,
0000
1000
0000
0000
1000
0010
0000
0100
0010
0000
0100
0000
2002
0000
0000
0000
,
3003
0010
0000
0001
0100
1000
0110
0000
,
0100
0000
0010
0001
1000
0100
0010
0010
,
0001
1000
0010
0100
0010
1000
0001
1000
,
0001
0100
0010
0100
0010
1000
0001
0100
,
0010
0001
1000
1000
0001
0100
0100
0010
,
1000
0000
0100
1000
0010
0000
0100
0010
,
0001
1000
0001
0000
0100
0100
0000
0010
,
0001
1000
0010
0100
0010
0001
0000
1000
,
1000
0000
0110
0000
0010
0001
1000
0100
,
1000
0110
0000
0001
0010
1000
0001
1000
,
0001
0100
0010
0100
1000
0001
0010
0001
,
1000
0000
0010
0100
0010
1000
0000
0100
,
0011
0000
1100
0000
1000
0001
0010
0001
,
0100
0000
1010
0000
0010
0100
0010
1001
,
0000
1000
0001
0010
0001
0100
0000
1010
,
0000
0100
0010
1000
0001
1000
0001
0000
,
1000
0001
0010
0100
0010
0000
0100
0000
,
1001
0000
0000
0010
1000
0000
0001
0010
,
0000
0100
0000
0010
0010
1000
0000
0100
,
1000
0001
0010
0000
0001
0000
1100
0000
,
0000
1100
0000
0000
1010
0000
0000
1010
,
0000
0100
1000
0001
0000
0010
0001
1000
,
0000
0100
1000
0001
0000
0110
0000
0100
,
0010
1000
0001
0010
0001
0000
1000
0100
,
1000
0000
0110
0000
0110
0000
0000
1000
,
0000
0010
0001
1000
0000
0100
1000
0000
,
0001
0000
0100
0100
0000
0010
0001
1000
,
0000
0100
1000
0000
0010
0010
0000
0100
,
0001
0000
1000
0000
0001
0100
0000
0010
,
0000
0100
0000
0010
0000
1000
0010
0000
,
0000
0100
0001
0010
0001
1000
0100
1000
,
0010
0000
0100
0010
0000
1000
0001
0010
,
0100
0010
1000
0001
0010
0001
1000
0100
,
0010
0200
0000
0000
,
0000
0000
0000
0000
,
0000
0000
0000
0000
,
0000
0000
0000
0000
,
0000
0000
0000
0000
,
0000
0000
0000
0000
,
0000
0000
0000
0000
,
0000
0000
0000
0000
,
0000
0000
0000
0000
,
0000
0000
0000
0000
,
0000
0000
0000
0000
,
0000
0000
0300
0000
0100
0001
1000
0001
,
1000
0001
1000
0000
0000
0010
1000
0010
,
1000
0010
1000
0000
1001
0000
0000
0000
;

//---------------dance-single - ----------------
#NOTES:
     dance-single:
     :
     Easy:
     7:
     0.507370,0.955757,0.443948,0.116695,0.044395,1400.000000,1225.000000,175.000000,46.000000,0.000000,0.000000,0.507370,0.955757,0.443948,0.116695,0.044395,1400.000000,1225.000000,175.000000,46.000000,0.000000,0.000000:
0000
0000
0000
0000
,
0010
0001
1000
0100
,
0010
0001
0001
0001
,
1000
1000
1000
1000
,
0100
0100
0100
0100
,
0110
0001
0001
1000
,
1000
0100
0010
0100
,
0001
0001
1000
1000
,
0100
0010
0001
0010
,
0200
0000
0000
0300
,
0010
1000
0100
0010
,
0001
0001
1000
1000
,
0100
0010
0100
2000
,
0000
0000
3000
0000
,
0010
0000
0100
0000
0010
0001
1000
0000
,
0001
1000
0010
0000
0100
0010
0001
0000
,
1000
0100
1000
0000
0010
0000
0100
0000
,
0001
0000
1000
0000
0010
0001
0200
0000
,
0300
0020
0000
2030
,
0000
3002
0200
0003
,
0300
0000
0010
0010
0000
0000
0000
1000
,
0100
1000
0000
0000
0000
0010
0100
0010
,
1000
0200
0000
0320
,
0000
2030
0000
3002
,
0000
0103
0100
0000
0000
0000
0010
0100
,
0010
0000
0000
0000
1000
0001
0010
0100
,
0010
0000
1000
1000
0000
0000
0001
0000
0001
0010
0100
0000
0100
0000
0010
0000
,
1000
0000
1000
0000
0001
0000
0010
0000
0100
0000
0100
0000
0000
0010
0001
0000
,
1000
0000
1000
0000
1000
0010
0000
0010
0000
0010
0100
0000
0100
0000
0100
0001
,
0000
0001
0000
0001
1000
0100
0010
0100
0000
0001
0000
0001
0000
0100
1000
0000
,
0010
0000
0100
0000
1000
0000
0001
0100
0000
0010
0001
1000
0000
0100
1000
0000
,
0010
0000
0010
0000
0010
0100
0000
0100
0000
0100
1000
0000
1000
0000
1000
0000
,
0001
0000
0001
0000
0001
0010
0100
0000
0020
0000
0000
0000
0000
0000
0000
0000
,
0030
0000
0000
0000
1000
0000
0100
0000
2000
0000
0000
0000
0000
3000
0000
0000
,
0010
0100
0002
0000
0000
0000
0003
1100
,
0000
0011
1000
0100
0100
0010
0010
0000
,
0000
0100
0100
0001
,
1010
0011
0110
1000
,
0000
0000
0100
0010
0100
0000
0001
0000
,
0001
0110
1001
1100
,
1001
0010
0010
1000
,
0100
0110
0011
1100
,
0100
0110
0001
0001
,
0010
0010
0100
1100
,
1100
0010
0010
0100
,
0010
0100
0001
0011
,
1001
0100
0100
0010
,
1000
0100
0001
0110
,
1100
0000
0010
0010
,
0000
0001
0000
1100
,
1100
0010
0100
0010
,
0001
1000
0001
0100
,
0100
1000
0010
1000
,
0001
0010
0100
0100
,
1001
0010
0100
0100
,
0010
0100
0010
1001
,
0010
0010
0110
0010
,
1100
0011
0000
0000
,
0110
1010
0000
0000
,
0110
1001
0000
0000
,
0011
1100
0000
0110
,
1010
0110
0000
0000
,
0011
0110
0000
0000
,
1100
1010
0000
1000
,
0100
0000
0100
0010
0100
0010
0100
0000
,
0000
0000
0000
0020
,
0000
0000
0030
0001
,
0010
0100
1000
0100
,
0010
0001
0001
1000
,
0100
1000
0010
0100
,
0001
0100
0100
1000
,
0100
0010
0100
0001
,
1000
0001
1000
0010
,
0010
0001
1100
0110
,
0011
1000
0100
0100
,
1000
0010
0001
0100
,
0010
1000
1000
0001
,
0100
0010
1000
0010
,
0100
0011
0011
0100
,
0010
0100
1000
0001
,
0010
0100
1000
0001
,
0100
0010
1100
1010
,
0010
0010
0010
0020
,
0030
0000
0000
0100
,
0000
0100
0000
0010
,
0000
1000
0000
1000
,
0001
0000
0010
0000
,
0100
0000
0010
0000
,
1000
0020
0000
0030
,
0000
0110
1000
0000
,
0001
0000
1000
0000
,
0010
0000
0100
0000
,
0010
0000
0001
0000
,
1000
0000
0010
0000
,
0100
0000
0000
0010
0000
0100
0000
0001
,
0000
1000
0000
0010
0000
0000
0100
0000
,
0100
1000
0010
0001
,
1000
0100
0010
1000
,
0100
1000
0010
0001
,
0010
0100
0010
1000
,
0010
0001
0010
0100
,
1000
0100
0020
0030
,
0001
0001
1000
0100
,
1000
0100
0010
0100
,
0001
1000
0001
0010
,
0100
0010
0001
1000
,
0100
1000
0010
0100
,
0001
1000
0020
0030
,
0100
0000
0001
0010
0100
0100
0010
1000
,
2000
0000
3000
0020
0000
0030
0000
0200
,
0000
0300
0020
0000
1030
1000
1000
0000
,
0000
0000
0010
0010
,
1000
0000
0001
1000
,
0100
0100
1000
0100
,
1000
0010
0010
0001
,
1000
1000
0100
0010
,
0100
0001
1000
0010
,
0100
0010
0010
0001
,
1000
0100
1000
0001
,
0010
0000
1000
0100
1000
0000
0000
0000
,
0000
0010
0010
0100
,
1000
0001
0001
0100
,
1010
0010
0001
1100
,
1000
0000
0010
0100
0010
0000
0000
0000
,
0000
0001
1000
0100
,
0010
0100
0010
1000
,
0001
0001
0010
0010
,
1001
0000
0100
0100
,
0010
0000
0001
0000
1000
0000
0010
0100
,
1000
0000
0010
0010
,
1000
0000
0001
0000
1000
0000
0100
0010
,
1000
0000
0001
0001
,
0010
0000
0100
0000
0010
0000
1000
0100
,
1000
0000
0010
0110
,
1000
0000
1010
0000
0001
0000
0100
0010
,
0100
0010
1000
0000
0001
0000
0001
0000
,
1000
0010
0100
0010
,
0001
1000
1000
0010
,
0100
0000
0010
0000
0011
0000
0100
1000
,
0100
0001
0001
0010
,
0100
0010
0001
1000
,
0100
0010
0010
0001
,
1000
0100
1000
0020
,
0030
0000
0100
1000
0100
0000
0010
0000
,
0100
0001
0011
1100
,
0100
0000
1000
0000
0010
0100
0010
0000
,
0100
1000
0001
0001
,
0100
0010
1000
0000
0000
0000
0100
0000
,
0100
1000
0010
0100
,
0010
1000
0010
0001
,
0100
0000
0100
0000
1000
0000
0000
0100
,
0010
0001
0001
1100
,
1010
0110
1000
0001
,
0010
0001
0000
0100
,
0010
0100
1000
0100
,
0001
0020
0030
1000
,
1000
0010
0100
0010
,
0001
1000
1000
0010
,
0100
0000
0000
0010
1000
0001
1000
0010
,
0100
0010
1000
0000
0001
0000
1000
0000
,
1000
0100
0011
1010
,
1100
0110
0001
0001
,
0010
0000
0100
0000
1000
0010
1000
0001
,
0200
0310
0010
1000
,
0010
1000
0011
0110
,
1010
0000
1100
0000
0010
0001
0010
0000
,
1001
1000
0010
0100
,
1001
1001
0010
0010
,
1000
0010
0001
0001
,
1000
0010
0100
0001
,
0001
1000
1100
0010
,
0010
0100
0001
0010
,
0110
0000
1010
0000
1100
0000
0001
0001
,
1000
1000
0010
0010
0100
0000
0010
0000
,
1010
0000
1100
0000
1001
0000
1000
0010
,
0010
0100
0100
0000
0000
0000
1000
0000
,
1000
0010
0100
0010
,
1000
0001
1000
0001
,
0010
0100
1000
0010
,
0100
0010
1000
0100
,
1000
0001
0100
0010
,
1000
0100
1000
0001
,
0010
0100
1000
0010
,
0100
0010
0001
1000
,
0001
0100
0010
0001
,
1000
0100
1000
0000
,
0010
0100
0100
0010
,
0001
0001
0010
0100
,
0000
1100
0011
1100
,
0001
0010
0110
0000
,
0000
0000
0000
1100
,
0100
0110
0010
0011
,
0001
0101
0100
1100
,
0000
0000
0010
0110
,
0100
0101
0001
1001
,
1000
1010
0010
0110
,
0000
0010
1000
1000
0001
1000
0100
0010
,
0001
1000
0010
0100
0010
0001
0001
1000
,
0100
1000
0010
0010
0200
0000
0000
0000
,
0300
0000
0000
0000
0000
0000
0000
0000
0000
0000
0010
1000
0000
0000
0000
0100
,
0010
0000
0000
0000
0100
0001
0000
0000
0000
1000
0010
0000
0000
0100
1000
0000
,
0000
0010
0001
0000
0000
0000
0100
0010
0000
0000
0000
1000
0010
0000
0000
0000
,
0100
0001
0000
0000
0000
0000
0000
1000
0010
0000
0000
0100
0010
0000
0000
0000
,
0000
0100
0001
0000
0000
0000
0000
0000
1000
0000
0010
0000
0000
0000
0000
0000
,
0000
0100
0001
0000
0000
1000
0010
0000
,
0000
0000
0000
1100
,
0000
0110
0000
0011
,
0000
0110
0000
1100
,
0000
1010
0000
0110
,
0000
0101
0000
0011
,
0000
0110
0000
1010
,
0000
1100
0000
1010
,
0000
0110
0000
0101
,
0000
0011
0000
1010
,
0000
1100
0000
1010
,
0000
0110
0000
1010
,
0000
0110
0000
0001
,
1000
0010
0100
0010
,
0001
1000
0100
0010
,
0000
1000
0100
1000
,
0001
0000
0001
0100
,
0000
0100
0000
0010
,
1000
0000
1000
0000
,
0010
0000
0000
0000
0100
0000
0000
0000
0000
0000
0000
0000
0000
0000
0000
2002
,
0000
3003
0000
0000
0000
0000
0000
0000
0000
0000
0000
0000
0010
0000
0000
0000
0000
0000
0000
0000
0000
0000
0000
0000
,
0010
0000
0010
0000
,
0010
0000
0000
0000
,
0000
0000
0000
0100
,
0100
1000
1000
0010
,
0010
0002
0003
0100
,
0100
0010
1000
1000
,
0001
0001
2000
3000
,
0100
0100
0010
0010
,
1000
1000
0002
0003
,
1000
1000
0001
0001
,
0100
0100
2000
3000
,
0010
0010
0001
0100
,
1000
0010
0200
0300
,
0010
0010
1000
0100
,
0001
0020
0030
0110
,
1000
1000
0100
0001
,
0010
0010
0200
0300
,
0101
0100
1010
0100
,
1010
0000
0110
0110
0000
1010
1010
0000
,
0000
0000
0001
1000
0010
0100
0000
0000
,
0100
0100
0010
1000
0000
0000
0001
0001
,
0010
1000
0010
0100
0010
1000
0000
0000
,
0011
0000
1100
1000
0000
0100
0100
0010
,
0001
0100
0000
1000
0001
1000
0010
0100
,
0010
0001
1000
1000
0200
0000
0300
0000
,
0010
0000
0010
0001
0000
0000
1000
0100
,
0100
0001
0011
0110
,
1010
0000
0010
0010
,
1000
0100
1000
0001
,
0002
0013
0100
0010
,
1000
0010
0200
0310
,
1000
1000
0100
0001
,
0010
0100
0010
1000
,
0010
0100
2000
3001
,
0001
0010
0100
0010
,
1000
0100
2002
0000
,
0000
0000
0000
0000
,
0000
0000
0000
0000
,
3003
0010
0010
0100
,
0010
1000
0100
1100
,
0010
0001
0001
1000
,
0010
0100
1100
0000
,
0100
0110
0001
0010
,
1000
0100
1000
0011
,
0011
1000
0100
1000
,
0110
0010
0100
1000
,
0000
0010
0010
0001
,
1000
0100
1000
0011
,
0011
0100
1000
0001
,
0100
0010
0100
0000
,
0000
0100
0100
1000
,
0010
0001
1000
0100
,
1000
0011
1100
0000
,
0100
0100
0010
0001
,
0010
1000
1000
0001
,
0110
1010
0100
0100
,
0010
1000
0100
1000
,
0010
0001
0001
0100
,
1000
0010
1000
0001
,
0100
0010
0010
1000
,
0100
1010
0011
0100
,
0100
0001
0010
0001
,
1000
1000
0010
0100
,
0011
1100
1000
1000
,
0010
0100
0001
0100
,
0100
1000
0011
1100
,
0010
0010
1000
0001
,
0100
1000
0010
0001
,
0100
1100
1010
0001
,
0011
0100
0010
0100
,
1000
1000
0001
0022
,
0033
0000
0000
0110
,
0000
0000
0000
0100
,
0000
0100
0010
1000
,
0100
1000
0001
0010
,
0100
0010
1000
1000
,
0001
0010
0100
0010
,
0100
1000
0100
0001
,
0010
0100
0010
1001
,
0000
1001
0000
0020
,
0030
0100
0000
0100
,
0010
1000
0100
1000
,
0001
0010
0010
0000
,
0100
0000
0100
0000
,
0110
0000
1000
0001
,
0001
1000
0001
0100
,
1000
0010
0001
1000
,
0010
0100
0010
1001
,
1001
0000
0010
1000
,
0000
0100
1000
0001
,
0000
0000
1100
0000
,
0000
0110
0000
1001
,
1001
0000
0100
0001
,
1000
0100
1000
0010
,
1000
0010
0001
0000
,
1100
0000
1010
1010
,
0000
0001
0100
0000
,
0010
1000
0000
0011
,
1000
0001
0000
1100
,
0000
1010
0000
0110
,
0110
0000
1010
0010
,
0100
0000
1001
0000
,
0011
0000
0011
0000
,
1001
0000
1100
0000
,
0000
0020
0000
0000
,
0000
0000
0000
0000
,
0000
0000
0000
0000
,
0000
0000
0000
0000
,
0000
0000
0000
0000
,
0000
0000
0000
0000
,
0000
0000
0000
0000
,
0000
0000
0000
0000
,
0000
0000
0000
0000
,
0000
0000
0000
0000
,
0000
0000
0000
0000
,
0000
0030
0100
1000
,
0100
1000
0001
0100
,
0010
0100
1001
0000
;

//---------------dance-single - ----------------
#NOTES:
     dance-single:
     :
     Beginner:
     1:
     0.000000,0.000000,0.000000,0.000000,0.000000,0.000000,0.000000,0.000000,0.000000,0.000000,0.000000,0.000000,0.000000,0.000000,0.000000,0.000000,0.000000,0.000000,0.000000,0.000000,0.000000,0.000000:
// measure 0
0000
0000
0000
0000
;
