#VERSION:0.83;
#TITLE:Dance Dance Revolution X2;
#SUBTITLE:;
#ARTIST:Various Artists;
#TITLETRANSLIT:DDR X2;
#SUBTITLETRANSLIT:;
#ARTISTTRANSLIT:;
#GENRE:;
#ORIGIN:;
#CREDIT:;
#BANNER:Dance Dance Revolution X2 AC.png;
#BACKGROUND:Dance Dance Revolution X2 AC-bg.png;
#PREVIEWVID:;
#JACKET:Dance Dance Revolution X2 AC-jacket.png;
#CDIMAGE:;
#DISCIMAGE:;
#LYRICSPATH:;
#CDTITLE:;
#MUSIC:Dance Dance Revolution X2 AC.mp3;
#OFFSET:0.000000;
#SAMPLESTART:100.040672;
#SAMPLELENGTH:12.000000;
#SELECTABLE:YES;
#BPMS:0.000=136.000,
80.000=140.000,
113.000=175.000,
176.000=181.000,
208.000=200.000,
272.250=140.000,
332.000=150.000,
413.500=160.000,
480.500=162.000,
513.000=154.000,
544.000=158.000,
601.000=180.000,
633.000=188.000,
696.500=160.000,
760.500=157.000,
824.000=200.000,
889.000=400.000,
1004.500=100.000,
1005.000=128.000,
1005.500=250.000,
1006.500=400.000,
1011.000=370.000,
1136.000=150.000,
1167.500=400.000,
1306.000=100.000,
1310.000=700.000;
#STOPS:824.000=0.100,
1001.000=0.100,
1002.000=0.100,
1003.000=0.100,
1006.000=0.100,
1006.500=0.100;
#DELAYS:;
#WARPS:;
#TIMESIGNATURES:0.000=4=4;
#TICKCOUNTS:0.000=4;
#COMBOS:0.000=1;
#SPEEDS:0.000=1.000=0.000=0;
#SCROLLS:0.000=1.000;
#FAKES:;
#LABELS:0.000=Song Start;
#BGCHANGES:;
#KEYSOUNDS:;
#ATTACKS:
;

//---------------dance-single - ----------------
#NOTEDATA:;
#CHARTNAME:;
#STEPSTYPE:dance-single;
#DESCRIPTION:;
#CHARTSTYLE:;
#DIFFICULTY:Hard;
#METER:14;
#RADARVALUES:0.820625,1.122764,0.551228,0.188578,0.182534,2376.000000,2148.000000,228.000000,78.000000,0.000000,0.000000,0.000000,0.000000,0.000000,0.820625,1.122764,0.551228,0.188578,0.182534,2376.000000,2148.000000,228.000000,78.000000,0.000000,0.000000,0.000000,0.000000,0.000000;
#CREDIT:;
#NOTES:
0000
0001
0000
0000
0010
0000
0000
0100
,
0000
0000
1000
0000
0000
0100
0000
0010
,
0000
0110
0000
0000
0000
0010
0000
0001
,
0000
0000
1000
0000
0000
0100
0000
0100
,
0000
1000
1000
0010
0000
0001
1000
0000
,
0100
0010
0000
0010
0001
1000
0000
1000
,
0010
0100
0000
0110
0000
0001
0010
0001
,
1000
0100
1000
0010
0000
0010
0001
0100
,
0000
0100
1000
0000
0011
0000
0010
0001
,
0100
1000
0000
1000
0010
0100
0010
0001
,
1000
0000
1000
0000
0110
0000
0001
1000
,
0000
0100
0000
0010
0000
1001
0000
1001
,
0000
1001
0000
0010
1000
0000
1000
0010
,
0000
0010
0100
0001
0010
0001
0000
1100
,
0000
1000
0010
0100
0000
0100
0001
0000
,
0010
0001
0100
1000
0000
1000
0010
0100
,
0001
0001
0000
0010
1000
0000
1000
0010
,
0100
0010
0000
1000
0001
0100
0000
0010
,
0100
0000
1000
0010
0001
0000
0000
0001
,
0100
0000
0100
1000
0000
0110
0000
0110
,
0000
0001
0000
1000
0010
0100
0000
0010
,
0001
1000
1000
0010
0100
0010
0001
0000
,
0001
1000
0100
1000
0000
0010
0001
0100
,
0100
1000
0001
0100
0010
0000
0010
0100
,
0100
0001
1000
0100
0100
1000
0001
0001
,
0010
0100
0010
1000
1000
0100
0001
0011
,
0100
0010
1000
0100
0100
0010
0100
0001
,
1000
1000
0100
0010
0010
0001
1000
1000
,
0010
0010
0100
0000
0001
0100
0100
1000
,
0011
0010
0001
1000
0100
1000
0110
0000
,
0010
0001
1000
0100
1000
0001
0000
0001
,
0100
0010
1100
0000
0100
1000
0011
0000
,
0110
0000
1010
1000
0001
0010
0100
0010
,
0010
1000
0100
1000
0001
0100
0011
1000
,
0100
0010
0100
0010
0001
1000
0100
1010
,
0000
0001
1100
1000
0001
0001
0001
0001
,
0000
0010
0100
0010
1000
0100
0000
1100
,
0001
0010
0100
0010
0000
0101
0000
1100
,
0001
0010
0100
0010
0001
1100
1000
0010
,
0100
0010
0001
0001
1000
0110
0000
1010
,
0001
0010
0001
1100
1000
0110
0000
0100
,
0010
0001
1100
0000
1000
0010
0100
0100
,
0010
0001
0001
1000
0001
1000
0010
0001
,
1100
0000
1000
0000
0100
0100
0010
0010
,
0010
0000
0100
0010
0001
1200
0000
1300
,
0010
0011
1000
0100
1000
0010
0210
1000
,
0301
0010
0001
2100
3010
0001
0110
0100
,
0010
1000
1000
0001
0022
0033
0001
1000
,
0120
0130
0001
1000
0100
0100
0010
0001
,
1100
1000
0010
0100
0010
0001
0001
1000
,
0100
1000
0001
0010
2010
3000
0101
0000
,
0110
0000
1010
0100
0100
0001
0010
1010
,
0000
0110
0000
0001
0100
1010
0000
0010
,
0100
1001
0000
0001
1000
0100
1000
0010
,
0010
0001
1100
0000
1010
0001
0010
0100
,
0011
1100
0010
1000
0001
0100
0010
0100
,
1100
0001
0010
1001
0010
1000
0100
1000
,
0010
0001
1010
0100
0010
0001
1100
0100
,
1000
0010
0001
0100
1010
0100
0011
1000
,
0001
0100
1010
0000
0010
0001
1100
1000
,
0001
0220
0330
1000
0101
0000
1100
0011
,
0100
1010
0001
0100
1010
0101
1000
0010
,
0100
0011
1100
0001
1000
0010
0100
1001
,
0000
0010
0100
0011
1100
0010
1000
0001
,
0100
0010
1010
0101
0010
0001
1000
1100
,
0011
0100
1010
0100
1000
0001
0100
0000
,
0110
1000
0001
1010
0100
1000
0010
0100
,
0000
0000
2002
0000
0000
0000
3003
0000
0010
0100
0001
0010
1000
0001
0010
0100
,
0000
0020
0000
0000
0000
0000
2030
0000
0010
0000
0001
0000
0100
0000
0010
0000
,
0010
3002
0100
0100
1000
0010
0103
1020
,
1000
0001
0100
1000
0130
2001
0100
0100
,
0010
0001
3100
0210
0001
0010
1000
0301
,
0022
0030
0100
1000
0100
2003
0010
0100
,
0010
3020
0001
0100
0230
1000
0310
2001
,
0100
0001
3002
0010
0023
0100
0230
0010
,
0320
1000
2030
3000
0120
1000
0230
0001
,
0010
0320
1000
0100
1030
0012
0100
0013
,
2200
0000
0300
0001
0010
3100
0012
1000
,
0100
0203
0010
0310
0001
0120
2030
0001
,
0010
0100
0002
3003
0010
0200
1000
0001
,
0010
0301
0120
0100
0001
0032
1000
0100
,
2003
0010
0010
0100
3001
0210
0310
0021
,
0001
0031
2100
0100
3100
0210
0010
0310
,
0000
0001
1000
0001
1000
0001
1000
0001
1000
0000
0100
0010
0100
0000
0220
0000
,
0330
0000
0000
1000
0001
0000
0001
0000
0010
0000
1000
0000
0100
0000
1000
0000
,
0010
0010
1000
0001
0100
0001
1000
0100
,
0001
0010
0010
1000
1100
0001
0010
0100
,
1000
0001
1010
1000
0100
0010
0001
1000
,
0011
0001
1001
0100
1010
0010
0110
1000
,
0100
0000
0001
0000
0001
0000
1000
0000
0011
0000
0100
0010
0100
0000
1000
0000
,
0010
0000
0100
0000
0011
0000
0001
0010
1000
0000
0100
0000
1000
0000
0001
0000
,
0110
0000
0100
1000
0100
0000
1000
0000
0011
0000
0001
0000
0100
0000
1010
0001
,
0010
0000
0001
0000
2100
0000
3001
0010
0001
0000
0100
1000
0100
0000
0001
0000
,
1100
0000
0000
0000
1000
0000
0010
0000
0100
0000
0011
0000
0001
0010
1000
0000
,
0100
0000
1000
0000
0010
0001
0010
0000
1100
0000
0001
0000
1000
0000
0010
1000
,
0100
0000
0011
0000
0000
0000
1100
0000
0010
0001
0100
0000
1000
0100
0001
0000
,
0010
0000
0001
0000
0100
0000
1010
0000
0000
0001
0010
0000
0100
0000
0010
0000
,
0001
0000
1100
0000
0000
0100
1000
0000
0010
0000
0100
0000
0011
0000
1000
0000
,
0100
0000
1000
0000
0001
0010
0001
0000
0100
0001
0100
0000
1000
0000
0010
0000
,
0100
0000
0011
0000
0001
0000
1000
0000
0100
0000
1000
0000
0010
0001
0010
0000
,
0100
1001
2002
0000
3003
0100
0001
0000
,
0100
0010
0100
0001
0010
1000
0001
0010
,
1000
0100
1000
0001
0010
1000
0100
0010
,
0000
0000
0001
1000
0001
1000
0001
0000
0100
0000
0100
0000
0010
0000
0001
0000
,
1000
0100
1000
0001
0100
0010
0001
0010
,
0001
1000
0100
1000
0010
0100
0010
0001
,
1000
0001
1000
0001
0100
0010
0100
0010
,
1000
0100
1000
0010
0001
0010
0001
1000
,
0100
1000
0010
0100
0010
0001
1000
0001
,
1000
0010
0010
0100
0001
1100
0010
0100
,
0011
0001
1000
0100
0100
0010
0010
0001
,
1000
0100
1000
0001
1000
0010
0100
0010
,
0001
1000
0100
1000
0000
0100
0010
0100
,
0010
0000
1100
0000
1010
0000
0010
0001
,
1000
0100
0010
0100
0000
1000
0001
1000
,
0001
0000
0000
0110
0000
1010
0001
0001
,
0010
0001
1000
0100
1000
1000
0100
0010
,
0100
0010
0000
0100
0011
0100
1000
0001
,
0010
0001
1000
0100
1000
0010
0100
0010
,
0001
1000
0100
1000
0010
0001
0001
0100
,
0100
0000
1000
0000
0010
0000
0010
0000
0000
0001
1000
0000
0100
0000
1000
0001
,
0000
0000
0001
0000
0100
0000
1010
0000
0000
0000
0010
0100
0000
0000
0100
0000
,
0001
0000
0000
0001
1000
0000
0100
0000
1000
0000
0010
0000
0100
0000
0000
0100
,
0000
0001
0000
0000
0001
1000
0000
0000
1000
0000
0010
0100
0000
0000
0100
0000
,
0010
0001
0000
0000
0001
1000
0000
0000
1000
0000
0000
0001
0100
0000
0000
0100
,
0010
0000
0000
0010
0000
0001
1000
0000
0100
0000
1000
0000
0001
0100
0000
0000
,
0100
0000
0010
0000
0000
0010
0001
0000
0000
0001
1000
0000
0000
1000
0010
0000
,
0000
0010
0000
1000
0001
1000
0001
1000
0001
0000
0010
1000
0000
0100
1000
0000
,
0010
0100
0000
0000
0220
0000
0000
0000
0000
0000
0000
0000
0330
0000
0001
0000
,
0002
0000
0000
0000
0003
0000
1000
0100
,
0010
0100
0001
0000
0001
1000
0100
1000
,
0010
0000
0110
0000
0100
0010
0001
0010
,
0001
0000
0200
0000
0000
0000
0300
0010
,
0020
0000
0000
0000
0030
0000
1000
1000
,
0010
0100
0001
0010
0001
1000
0100
0100
,
0022
0033
2200
3300
0220
0000
0000
0000
,
0330
0000
1000
0100
0000
0100
1000
0001
,
0010
0001
0100
1000
0000
1000
0010
0100
,
0000
0100
0010
0001
0000
0001
1000
0000
,
1000
0010
0100
0010
0001
0000
0001
1000
,
0010
0100
0000
0100
1000
0001
0010
0001
,
0010
1000
0100
1000
0000
0010
0100
0010
,
0100
0000
1000
0001
1000
0001
1000
0100
,
0010
0000
0101
0000
0110
0000
1000
0010
,
0100
0000
0100
0000
0010
0001
1000
0100
,
1000
0010
0001
0000
0010
0001
1000
0100
,
1000
0010
0100
0010
0100
0000
1001
0000
,
0011
0100
0100
0001
1000
0100
1000
0001
,
0000
1000
0010
0000
0100
0010
0000
0001
,
1000
0100
1000
0000
0100
1000
0001
0100
,
0000
0100
0020
0000
0000
0000
0030
0100
,
0100
1000
0010
0001
1010
0100
1000
0001
,
0100
0100
0010
1000
0100
1000
0010
0010
,
0001
0100
0100
1000
0001
0010
0001
1100
,
1000
0010
0100
0010
0011
1000
0100
1000
,
0001
0001
0100
0100
1000
0110
0000
0010
,
0001
1000
0100
1000
0010
0100
0000
0100
,
0010
0001
0000
0001
1000
0100
1000
0010
,
0100
0010
0100
0000
0110
1000
0001
0010
,
0001
0100
1010
0000
0010
0100
0010
0001
,
1100
0000
0100
1000
0010
0001
1100
0010
,
0100
0011
0000
0001
1000
0100
1000
0000
,
0011
1010
0011
0101
,
0110
0000
1010
0000
1100
0010
0010
0001
,
1000
0100
1000
0010
0010
0100
0001
0000
,
0011
1000
0100
1000
0010
0100
1010
0000
,
0011
0100
0010
1000
0100
0001
0010
0101
,
0000
1100
0010
0001
1000
0100
0000
0110
,
0001
0001
1000
0100
1000
0010
0100
0010
,
0010
0001
1000
0100
1000
0001
0001
0100
,
0100
1010
0110
0101
,
0011
0000
1001
0000
1100
0010
0100
0001
,
0010
0000
1000
0010
1000
0010
1000
0000
0001
0100
0001
0100
0001
0000
0000
0000
,
1000
0010
0100
0010
0001
0001
1000
1000
,
0220
0000
0000
0000
0330
0000
0000
1000
0010
0000
0001
0000
0100
0010
0100
0000
,
1000
0000
0100
0000
0010
0000
0001
0000
0001
0100
0000
0000
1000
0000
0100
0000
,
0010
0001
0100
0000
0010
0000
0001
0000
1000
0100
0001
0000
1000
0000
0100
0000
,
1000
0001
0010
0000
0100
0000
0010
0000
0001
0000
1000
0000
0100
0000
1000
0000
,
0000
0000
0110
0000
0000
0010
0001
0000
0100
0000
1000
0001
0010
0000
0100
0000
,
0000
0000
1010
0000
0000
0000
0100
0010
0001
0000
1000
0000
0100
0001
1000
0000
,
0000
0101
0101
0000
0000
1010
1010
0000
,
0000
0110
0000
1010
0000
0110
0000
0011
,
0000
0020
0000
0030
2200
3300
0000
0010
,
0100
1000
0001
0010
0001
1100
1000
0010
,
0100
0010
0010
1001
0100
1000
0001
0001
,
0001
0100
1000
0010
0100
0100
0001
0010
,
0001
0000
1000
0000
0100
0000
1000
0000
0110
0000
0000
0100
0000
0100
0010
0001
,
0000
0000
0001
0000
1000
0100
0000
1000
0000
0010
0100
0000
0000
0010
0001
0000
,
1000
0100
0000
1000
0000
0010
0100
0000
0010
0001
0000
0000
1000
0100
0000
0010
,
0100
0000
1001
0001
0101
0100
0110
0010
,
1010
0000
0010
1001
0100
1000
0201
0301
,
1000
0010
0100
0100
1000
0012
0013
1100
,
0100
1000
0010
0100
0011
0001
1000
0100
,
1000
0010
0010
0001
0100
0100
1000
0001
,
0001
0110
1010
0110
,
1000
0000
0000
0010
0000
0100
0000
1001
0000
0000
0001
0000
0100
0010
0000
0000
,
0010
1000
0000
0100
1000
0000
0001
0010
0000
0010
0001
0000
0100
1000
0000
0100
,
1000
0000
0010
0100
0000
0010
0100
0000
0010
0001
0000
1000
0100
0000
1000
0100
,
0000
1000
0000
0000
0100
0000
0010
0000
1000
0000
0001
0000
0010
0000
0100
0000
,
1001
0000
1000
0010
0100
0010
0100
1001
,
0000
1000
0100
1000
0011
0001
0100
1010
,
0000
0011
0100
0010
0001
1000
0100
1000
,
0010
0000
0100
0000
0011
0000
0000
0000
1010
0000
0000
0100
0010
0000
0100
0010
,
0000
0100
0010
0001
0000
0000
0001
1000
0000
0100
1000
0000
0010
0100
0000
0010
,
0001
1000
0000
0100
1000
0000
0010
0000
0010
0001
0000
1000
0000
0100
0000
1000
,
0000
0010
0000
0100
0000
0010
0001
0000
1000
0100
0000
0000
1000
0000
0010
0000
,
0100
0000
0100
0010
0010
0001
1000
0100
,
0100
0010
0001
0010
0001
1000
0100
1000
,
0001
0100
0010
0100
1000
0001
0100
1010
,
0000
1000
0001
0010
0001
0100
1010
0001
,
0010
0001
0100
1010
0000
1000
0010
0001
,
0100
1010
0000
1000
0010
0100
0011
0000
,
0001
0100
1000
0010
1000
0010
0100
0001
,
0010
0001
1000
0100
1000
0000
0100
0010
,
0100
0010
0100
1000
0010
0100
0011
0000
,
0100
1000
0010
0100
0010
0100
1001
0000
,
1000
0001
0010
0001
0100
1010
0000
0010
,
0100
0001
0010
0001
1100
0010
0100
0010
,
0001
0100
1010
0000
1000
0001
0010
0001
,
1000
1000
0000
0100
0010
0100
0010
0100
,
1001
0000
0010
0100
0001
0010
0001
1000
,
0000
1000
0010
0010
0100
0010
0100
0000
,
0020
0030
0001
1000
,
0100
0001
1000
0000
0100
0000
0010
0000
,
0100
0000
0010
0000
0001
0100
1000
0000
,
0001
1000
0100
0010
,
0100
1001
0100
1000
,
0010
0000
0100
0001
0100
0000
0010
0000
,
0001
0100
0001
0000
1000
0000
0100
0000
,
1000
0000
0010
0001
0100
0000
0010
0000
,
0100
1001
1000
0010
,
0100
0000
0100
0000
0010
0000
0001
1000
,
0001
0100
1000
0010
,
0100
0010
0100
0000
0010
0000
0001
0000
,
0110
0000
1000
0000
1000
0010
0001
0000
,
1000
0100
0000
0010
0100
0000
0000
0000
,
0001
0100
0001
0100
0001
0000
1000
0010
,
1000
0010
1000
0100
1000
0100
1000
0000
,
0001
1000
0100
1000
,
0001
0100
0100
0010
,
0010
1000
0100
1000
,
0001
0000
0001
0000
1000
0000
0010
0100
,
0000
0010
0001
0100
1000
0001
0000
0010
,
0000
0100
0000
0010
0001
1000
0000
0100
,
1000
0000
0010
0000
0100
0010
0000
0001
,
1000
0000
0010
0100
0000
0001
0010
0000
,
0100
0000
0100
1000
0000
0010
0000
0100
,
0010
0000
0001
1000
0000
0100
0000
1000
,
0010
0100
0000
0010
0000
0001
1000
0100
,
0000
1000
0010
0000
0100
0000
0010
0000
,
0000
1100
0110
1010
,
0000
1000
1000
0000
0110
1010
0000
0000
,
0010
0100
0000
1001
,
0010
0000
1000
0000
0010
0001
0100
0000
,
0010
0000
0100
0000
1000
0010
0001
0000
,
0100
0001
0100
0000
0010
0100
0010
1000
,
0001
0000
1000
0010
0100
0000
1000
0100
,
0010
0000
0100
0000
0010
1000
0001
0000
,
1000
0100
1000
0000
0100
0010
0100
0000
,
0010
0001
0010
1000
0001
0000
1000
0010
,
0100
0000
1000
0100
0010
0000
0100
0001
,
0100
0000
0010
0000
0001
0100
0001
0000
,
1000
0010
1000
0001
0100
0000
0010
0000
,
0100
0001
1000
0000
0010
1000
0001
0000
,
0100
0000
0010
0000
1000
0010
1000
0000
,
0001
0100
0010
1000
0001
0000
0100
0000
,
0100
0010
1000
0000
0010
0001
0100
0000
,
0010
1000
0001
0000
1000
0010
0100
0000
,
1000
0010
0000
0000
1001
0000
0010
0001
,
0100
0000
0010
0100
0001
0100
0001
0000
,
1000
0000
0100
0010
0100
0001
1000
0000
,
0010
0000
0100
0001
0100
0000
0010
1000
,
0001
0100
0001
0000
1000
0001
0100
0010
,
1000
0000
0010
0000
0100
0010
0100
0001
,
0010
0000
0001
0100
0001
0000
1000
0010
,
0100
0000
1000
0100
0010
0001
0100
1000
,
0010
0000
0100
0010
0000
0000
1001
0000
,
0100
0001
0010
0000
1000
0100
1000
0010
,
0100
0000
0010
0001
0100
0000
0010
0000
,
0001
1000
0001
0100
1000
0010
0100
0000
,
1000
0010
0100
0001
0010
0000
0100
0001
,
0000
1010
0000
0000
,
0110
0000
0101
0000
,
1001
0000
0220
0000
,
0330
0000
0000
0000
0100
0000
0010
0000
0100
0000
1000
0000
0100
1000
0001
0000
,
0010
0100
0010
0100
0010
1000
0001
0001
0100
0100
1000
0010
1000
0010
1000
0100
,
0000
0000
0010
0100
0000
0000
0100
0010
0001
0000
1000
0100
0000
1010
0000
0100
,
0010
0000
0101
0000
0000
0100
0001
0010
1000
0000
0100
1000
0001
0100
0010
0010
,
0000
0100
0010
0000
1000
0100
0000
1000
0000
0001
1000
0000
0100
1000
0010
0000
,
0100
0010
0001
0000
0010
0001
1000
0000
0100
1000
0000
0100
0010
0000
0100
0000
,
0010
0001
0000
1000
0100
0000
1000
0001
0100
0010
0100
0010
0100
0010
0000
0000
,
1000
0100
0000
1000
0010
0000
0100
0000
0010
0000
0010
0000
0010
0000
0000
0000
,
0100
1000
0100
1000
,
0001
0010
0001
1000
,
0100
1000
0010
0100
,
0010
0001
1000
0100
,
1000
0100
0010
0100
,
0001
0100
1000
0010
,
0100
0010
0001
1000
,
0100
1000
0100
0010
,
0010
0001
0001
0100
,
0010
0100
1000
1000
,
0100
0010
0001
0001
,
0100
0010
1000
1000
,
0001
0100
0100
0010
,
0001
1000
0100
0010
,
0010
0001
1000
0100
,
1000
0001
0100
0100
,
0010
1000
0001
1000
,
0100
0010
0100
0001
,
0010
0001
0100
1000
,
0100
1000
0001
1000
,
0001
0100
0010
0100
,
0010
1000
0100
1000
,
0001
1000
1000
0100
,
1000
0010
0001
0100
,
0100
1000
0010
0100
,
0010
0001
0001
1000
,
0010
0010
0100
1000
,
0001
0010
0001
1000
,
0100
1000
0010
0100
,
0100
0001
0001
1000
,
1000
0100
0010
0100
,
0010
0001
1000
0100
,
1000
0001
0100
0010
,
0100
0010
1000
0100
,
1000
0000
2002
0000
,
0000
0000
3003
0000
,
0000
1000
0001
1000
,
0000
0000
0000
0000
,
0000
0010
0100
0010
,
0100
0000
0000
0000
,
0000
1000
0100
1000
,
0100
1000
0000
0000
,
0010
0100
0010
0100
,
0010
0100
0010
0100
,
0010
0100
0010
0100
,
0010
0100
0010
0100
,
0000
0000
0000
0000
,
2002
0000
0000
0000
,
0000
0000
0000
0000
,
0000
0000
0000
0000
,
0000
0000
0000
0000
,
0000
0000
0000
0000
,
3003
0000
0000
0000
;
