#VERSION:0.83;
#TITLE:Dance Dance Revolution X;
#SUBTITLE:;
#ARTIST:Various Artists;
#TITLETRANSLIT:DDR X;
#SUBTITLETRANSLIT:;
#ARTISTTRANSLIT:;
#GENRE:;
#ORIGIN:;
#CREDIT:;
#BANNER:DDR X.png;
#BACKGROUND:DDR X-bg.png;
#PREVIEWVID:;
#JACKET:DDR X-jacket.png;
#CDIMAGE:;
#DISCIMAGE:;
#LYRICSPATH:;
#CDTITLE:cdtitle.png;
#MUSIC:DDR X.mp3;
#OFFSET:0.000000;
#SAMPLESTART:33.271435;
#SAMPLELENGTH:15.881817;
#SELECTABLE:YES;
#BPMS:0.000=130.000,
72.000=132.000,
101.000=200.000,
116.000=210.000,
124.000=220.000,
127.000=230.000,
131.000=200.000,
164.000=100.000,
165.500=400.000,
229.000=100.000,
233.000=400.000,
280.000=200.000,
288.500=100.000,
297.500=145.000,
329.000=140.000,
457.000=145.000,
495.000=165.000,
551.500=163.000,
624.000=170.000,
661.000=85.000,
679.000=316.000,
710.000=90.000,
719.000=85.000,
727.000=150.000,
728.000=316.000,
784.000=85.000,
786.000=174.000,
867.000=150.000,
912.000=360.000,
917.000=74.000,
932.750=60.000,
933.250=190.000;
#STOPS:;
#DELAYS:932.750=1.200;
#WARPS:;
#TIMESIGNATURES:0.000=4=4;
#TICKCOUNTS:0.000=4;
#COMBOS:0.000=1;
#SPEEDS:0.000=1.000=0.000=0;
#SCROLLS:0.000=1.000;
#FAKES:;
#LABELS:0.000=Song Start;
#BGCHANGES:;
#KEYSOUNDS:;
#ATTACKS:
;

//---------------dance-single - ----------------
#NOTEDATA:;
#CHARTNAME:;
#STEPSTYPE:dance-single;
#DESCRIPTION:;
#CHARTSTYLE:;
#DIFFICULTY:Hard;
#METER:15;
#RADARVALUES:0.834353,1.137364,0.839398,0.146691,0.241768,2150.000000,1841.000000,309.000000,54.000000,0.000000,1.000000,0.000000,0.000000,0.000000,0.834353,1.137364,0.839398,0.146691,0.241768,2150.000000,1841.000000,309.000000,54.000000,0.000000,1.000000,0.000000,0.000000,0.000000;
#CREDIT:;
#NOTES:
1000
0000
1100
0001
0110
0000
0001
0001
,
1000
0100
1000
0010
1001
0000
0010
0100
,
0010
0001
0010
1000
1001
0000
0100
1000
,
0101
0001
0010
0010
1100
0000
0001
0010
,
1000
0001
0010
0100
1010
0000
0100
0100
,
0010
0001
0001
0100
0110
0000
1000
0001
,
0011
1000
0100
0010
0100
0100
1000
0001
,
0010
0001
0100
0010
0110
1000
0100
1000
,
0010
0001
0001
0100
0010
0100
1000
0010
,
0010
0000
0001
1000
0001
1000
0001
1000
0010
0100
0010
0100
0010
0000
1000
0000
,
1000
1000
0010
0110
0000
0001
0010
0001
,
0100
0010
1000
1001
0010
0100
0010
0001
,
0100
1000
0010
0110
0001
0100
1000
0010
,
0001
0100
0010
0100
1000
2000
3000
0010
,
0100
0001
0010
0001
1000
0100
1000
0010
,
0010
0100
1000
0001
0100
0200
0300
0010
,
0010
0000
0010
0100
0010
0100
0010
0000
0000
0000
0001
0000
1000
0000
1100
0000
,
0100
0000
0110
0000
0010
0000
0001
1000
0001
1000
0001
0000
0010
0000
0010
0000
,
0200
0000
0310
0000
0010
0000
1000
0100
1000
0000
0001
0010
0001
0000
0100
0000
,
0010
0000
0001
0000
1000
0000
0010
0000
0100
0010
0100
0000
0001
0000
0010
0000
,
1000
0000
0100
0000
0001
0000
0100
0000
0010
0000
1000
0001
1000
0000
0000
0000
,
0010
0000
1000
0000
0100
0000
1000
0000
0010
0000
0001
0000
0100
0010
0100
0000
,
1000
0000
0010
0000
0100
0000
0010
0000
0001
0000
1000
0100
1000
0000
0001
0000
,
1000
0010
0001
0100
0100
1000
0001
1001
,
0100
0010
0100
0000
0001
1000
0010
0000
0100
0001
0100
0000
1000
0010
0100
0000
,
0010
0001
1000
0100
1000
0000
0100
0000
0010
0000
0100
0000
0010
0000
0001
0000
,
1100
0100
1000
0001
0010
0100
0010
1100
,
1000
0010
0011
0100
1010
0010
0100
0010
,
0001
0001
1000
0100
1001
0010
0100
0010
,
1000
0001
0100
1000
0010
0010
0100
0010
,
0001
1100
1000
0010
0100
0010
0001
0100
,
1000
0011
0100
1000
0010
0010
0100
0001
,
1000
0100
1001
0001
0100
0100
1000
0000
,
1010
0110
1000
0101
,
0100
0010
1001
1001
1001
0000
0000
0110
,
0000
0100
0000
1010
0000
0001
0000
0110
,
0000
0001
0100
0010
0100
0010
0100
0000
,
1001
0010
0100
0001
0011
1000
0100
1000
,
0010
0100
0101
0010
1000
0001
1000
1100
,
0001
0010
0100
0010
1010
0000
0100
0010
,
1002
0003
0002
0003
0002
0003
0000
1001
,
0220
0330
0010
0001
,
0100
1010
1000
0001
,
0010
0100
0010
0000
1000
0000
0100
0000
,
1000
0001
0100
0010
,
0100
1001
1000
0010
,
0100
0000
0010
0000
0001
0000
1000
0100
,
1000
0010
0100
0010
,
0010
0000
0001
0000
1000
0001
0100
0000
,
1000
0110
1000
0001
,
0100
0100
0010
1000
,
0100
0000
1000
0000
0001
0010
0001
0000
,
0100
0000
0110
1010
,
0000
0000
0110
0000
0001
1000
0010
0000
,
0001
0100
1010
1000
,
0001
0100
0010
0100
,
0001
0100
1000
0010
0100
0000
0010
1000
,
0001
0000
0000
0000
0100
0000
1000
0100
0010
0100
0001
1000
0001
0100
1010
0000
,
0011
0110
0000
0000
0001
0000
1000
0000
,
0100
0000
0010
0000
0100
0000
0010
0100
,
0001
0000
1000
0000
0100
0010
1000
0000
,
0001
0000
0100
1000
0010
0000
0100
0000
,
0000
0000
1001
0000
0010
1000
0001
0000
,
0100
1010
1000
0011
,
0100
0010
1001
0100
,
1000
0000
0010
0000
0100
1000
0010
0000
,
0100
1100
0010
0100
,
0001
1001
0010
0001
,
1000
0010
0100
0000
1000
0000
1001
0000
,
0100
1000
0010
0100
,
1001
0100
1010
1000
0011
0001
0100
1010
,
1000
0001
0001
0110
0100
1010
0001
0100
,
1000
0000
0010
1000
0000
0010
0100
0001
0000
0001
1000
0000
0100
1000
0000
0010
,
0100
0000
0010
0001
1000
0000
0100
1000
0000
0010
0001
0000
0010
1000
0100
0000
,
0010
0001
0100
0000
1000
0000
0000
0000
0010
0000
1000
0000
0010
0000
0001
0000
,
1000
0010
1000
0001
0100
0001
1000
0010
,
0100
0010
0001
1000
0100
1000
0010
0001
,
1100
0000
0000
0000
1001
0000
0010
0100
0010
0100
0010
0001
1000
0001
1000
0001
,
1000
0010
0010
0100
0100
1000
0001
0010
,
0001
0100
1010
1000
0010
0100
1001
0010
,
0110
1000
1000
0001
0010
0100
0010
1010
,
0100
0000
0000
0000
1010
0000
0001
0000
0100
0000
0010
0000
0100
0001
1000
0001
,
1000
0001
1000
0000
0000
0000
1010
0000
0000
0000
0101
0000
0000
0000
1001
0000
,
0100
0010
1000
0100
0010
0001
0010
0100
,
0100
0001
1010
0010
0001
1100
1000
0010
,
0100
0001
0001
1000
0100
1000
0010
0200
,
0300
0010
0010
1000
0100
0010
0001
1100
,
1000
0001
0010
0001
0100
1010
0010
1000
,
0011
0001
0100
1010
1000
0001
0100
0100
,
0010
0100
1000
0001
0010
0100
1000
1000
,
0010
0100
0010
0100
0000
0000
0011
0000
1000
0000
1000
0000
0010
0000
0001
0000
,
0100
1010
1000
0001
0110
0010
1000
1000
,
0010
0000
0001
0000
0100
0000
0000
1000
0010
0000
0000
0000
0100
0001
0000
0000
,
0010
1000
0010
0100
0101
0010
1001
0100
,
1010
0001
0100
1010
0010
0001
1000
0110
,
0100
0010
1000
0011
0001
0100
1010
1000
,
0001
0000
0001
0000
0100
0000
1000
0010
0000
0000
0001
0000
0100
0000
0100
0000
,
1000
0010
0100
0011
0000
1010
0000
1100
,
0001
0001
0010
0010
1000
0000
1010
0100
,
0001
0010
0100
0010
1000
0100
0001
0010
,
0100
0001
0010
1000
0100
0001
1000
0100
,
0010
0000
0001
1100
0000
1010
0000
0110
,
2002
3003
0000
0010
0010
0001
1000
0100
,
0010
0001
1000
0110
0100
0010
1001
1000
,
1010
0000
0100
0100
0001
0010
1000
0100
,
0010
0100
0001
0001
1001
0000
0100
0010
,
1100
1100
0010
0010
0100
1000
0011
0001
,
0100
1010
1000
0001
0010
0001
0100
0010
,
1100
0010
0100
0100
0010
1000
0001
0010
,
0001
1000
0100
0010
0100
0010
0010
1001
,
1001
0000
0010
0010
0100
0001
1000
0000
,
0100
0010
0001
1000
0010
0100
0010
1000
,
0100
0000
0010
0010
1000
0100
0010
0001
,
1100
1010
0011
1010
,
0220
0330
0000
1010
1000
0001
0100
0100
,
0010
1000
0001
0001
0010
0001
1100
1000
,
0010
0100
0010
0001
1000
1000
0010
0001
,
0100
0100
1000
0010
0010
0100
0100
0001
,
1000
0100
1000
0010
0010
0100
0001
0001
,
1000
0100
0010
0100
0001
1000
0001
1000
,
0010
0100
1000
1000
0001
0010
0100
1010
,
0100
0001
0010
1000
1000
0001
0100
0010
,
0010
0200
0000
0000
0000
0000
0000
0000
,
0000
0000
0000
0000
0000
0000
0300
0001
,
1000
0001
1000
0001
1000
0001
1000
0001
,
1000
1000
0100
0010
0001
0100
0010
0100
,
0010
0100
0010
0100
0010
0100
0001
0010
,
0100
1000
0010
1000
0010
0100
0100
1001
,
0010
0100
0010
0100
0010
0100
0010
0001
,
0010
0001
0010
0001
1000
0001
1000
0001
,
0100
0001
0100
0001
0100
1000
1000
1001
,
0010
0100
0010
0100
0010
0100
0010
1000
,
0010
1000
0010
1000
0010
0001
0010
0001
,
0100
0001
0100
0001
0100
0001
0100
0010
,
0010
0100
1000
0100
0010
0001
1000
0000
,
0100
0010
0100
0010
0100
0010
0100
0010
,
1000
0001
1000
0001
0100
0001
0100
0001
,
0010
0001
0010
0001
0010
0001
0110
0000
,
1000
0000
1010
0000
0010
1000
0110
0000
,
0100
0000
0101
1000
0001
1000
0002
0000
,
0000
0000
0000
0000
0000
0000
0000
0003
,
0010
1000
0100
0100
0001
0001
1000
0100
,
1000
0001
0100
0001
0100
0010
1000
0100
,
0001
0010
0010
1000
0100
1000
0010
0010
,
0001
1000
0100
1000
0220
0330
0000
0001
,
0001
1000
0010
0100
0100
0001
1000
0100
,
1010
0100
0001
0011
1000
0100
1000
0010
,
1010
0100
0010
0001
0100
1010
1000
0001
,
0010
0000
0010
0000
0001
0000
1000
0000
0110
0000
0000
0000
0000
0000
0000
1000
,
0010
0000
0100
0001
0000
0010
0001
1000
0010
0000
0100
0000
0000
0000
0000
0100
,
0010
0000
0100
0010
0000
0001
1000
0000
0010
0100
0000
0000
0000
0000
0000
0000
,
1010
0110
0101
0011
,
1001
0000
0000
0000
1010
0000
0000
0000
0110
0000
0000
0000
0000
0100
0000
0010
,
0001
0000
1000
0010
0100
0000
0010
0000
0100
0000
0000
0000
0000
0000
1000
0000
,
0000
0010
0100
0000
0010
0001
1000
0000
0100
0000
0000
0000
0000
0000
0110
0000
,
0001
1000
0000
0100
0010
0100
0000
0010
0001
1000
0100
0000
1000
0010
0000
0000
,
0200
0000
0000
0000
0000
0000
0300
0000
0000
0000
0010
0001
0100
0000
0010
0001
,
0100
0010
1000
1100
0001
1010
0100
0001
,
0011
0000
1000
0000
1010
0000
0100
0000
0001
0000
0010
0100
0010
0000
1000
0000
,
1100
0000
0001
0000
1001
0000
0100
0000
0010
0000
0100
1000
0100
0000
0001
0000
,
0011
1000
0010
1000
0110
0100
0001
0011
,
1000
0100
0010
0100
0011
1000
1010
0100
,
0001
0000
0010
0000
0011
0000
1000
0000
0100
0010
0100
0000
1000
0001
0100
0000
,
0011
0101
0110
1010
,
0110
0000
0001
0010
1000
0100
0010
0100
0000
0001
0010
0100
0000
0000
0010
0000
,
2002
3000
0103
0200
0020
0330
1002
2000
,
3003
0200
0320
1030
1002
0023
0230
0300
,
2010
3000
0102
0103
0020
2030
3100
0001
,
0102
2000
3000
0103
0202
0300
0013
1000
,
0100
0010
0100
0010
0100
0000
0001
0001
0100
0100
0000
0000
1001
0000
0000
0000
,
0100
0010
0001
1000
,
0100
0010
0100
1001
,
1000
0001
0100
1010
,
1000
0011
0100
1010
,
1000
0011
0001
0110
,
0100
1010
1000
0011
,
0001
0100
1000
0010
,
0100
0000
0000
0000
0010
0000
0000
0000
1001
0000
0100
0000
0010
1000
0001
0100
,
0010
0010
1000
0000
0100
1000
0001
0010
0000
0001
0100
0000
1010
0001
1000
0010
,
0000
0100
0010
0001
1100
0000
0100
1000
0001
0010
0100
0000
1000
0100
0010
0100
,
0001
0001
1000
0100
1000
0000
0011
0000
0110
0000
1010
0000
1100
0000
0110
0000
,
0010
1000
0001
0100
0010
0100
0010
1000
0001
1000
0001
1000
0220
0000
0000
0000
,
0330
0000
0000
0100
0010
0000
0100
1000
,
0001
0010
0001
0100
1010
0000
1000
0001
,
0010
0001
1100
0000
1000
0010
0100
0010
,
0001
0100
1010
0000
1000
0001
0010
0001
,
0100
1001
0000
1000
0010
0100
0010
0100
,
0010
0001
1000
0100
1000
0011
0100
1010
,
0001
1000
0001
0100
0010
0100
1000
0001
,
1000
0001
0010
0100
1000
0100
0010
0100
,
0010
0001
1100
0000
1000
0001
0010
0001
,
0100
1010
0000
0010
1000
0100
1000
0001
,
0010
0001
0100
0000
1010
0000
1000
0010
,
0001
1000
0100
1000
0011
0000
0100
0010
,
1000
0001
0100
0000
0100
0010
0001
1000
,
0000
1000
0100
0010
0001
0100
1000
0000
,
0100
1000
0010
0100
0010
0001
1000
0000
1000
0000
0000
0000
0110
0000
1000
0000
,
0011
0100
1010
0100
0011
0001
0100
1010
,
0100
0010
0011
0001
1000
0100
1010
0101
,
0010
0101
1010
0100
1000
0010
0001
1100
,
1000
0010
0100
0010
0001
0001
1000
1000
,
1001
0001
1000
1100
0010
0010
0100
0110
,
1000
0001
1001
0100
0010
0110
0001
0100
,
1010
1000
0100
1000
0011
0001
0100
1010
,
1000
0001
0001
0100
0000
1010
1010
1100
,
1100
2002
3003
0100
0010
0100
0001
0010
,
0101
1010
0100
1000
0000
1010
1010
0110
,
0110
0001
0202
0303
0000
1000
0011
0001
,
0100
1010
0010
0100
0011
1000
0010
0100
,
1001
0010
0100
0011
0100
0010
1100
1000
,
0011
0001
0100
1010
0010
1000
0011
0100
,
1010
1000
0001
0010
0100
0010
1001
1000
,
0100
1000
0001
0100
0010
0100
1001
0001
,
0010
0100
1010
0100
0001
0011
1000
1000
,
0100
0110
1000
0010
0001
0100
1010
0010
,
0100
0000
0011
0000
0001
0000
1100
0000
0100
0000
1000
0000
0010
0100
0010
0100
,
0010
0000
1000
0001
1000
0001
0000
0220
0000
0000
0000
0000
0330
0000
0001
0000
,
1000
0100
1000
0001
0000
0000
0001
0100
0010
0000
0010
0001
1000
0000
0100
1000
,
0001
0100
0000
0000
0100
0010
1000
0001
0000
0000
0001
0100
0000
0010
1000
0000
,
1000
0010
0100
0000
0010
0001
0100
0000
1001
0000
0000
0001
0010
0000
0100
0010
,
1000
0000
0100
1000
0001
0000
0000
0001
0100
0010
0000
0010
0000
1000
0100
1000
,
0001
0000
0000
0001
0100
0010
1000
0000
0010
0100
0000
0010
0001
1000
0000
1000
,
0010
0100
0000
0010
0001
1000
0000
1000
0110
0000
0001
0000
0000
0001
0100
0010
,
0000
0100
0010
1000
0001
0000
0000
0001
0100
0000
1000
0010
0100
0000
0010
0001
,
1000
0000
1000
0010
0000
0100
0010
0001
0000
0100
1000
0010
0002
0000
0003
0000
,
1100
0000
0000
0110
0000
0000
1010
0000
0000
1001
0000
0000
0011
0000
0000
1010
,
0000
0000
1100
0000
0000
0110
0000
0000
0101
0000
0000
0011
0000
0000
1001
0000
,
0000
1010
0000
0000
0110
0000
0000
0101
0000
0000
1001
0000
0220
0000
0000
0000
,
0000
0000
0000
0000
,
0000
0000
0330
0000
0000
0000
1001
0000
0000
0010
0000
0000
1100
0000
0000
0001
0000
0000
0110
0000
0000
1000
0000
0000
,
0011
0000
0100
0000
1010
0000
0001
0100
0010
0001
1000
1000
0010
0100
0010
0001
,
1000
0100
1000
0000
0110
0000
0001
1000
1010
0000
0100
0001
0110
0000
1000
0100
,
1000
0001
0010
0000
0010
0100
0010
1000
0000
0000
1001
0010
0001
0100
0000
0110
,
1010
1001
0000
0000
0100
0000
0000
0000
0010
0000
1000
0000
0100
0000
0001
0000
,
0010
0001
1000
1010
0100
0001
0010
0100
,
1010
1000
0011
0001
0100
1010
0100
0010
,
1000
0011
0001
0100
0010
1001
1000
0100
,
0011
0110
1010
1100
,
2002
0000
3003
0000
0110
0001
1000
0001
,
0110
0100
0010
1001
0001
1000
0100
1000
,
0011
0001
0100
1010
1000
0010
0101
0100
,
1000
0100
0010
1000
0011
0001
0100
0100
,
1000
0101
0110
1010
,
1000
0001
1000
0001
1000
0001
0100
0010
,
1100
1000
0010
0001
0100
1010
1000
0011
,
0001
0100
1010
1000
0200
1000
1301
0001
,
0100
1010
1000
0011
0001
1000
0110
0100
,
0010
1000
0011
0001
0100
1010
1000
0001
,
0010
0100
0200
0000
0300
0010
1001
0100
,
1010
0010
0001
0100
0100
1000
0001
0100
,
1010
1000
0011
0001
0100
1010
0010
0001
,
1000
0100
1000
0001
0110
1000
0001
0010
,
1001
0100
0010
0100
1010
1000
0001
0100
,
0010
1000
2002
0000
0000
0000
3003
0000
;

//---------------dance-single - ----------------
#NOTEDATA:;
#CHARTNAME:;
#STEPSTYPE:dance-single;
#DESCRIPTION:;
#CHARTSTYLE:;
#DIFFICULTY:Beginner;
#METER:1;
#RADARVALUES:0.000000,0.000000,0.000000,0.000000,0.000000,0.000000,0.000000,0.000000,0.000000,0.000000,0.000000,0.000000,0.000000,0.000000,0.000000,0.000000,0.000000,0.000000,0.000000,0.000000,0.000000,0.000000,0.000000,0.000000,0.000000,0.000000,0.000000,0.000000;
#CREDIT:;
#NOTES:
// measure 0
0000
0000
0000
0000
;
