#VERSION:0.83;
#TITLE:Dance Dance Dance Revolution SuperNova;
#SUBTITLE:;
#ARTIST:Various Artists;
#TITLETRANSLIT:DDR SuperNOVA;
#SUBTITLETRANSLIT:;
#ARTISTTRANSLIT:;
#GENRE:;
#ORIGIN:;
#CREDIT:;
#BANNER:DDR Supernova.png;
#BACKGROUND:DDR Supernova-bg.png;
#PREVIEWVID:;
#JACKET:DDR Supernova-jacket.png;
#CDIMAGE:;
#DISCIMAGE:;
#LYRICSPATH:;
#CDTITLE:cdtitle.png;
#MUSIC:DDR Supernova.mp3;
#OFFSET:0.000000;
#SAMPLESTART:37.209499;
#SAMPLELENGTH:16.363636;
#SELECTABLE:YES;
#BPMS:0.000=154.000,
31.000=165.000,
131.000=150.000,
199.000=144.000,
234.000=160.000,
328.000=180.000,
407.000=240.000,
473.000=177.000,
544.000=188.000,
640.000=170.000,
701.000=171.000,
733.000=250.000,
750.000=100.000,
752.000=180.000,
809.000=190.000,
873.000=170.000,
911.000=85.000,
912.250=340.000,
1039.000=300.000,
1100.000=400.000,
1291.000=100.000,
1298.250=400.000,
1411.500=100.000,
1415.000=150.000,
1421.000=400.000;
#STOPS:;
#DELAYS:878.000=0.200,
880.250=0.200,
883.000=0.200,
884.500=0.200,
885.750=0.200,
887.000=0.200,
895.000=0.200,
897.750=0.200,
899.750=0.200,
901.750=0.200,
903.500=0.200,
904.750=0.200,
911.000=0.200,
912.250=0.200,
1291.000=2.420,
1295.000=0.200,
1298.250=0.200;
#WARPS:;
#TIMESIGNATURES:0.000=4=4;
#TICKCOUNTS:0.000=4;
#COMBOS:0.000=1;
#SPEEDS:0.000=1.000=0.000=0;
#SCROLLS:0.000=1.000;
#FAKES:;
#LABELS:0.000=Song Start;
#BGCHANGES:;
#KEYSOUNDS:;
#ATTACKS:
;

//---------------dance-single - ----------------
#NOTEDATA:;
#CHARTNAME:;
#STEPSTYPE:dance-single;
#DESCRIPTION:;
#CHARTSTYLE:;
#DIFFICULTY:Hard;
#METER:16;
#RADARVALUES:0.895230,1.138450,0.918007,0.147364,0.157028,2594.000000,2214.000000,380.000000,61.000000,0.000000,6.000000,0.000000,0.000000,0.000000,0.895230,1.138450,0.918007,0.147364,0.157028,2594.000000,2214.000000,380.000000,61.000000,0.000000,6.000000,0.000000,0.000000,0.000000;
#CREDIT:;
#NOTES:
0000
0100
1000
0001
0010
0100
0010
1000
,
0001
1000
0001
1000
0001
0000
0010
0001
,
0100
0010
1000
0100
1000
0001
0010
0001
,
1000
0100
1000
0001
0100
0010
0100
0000
,
1001
0100
1100
0010
0100
0010
1001
0001
,
0010
0001
1100
0100
1000
0001
0110
0010
,
1000
1000
0001
0001
0100
0010
1100
0001
,
0010
0000
0100
0000
0010
0000
0000
0001
1000
0001
1000
0001
1000
0000
0000
0000
,
0010
0100
0001
1000
0001
1000
0001
1000
,
0110
0001
0100
0010
0100
1000
0011
0001
,
0100
1010
1000
0001
0100
0010
0010
0100
,
1000
0001
0001
0100
1010
0010
0100
0011
,
0001
0000
1000
0000
0110
0000
0010
0100
1000
0100
0001
0010
0001
0000
0100
0000
,
1000
0010
0100
0010
0001
1000
0100
1000
,
0011
0100
0010
1000
0001
1000
0001
0100
,
0010
1000
0100
1000
0011
0001
0100
1010
,
0100
1000
0011
0100
0010
0100
1001
0000
,
0010
0001
1000
0010
0100
0010
0001
1000
,
0000
0110
0100
1001
0001
0010
0001
0100
,
1010
1000
0001
0001
1000
0010
0100
0011
,
0001
1000
0100
0110
0010
1001
1000
0110
,
0000
0110
1000
0011
0001
0100
1010
0100
,
0010
1000
0001
1000
0001
0100
0010
0100
,
0010
2001
3000
0100
0010
1000
0011
0001
,
1000
0000
1000
0000
0010
0000
0100
0000
0010
0000
0001
0000
1000
0010
0000
0100
,
0001
0000
0000
0001
1000
0100
0000
1000
0010
0000
0010
0000
0100
0001
0010
0001
,
1000
0100
0000
1000
0010
0000
0000
0010
0100
0001
0000
0000
1001
0000
0100
0010
,
0100
0001
0000
0000
0001
1000
0100
1000
0010
0000
0000
0010
0100
0001
0000
1001
,
0000
0100
0010
0000
0110
0000
1000
0000
2002
0000
3003
0000
0000
0100
0000
0010
,
1000
0000
0011
0000
0000
0001
0100
0000
0010
0100
0000
1001
0000
0000
0010
1000
,
0000
0100
1000
0000
0011
0000
0001
0100
1010
0000
0000
0010
1000
0100
0000
1000
,
0001
0010
0001
0000
0100
1010
0000
0000
0010
0001
0000
1000
0001
1000
0000
0010
,
0100
0000
0010
0001
0000
1000
0010
0000
0200
0000
0000
0300
0010
0000
0100
0000
,
0001
1010
1000
0001
0100
0100
1010
0010
,
1000
0011
0001
0010
0001
1100
1000
0001
,
0100
0100
0010
0010
1000
0001
1000
0001
,
1000
1000
0010
0010
2200
3300
0022
0033
,
0100
0100
0010
0100
0001
0001
0010
0001
,
1000
1000
0100
1000
0010
0100
0100
0010
,
0001
0001
0100
1000
0010
0100
0001
0001
,
1000
1000
0010
0010
2200
3300
0022
0033
,
0100
0100
0010
0001
0100
0010
0001
1000
,
0001
1000
0010
0100
0010
0001
1000
0100
,
1000
0001
0010
0001
0100
0100
1000
0010
,
0100
0010
0001
1000
1000
1000
1000
0010
,
0100
0001
0010
1000
1001
0010
0100
0011
,
1000
0100
1000
1010
0100
0001
0010
0001
,
0100
1001
0010
0110
0100
0001
1000
0110
,
0010
0001
1000
0100
1000
0012
0000
0013
,
1000
0000
1000
0000
1000
0000
0010
0000
0010
0000
0010
0000
0000
0000
0000
1000
,
0001
0000
0000
0001
0100
0000
0100
0000
0010
1000
0000
0000
1000
0000
0100
0000
,
0010
0001
0000
0000
0001
1000
0000
0000
1000
0010
0000
0100
0000
0010
0000
0100
,
0000
0000
0100
0001
0000
0000
0001
1000
0000
0000
1000
0010
0000
0000
0010
0100
,
0001
0000
0000
0001
1000
0000
0000
1000
0000
0010
0100
0000
0010
0001
0000
0100
,
1000
0000
0001
0000
0001
0100
0000
0100
0010
0000
0000
0010
1000
0000
0000
1000
,
0001
0000
0000
0001
0100
0000
0000
0100
0010
0000
0000
0010
0001
1000
0000
0100
,
1000
0001
0000
0000
0001
0100
0000
0000
0100
0010
0000
0000
0010
1000
0000
0000
,
1000
0000
0001
0010
0000
0100
0000
0010
1000
0000
0001
0000
0100
0010
0000
0001
,
0100
0010
0100
0010
0100
0000
0000
0000
1001
0000
0000
0000
0011
0000
0000
0000
,
0110
0000
1001
0000
1100
0000
1000
0010
,
0001
1000
0110
0000
0000
0000
1100
0000
,
1010
0000
0110
0000
0101
0010
0001
0100
,
0010
1000
0110
0000
1001
0000
0010
0000
,
1010
0110
0101
0011
,
1100
0000
1001
0000
0010
0010
0100
0010
,
0001
1000
0100
1000
0001
0001
0100
0010
,
0100
2002
3003
0000
0010
1000
0010
0100
,
0001
0100
1010
0000
0010
1000
0100
1000
,
0011
0000
0010
0001
1000
0100
0000
0100
,
0010
0001
1000
0001
1000
0100
1000
0001
,
0100
0010
1000
1000
1000
1000
0010
0010
,
0000
1000
0000
0100
1000
0001
0100
0000
,
0100
0000
0010
0001
1000
0100
1000
0001
,
0100
0010
0001
0001
1000
0100
1000
0001
,
0010
0100
2002
0000
3003
0000
0010
0000
,
1010
0000
0100
0001
0100
0010
0001
1000
,
0100
0010
0001
0001
1000
0200
0300
0010
,
0010
0001
1000
0100
1000
0001
0100
0010
,
0001
2000
0000
3000
0000
0000
1010
0000
,
0110
0000
0101
0010
1000
0100
0001
0010
,
0001
1000
0000
0100
0010
0100
0000
1000
,
0001
0010
0001
1000
0100
0010
0020
0000
,
0030
0000
0100
1001
0000
1001
0000
0001
,
1000
0100
0010
0100
0010
1000
0001
0100
,
0010
1000
0001
0010
0001
0010
0001
1000
,
0100
1000
0001
0100
0010
1001
1000
0100
,
1000
0100
1000
0010
0000
0010
0100
0010
,
0001
1000
0100
1000
0001
0000
0110
0000
,
1001
0000
0010
0010
1000
0001
0001
0100
,
0100
0100
0010
1000
0011
0000
0010
0001
,
0100
1010
0000
0010
0001
1000
0100
0100
,
1001
0000
0001
0010
0001
0100
1010
0000
,
0010
0001
0100
0000
0100
1000
0001
0010
,
0001
1000
0100
1000
0000
0110
0000
1001
,
0100
0100
0001
0010
0100
0010
0001
1000
,
0100
1000
0110
0000
0110
0000
0001
0001
,
1000
0100
1000
0010
0001
0010
0001
0100
,
0010
0100
0000
1000
1000
0100
0011
0000
,
0001
0100
1001
0000
1000
0010
0100
0100
,
1000
0001
0001
0010
0001
1000
0100
0010
,
0010
0001
1000
1000
0100
1000
0011
0000
,
0101
0110
1010
1001
,
0100
0001
0001
0110
,
1010
0000
0110
0000
1000
0001
0010
0001
,
1000
0000
1000
0000
0100
0010
0100
0010
,
0100
0010
1000
0001
0100
0010
0010
1000
,
0001
1000
0001
1000
0000
0100
0100
0001
,
0010
0001
0010
0001
1000
0100
1000
0100
,
1000
0010
0020
0000
0000
0000
0030
0000
,
0110
1010
1000
0011
,
0101
0000
0110
0000
1010
0000
1100
0100
,
0001
0011
0000
1000
0010
0001
1000
0010
,
0100
0010
0100
0000
1010
0001
0010
0001
,
0100
1010
0000
1000
0010
0001
0100
0000
,
0010
0100
1000
0001
0010
0001
0100
0100
,
1000
0010
0000
0101
0000
0110
0000
1010
,
0000
0100
1000
0010
0001
1100
0000
1100
,
0000
0110
0000
0110
0000
1000
0001
1000
,
0001
0200
0000
0000
0000
0000
0000
0000
,
0000
0000
0000
0000
,
0300
0000
0001
0001
0010
1000
0001
0100
,
0010
0001
1000
0100
1000
0001
0001
0100
,
0010
0100
1000
1000
0011
0001
0100
1010
,
1000
0100
1000
0011
0010
0100
0010
1000
,
1000
0001
0001
0100
0010
0100
1000
0001
,
0010
0001
0001
1000
1000
0010
0100
0001
,
1000
1000
0010
0100
0001
0010
0010
1000
,
0100
0100
0001
1000
0001
1000
0001
0110
,
0000
0011
1000
0100
1000
0100
1010
0000
,
0001
0010
0001
0010
1001
0010
1000
0001
,
0100
0110
0000
0010
1000
0100
1000
0011
,
0001
0100
1010
0000
0010
0001
1000
0100
,
1000
0001
0001
0100
0100
0010
0001
1000
,
0110
0000
0010
0100
1001
0000
0001
1000
,
0100
1000
0011
0010
0100
1001
0000
1000
,
0001
0110
0000
0100
0010
1000
0011
1000
,
0110
0000
1000
0100
0010
0001
0000
0001
,
1000
0000
1000
0100
0000
0100
0010
0001
,
0000
0001
1000
0000
1000
0100
0010
0100
,
0010
0000
0010
0001
0000
0001
1000
0000
,
1000
0100
0010
0100
0010
0001
0000
0001
,
0010
0000
0010
0100
1000
0100
1000
0010
,
0100
0010
0100
0010
0100
0010
0100
0010
,
1000
0001
1000
0001
1000
0001
1000
0001
,
1000
0000
0220
0000
0330
0000
1000
0100
,
0001
0010
0000
0110
0000
1000
1001
0000
,
0110
0000
1000
0001
0010
0001
1000
0100
,
0110
0000
0001
0110
0000
0100
1000
0001
,
0010
0001
1000
0010
0100
0010
0000
0010
,
0001
1000
0100
1000
0010
0000
0110
0000
,
1001
0000
0010
0001
0100
0010
1100
0000
,
0011
0000
0100
1010
0000
0010
0001
1000
,
0100
1000
0000
0001
0110
0110
0000
1001
,
1001
0000
0100
0010
0100
0001
1000
2000
,
3001
0002
0023
0030
0100
0010
1000
1000
,
0001
0010
0100
0000
0100
0010
0020
0030
,
1000
2000
3200
0300
0000
0010
0001
1000
,
0000
1000
0001
0100
0010
0020
0030
1000
,
2000
3002
0003
0100
0010
0001
0100
1010
,
0000
0001
0010
0001
1000
0010
0100
0010
,
0100
0010
0010
1000
,
0022
0033
0000
2200
3300
0000
0000
0000
,
0010
0100
1000
0010
,
0002
0003
0001
0100
,
1000
0010
0010
0100
,
0101
0001
1001
0010
,
0110
0000
1000
0000
1001
0000
0010
0001
,
0110
0001
1000
0001
0010
0100
0100
0010
,
1000
0100
1000
0001
0010
0001
0010
0001
,
1000
0010
0100
0010
0001
1000
0100
1000
,
0100
1000
0011
0100
0010
0100
0010
1000
,
0001
1000
0010
0100
0011
1000
0100
1010
,
0100
0001
0011
0100
0010
0000
1010
0100
,
0001
1000
0010
0001
0100
0010
1001
1000
,
0001
0100
0010
0000
0010
0000
0200
0000
,
0300
0000
0010
0100
0010
0100
0010
0100
,
1001
0000
0010
1000
0010
1000
0010
1000
,
0000
1001
1001
0010
1000
0010
1000
0000
,
0110
0110
0001
0001
0100
0010
0100
1001
,
0010
1000
0001
1000
0010
0100
0010
0100
,
0010
1001
0000
1000
0001
1000
0001
1000
,
0001
0110
0110
0000
1000
0010
0001
0100
,
0000
1001
0000
1000
0010
0100
0010
0001
,
0001
1000
1000
0000
1010
0000
1010
0000
,
0011
0011
0001
0110
,
1010
1010
1000
0011
,
0011
0001
0110
0110
,
1010
1010
0220
0330
,
1001
0100
0010
0100
0110
0001
0010
0100
,
1001
1000
0010
0001
0110
0100
1010
1000
,
0011
0001
1100
0100
1000
0001
0010
0100
,
0010
1000
1100
0100
0110
0010
0011
0000
,
0011
0000
0001
0100
0100
1000
0010
0010
,
1100
0001
1000
1000
0001
0110
0010
0001
,
1000
1000
0110
0100
1000
0010
0011
1100
,
1000
0010
1000
0011
0001
1000
0010
0010
,
0100
0001
1001
0010
0100
0010
0001
0001
,
1000
0010
0110
0001
0100
1000
0010
0100
,
0011
0001
1000
0100
1000
0010
0001
0100
,
1100
0000
0011
0100
0101
0000
0110
0010
,
1010
0001
1000
0100
0010
0001
0001
1000
,
0110
0000
0010
0001
1000
0100
1000
0001
,
0010
0100
1001
0000
0000
0000
1100
0010
,
0001
0010
0100
1000
0010
0001
0010
0001
,
0100
1000
0100
1000
0010
0100
0010
1100
,
0001
1000
0001
0010
0100
0010
0100
1000
,
0010
0001
0001
0100
1000
0100
1000
0010
,
0001
0010
0001
1000
0100
1000
0100
0010
,
1000
0001
0010
0001
0010
1000
0100
1000
,
0001
0100
1001
0000
0110
0000
1010
0000
,
1001
0010
0001
0010
0100
0000
0110
0000
,
1010
1001
0011
0101
,
0110
1000
0001
1000
0010
0000
0011
0000
,
0101
0000
0110
0000
1010
0000
0100
0001
,
1000
0001
1000
0000
0110
1000
0001
0100
,
0010
0100
1000
0001
1000
0001
0100
0010
,
1001
0100
0010
0100
1000
0001
1010
0100
,
0001
1000
0110
0001
1000
0010
0101
1000
,
0010
0000
0100
0000
1001
0000
1000
0000
0010
0001
0010
0000
0100
1000
0100
0000
,
0001
0010
0001
0000
1000
0100
1000
0000
0000
0000
0001
0100
0000
0010
0000
0001
,
1000
0000
0000
1000
0000
0000
0001
0000
0010
0000
0100
0000
0000
0000
1000
0010
,
0100
0000
0000
0000
0000
0100
0000
0000
0000
0000
0010
0000
0000
0000
0000
0000
,
1000
0000
0010
0100
0001
0000
0001
1000
0100
0000
1000
0010
0000
0010
0100
0000
,
0001
0000
1000
0000
1000
0010
0000
0010
0100
0001
0000
0001
0000
0000
0000
0100
,
0001
0000
1000
0000
0010
0100
0000
0000
0000
0000
0000
0010
0000
0100
0000
0000
,
0000
0000
0001
0000
0010
0100
0000
0000
0000
0000
0001
0000
1000
0000
0000
0000
,
0000
0010
0000
0000
0000
0000
0100
0001
0000
0000
0001
1000
0000
0000
1000
0010
,
0000
0100
0010
0000
0001
1000
0000
0000
0220
0000
0000
0000
0330
0000
2002
0000
,
0000
0000
3003
0000
0010
1000
0110
0000
,
0001
1000
0000
0100
1000
0000
0010
0001
,
0010
0100
0000
1001
0000
1000
0000
0100
,
0010
0000
0011
1000
0100
0000
1000
0010
,
0000
0010
0100
0001
0000
0001
1000
0000
,
1000
0010
0100
0000
0010
0001
1000
0100
,
1000
0000
0010
0100
1000
0001
0000
0010
,
0001
1000
0000
0010
0100
0000
0100
0010
,
0000
1000
0001
0000
1000
0001
1000
0010
,
0000
1000
0001
0000
0100
0010
1000
0000
,
0100
1000
0001
0010
0001
1000
0000
0100
,
0000
0010
0001
1000
0100
0000
1000
0010
,
0100
0010
0000
0001
1100
0000
0000
1000
,
0010
0100
0000
0010
1000
0001
0010
0001
,
1000
0100
0000
1000
0010
0100
0000
0010
,
0001
1000
0000
0100
1000
0000
0011
0000
,
0000
0000
1100
0000
0010
0001
1000
0010
,
0100
0000
1001
0000
0001
0100
0000
0010
,
0100
1001
0000
0000
0001
1000
0000
0100
,
0000
1000
0001
0010
0001
0000
1100
0000
,
0000
0100
1000
0001
0100
0000
0100
0010
,
1000
0000
0100
1000
0001
0010
0001
0100
,
0000
1000
0010
1000
0010
1000
0000
0100
,
0000
0010
0100
0000
1001
0000
0000
1000
,
0001
0010
0001
0100
0000
1010
0000
0100
,
0010
0100
0000
1001
0000
1000
0001
0010
,
0001
0100
0000
1010
0000
0100
1000
0001
,
0000
0010
0001
1000
0000
0100
1000
0000
,
0100
0010
0100
0010
0100
0000
0010
0000
,
0001
0100
0000
1010
0000
0100
1000
0001
,
0000
0010
0001
1000
0000
0010
0100
0000
,
0001
1000
0001
1000
0001
1000
0000
0000
,
0010
0100
0001
1000
0100
1010
0000
0001
,
0100
1000
0010
0000
1100
0000
1010
0000
,
0100
0001
0010
0001
1000
0100
0000
0110
,
0000
0001
1010
0000
1000
0100
1000
0001
,
0010
0001
0000
0110
0000
1010
0000
1100
,
0000
0001
0100
0020
0000
0031
0000
0001
,
0000
1000
0010
0100
0010
0001
1000
0100
,
1000
0010
1010
0110
,
0001
0010
0001
1000
0102
1000
0003
0000
,
1010
0000
0001
0100
1010
0000
1000
0001
,
0010
0001
0000
1100
0000
1010
0000
0110
,
0000
0000
1001
0010
0001
0100
1010
0000
,
1010
0000
1000
0001
0010
0001
1100
0000
,
1100
0110
1010
1000
,
0110
0000
0010
0001
1000
0100
1000
0000
,
0220
0000
0330
0000
1000
0000
0000
1000
,
0000
0001
0000
0000
0001
0000
0010
0000
,
0000
0010
0000
0100
0000
0000
0100
0000
,
0000
0010
0000
0000
0010
1000
0000
0000
,
1000
0000
0000
1100
0000
0000
1010
0000
,
0000
0110
0000
0000
0101
0000
1001
0000
,
0000
1001
0000
0000
1001
0000
0000
0110
,
0000
0000
1000
0000
0011
0000
0000
0011
,
0000
1000
0000
0000
1000
0001
0000
0001
,
0000
0110
0000
0000
1010
0000
0000
1010
,
0000
0000
1000
0001
0100
0000
0010
1000
,
0000
0000
1000
0001
0000
0001
0000
0110
,
0000
0000
1010
0000
0000
1100
0000
0000
,
1001
0000
0100
0010
0000
0000
0001
0100
,
0000
1001
0000
0000
0001
1000
0000
0010
,
0000
0100
0010
0000
0001
1000
0100
0000
,
1000
0001
0000
0000
0110
0000
0000
1010
,
0000
0000
1100
0000
0000
0011
0000
0000
,
1010
0000
0000
0110
0000
0000
0110
0000
,
0000
0001
1000
0000
0010
0000
0100
0000
,
0000
0110
0000
0001
0000
1000
0000
0000
,
1010
0000
0000
1010
0000
0000
1010
0000
,
0000
0100
0000
0010
0000
1000
0001
0000
,
0010
0100
0000
1000
0001
0000
0110
0000
,
0000
0110
0000
0000
0110
0000
0001
0000
,
0000
0001
0000
1000
0000
0000
1000
0010
,
0000
0000
0010
0100
0000
0000
0100
0001
,
0000
1000
0000
0100
0000
1000
0001
0000
,
0010
0100
0000
0010
0000
1100
0000
0000
,
1100
0000
0011
0000
0000
0011
0000
0000
,
1001
0000
0000
1001
0000
0000
1001
0000
,
0000
0100
0000
0000
0011
0000
0000
0101
,
0000
0000
0110
0000
0000
1010
0000
0000
,
0011
0000
0000
0101
0000
0000
0110
0000
,
0000
1010
0000
0000
0000
0001
0000
0100
,
0000
0010
0000
0100
0000
0000
1001
0000
,
0000
1001
0000
0010
0000
0001
0000
0100
,
0000
1010
0000
0000
1010
0000
0000
1010
,
0000
0000
0010
1000
0000
0000
1000
0001
,
0000
0001
0000
0110
0000
0000
0110
0000
,
0000
1010
0000
0000
1010
0000
0010
0001
,
0000
0100
0000
1010
0000
0000
1010
0000
,
0000
1000
0000
0011
0000
0000
0011
0000
,
0000
0110
0000
0000
0110
0000
0000
1010
,
0000
0000
1010
0000
0011
0000
0000
0011
,
0000
1100
0000
0000
1100
0000
0000
1010
,
0000
0000
1010
0000
0000
0010
0001
1000
,
0100
0000
0000
0000
1000
0000
0000
0000
0220
0000
0000
0000
0000
0330
0000
0001
,
0001
1000
0010
0100
0010
0001
1000
0100
1000
0010
0010
1000
0000
0000
0100
0100
,
0010
0001
1000
0000
1000
0001
0100
0010
0100
0000
0000
0000
0000
0000
0000
0000
,
1001
0000
0000
1000
0001
1000
0010
0000
,
0100
0010
0000
0001
1000
0000
0100
0000
,
1000
0000
0010
0001
0100
0000
1010
0000
,
0000
1000
0001
0010
0001
0100
0000
1010
,
0000
0010
0001
1000
0100
1000
0010
0000
,
0011
1000
0000
0100
1000
0001
0010
0001
,
1000
0000
0100
1000
0010
0100
0010
0001
,
1000
0100
1000
0000
0010
0000
1010
0000
,
0000
1010
0000
0001
0000
0100
1000
0001
,
0000
0000
0001
0100
0000
1010
0000
0000
,
0010
1000
0100
0000
1000
0001
0000
0001
,
0100
0000
0010
1000
0000
0100
0000
1000
,
0001
0010
0000
0001
0100
0000
1010
0000
,
1000
0000
0001
0000
0010
0100
0000
0010
,
1000
0000
0000
1000
0001
0000
0000
0001
,
0100
0000
0000
0100
0000
0000
1001
0000
,
0100
0010
0000
1001
0000
0000
0001
0000
,
0000
0110
0000
0000
1010
0000
0000
1000
,
0000
0011
0000
0000
0001
0100
0000
0000
,
1010
0000
0000
0010
0100
0000
0010
0000
,
1100
1010
0011
0100
,
0001
0110
1010
1100
,
0010
1010
1000
0011
,
0001
0110
1010
1000
,
0001
0110
0110
1010
,
1100
0000
0001
1000
0000
0100
1000
0001
,
0000
0010
0001
1000
0000
0010
0100
0001
,
0000
0010
2000
0000
0000
0000
0000
0020
,
0230
0320
0032
0203
0320
0230
3300
0011
,
1000
0100
1000
0001
0010
0010
0000
0100
0001
0000
1000
0100
0000
1000
0001
0010
,
0010
0100
0001
0000
1001
0000
0000
0000
0010
0000
0100
0000
0001
0000
1000
0000
,
0000
0000
0000
0000
0010
0100
0001
1000
,
0001
0000
0000
0010
0100
0010
1000
0001
,
0000
0000
0000
0000
1000
0100
1000
0010
,
0001
0100
1000
0000
0020
0000
0000
0000
,
0000
0000
0030
0000
0100
0010
0100
0001
,
1000
0100
1000
0001
0200
0000
0000
0000
,
0000
0000
0300
0000
;

//---------------dance-single - ----------------
#NOTEDATA:;
#CHARTNAME:;
#STEPSTYPE:dance-single;
#DESCRIPTION:;
#CHARTSTYLE:;
#DIFFICULTY:Beginner;
#METER:1;
#RADARVALUES:0.000000,0.000000,0.000000,0.000000,0.000000,0.000000,0.000000,0.000000,0.000000,0.000000,0.000000,0.000000,0.000000,0.000000,0.000000,0.000000,0.000000,0.000000,0.000000,0.000000,0.000000,0.000000,0.000000,0.000000,0.000000,0.000000,0.000000,0.000000;
#CREDIT:;
#NOTES:
// measure 0
0000
0000
0000
0000
;
