#VERSION:0.83;
#TITLE:Dance Dance Revolution SuperNova 2;
#SUBTITLE:;
#ARTIST:Various Artists;
#TITLETRANSLIT:DDR SuperNOVA 2;
#SUBTITLETRANSLIT:;
#ARTISTTRANSLIT:;
#GENRE:;
#ORIGIN:;
#CREDIT:;
#BANNER:Dance Dance Revolution SuperNOVA 2.png;
#BACKGROUND:Dance Dance Revolution SuperNOVA 2-bg.png;
#PREVIEWVID:;
#JACKET:Dance Dance Revolution SuperNOVA 2-jacket.png;
#CDIMAGE:;
#DISCIMAGE:;
#LYRICSPATH:;
#CDTITLE:;
#MUSIC:Dance Dance Revolution SuperNOVA 2.mp3;
#OFFSET:-0.100000;
#SAMPLESTART:0.100000;
#SAMPLELENGTH:13.700000;
#SELECTABLE:YES;
#BPMS:0.000=140.000,
31.500=152.500,
32.000=165.000,
96.000=145.000,
159.750=138.000,
160.000=131.000,
224.000=90.000,
288.000=184.000,
351.500=168.000,
352.000=155.000,
383.500=157.500,
384.000=160.000,
448.000=162.000,
456.000=160.000,
511.750=180.000,
512.000=200.000,
576.000=160.000,
586.500=320.000,
592.000=160.000,
602.500=320.000,
607.000=160.000,
607.500=150.000,
608.000=180.000,
672.000=300.000,
768.000=100.000,
776.000=200.000,
792.000=400.000,
853.000=600.000,
854.000=800.000,
864.000=400.000;
#STOPS:586.500=0.260,
587.000=0.260,
587.500=0.260,
589.000=0.260,
602.500=0.180,
603.500=0.180,
604.500=0.180,
605.500=0.180,
606.500=0.080;
#DELAYS:;
#WARPS:;
#TIMESIGNATURES:0.000=4=4;
#TICKCOUNTS:0.000=4;
#COMBOS:0.000=1;
#SPEEDS:0.000=1.000=0.000=0;
#SCROLLS:0.000=1.000;
#FAKES:;
#LABELS:0.000=Song Start;
#BGCHANGES:;
#KEYSOUNDS:;
#ATTACKS:
;

//---------------dance-single - ----------------
#NOTEDATA:;
#CHARTNAME:;
#STEPSTYPE:dance-single;
#DESCRIPTION:;
#CHARTSTYLE:;
#DIFFICULTY:Challenge;
#METER:16;
#RADARVALUES:0.802356,1.005877,0.334126,0.305486,0.399360,1765.000000,1660.000000,105.000000,96.000000,0.000000,0.000000,0.000000,0.000000,0.000000,0.802356,1.005877,0.334126,0.305486,0.399360,1765.000000,1660.000000,105.000000,96.000000,0.000000,0.000000,0.000000,0.000000,0.000000;
#CREDIT:Dreamland200;
#DISPLAYBPM:90.000000:400.000000;
#NOTES:
// measure 0
1000
0000
0000
1000
0000
0000
1000
0000
0000
0000
0001
0000
0100
0000
0000
0000
,  // measure 1
0020
0000
0000
0030
,  // measure 2
1000
0000
0000
1000
0001
0000
0010
0000
0000
0000
0010
0000
0100
0000
0000
0000
,  // measure 3
0010
0000
0000
0010
0001
0000
0100
0000
0000
0000
0100
0000
0010
0000
0000
0000
,  // measure 4
1000
0000
0000
1000
0000
0000
1000
0000
0000
0000
0001
0000
0010
0000
0000
0000
,  // measure 5
0200
0000
0000
0300
,  // measure 6
1000
0000
0000
1000
0001
0000
0100
0000
0000
0000
0100
0000
0010
0000
0000
0000
,  // measure 7
1000
0000
0000
1000
0010
0000
0100
0000
0000
0000
0100
0001
0200
0000
0000
0000
,  // measure 8
0310
1000
0010
1000
0001
0010
0001
0010
,  // measure 9
0100
1000
0100
1000
0001
0100
0001
0100
,  // measure 10
0010
1000
0100
0010
0100
1000
0010
0100
,  // measure 11
0001
0010
0100
0010
0001
0100
0010
0100
,  // measure 12
0002
0000
0000
0000
0013
0100
1000
0001
,  // measure 13
1000
0010
0100
0001
0010
0100
1000
0001
,  // measure 14
0200
0000
0320
2030
,  // measure 15
3002
0010
0010
0010
,  // measure 16
0013
0100
1000
0010
0100
0001
0100
1000
,  // measure 17
0100
0001
0010
0100
0010
0001
1000
0010
,  // measure 18
0100
0010
1000
0100
0010
0001
0010
1000
,  // measure 19
0010
0100
1000
0010
0100
0001
0010
0100
,  // measure 20
2000
0000
0001
0000
3001
0100
0010
0100
,  // measure 21
0001
0010
0100
1000
0001
0100
0010
0100
,  // measure 22
0002
0000
0023
0230
,  // measure 23
2300
0010
0000
0001
0000
0100
0000
0010
,  // measure 24
3001
0000
0100
0010
0100
0001
0100
0001
0010
0000
0100
0000
1000
0000
0001
0100
,  // measure 25
0010
0100
0001
0000
0010
0000
0100
0000
0000
1000
0100
0000
0010
0000
0001
0000
,  // measure 26
0100
0000
0010
1000
0001
0010
0001
1000
0100
0000
1000
0000
0010
0000
0100
0000
,  // measure 27
0001
0010
0100
1000
0001
0000
0100
0000
0000
0010
1000
0000
0001
0000
0010
0000
,  // measure 28
0200
2300
3020
0230
0000
0301
0010
0100
,  // measure 29
2000
3002
0203
0320
0230
0302
0023
0230
,  // measure 30
1300
0100
0100
0000
0010
0000
0100
0100
1000
0000
0010
0000
0100
0000
0001
0000
,  // measure 31
0010
0000
0100
0000
1000
0000
0001
0000
0100
0010
0100
0000
0001
0000
0010
0000
,  // measure 32
0100
0000
1000
0010
0100
0001
1000
0100
0010
0000
0001
0000
0100
0000
0010
1000
,  // measure 33
0100
1000
0001
0000
0100
0000
0010
0000
0000
0010
1000
0000
0001
0000
0100
0000
,  // measure 34
1000
0000
0100
0001
0010
0001
1000
0100
1000
0000
0010
0000
0100
0000
0001
0000
,  // measure 35
1000
0100
0010
0001
1000
0000
0010
0000
0000
0010
0100
0000
0001
0000
0010
0000
,  // measure 36
0200
2300
3020
0230
0000
0301
0010
0100
,  // measure 37
2000
3200
0302
2003
3020
0032
0103
0010
,  // measure 38
1000
0100
0100
0000
0010
0000
0100
0100
0001
0000
0100
0000
1000
0000
0001
0000
,  // measure 39
0100
0000
0010
0000
1000
0000
0001
0000
0010
0001
0100
0000
0010
0000
1000
0000
,  // measure 40
0001
0000
0100
0000
0010
0000
0000
0010
1000
0000
0001
0000
0010
0000
0100
0000
,  // measure 41
0000
0000
1000
0000
0010
0000
0000
0010
0100
0000
0001
0000
0010
0000
0100
0000
,  // measure 42
1000
0000
0010
0000
0100
0000
0000
0100
0001
0000
0010
0000
0100
0000
1000
0000
,  // measure 43
0000
0000
0001
0000
0000
0000
0100
0010
0100
0000
0001
0000
0010
0000
0100
0000
,  // measure 44
2000
0000
3001
0020
0000
0130
0000
2000
,  // measure 45
0000
3020
0000
0032
0000
0203
0000
1300
,  // measure 46
0010
0100
0001
0010
0100
2000
3020
0230
,  // measure 47
0301
0000
0010
0100
0000
1000
0000
0001
0000
0100
0000
0010
0000
1000
0000
0000
,  // measure 48
0001
0000
0010
0000
0100
0000
0000
0100
0001
0000
0100
0000
0010
0000
0100
0000
,  // measure 49
0000
0000
0100
0000
1000
0000
0000
1000
0010
0000
0100
0000
0001
0000
0010
0000
,  // measure 50
0100
0000
1000
0000
0010
0000
0000
0010
0100
0000
0001
0000
0010
0000
0100
0000
,  // measure 51
0000
0000
1000
0000
0000
0000
0001
1000
0001
0000
0010
0000
0100
0000
1000
0000
,  // measure 52
0002
0000
1003
0200
0000
0310
0000
0002
,  // measure 53
0000
0203
0000
2300
0000
3020
0000
0031
,  // measure 54
0100
0000
0010
0000
1000
0000
0001
0000
0010
0000
0100
0000
1000
0001
0000
0100
,  // measure 55
0010
0000
0000
1000
0000
0100
0000
0001
0000
1000
0000
0010
0000
0001
0000
0000
,  // measure 56
1000
0000
0010
1000
0000
0010
1000
0000
0001
0000
0010
0001
0000
0010
0001
0000
,  // measure 57
0010
0000
0100
0010
0000
0100
0010
0000
0001
0000
1000
0001
0000
1000
0001
0000
,  // measure 58
1000
0000
0010
1000
0000
0010
1000
0000
0001
0000
0100
0001
0000
0100
0001
0000
,  // measure 59
0011
0000
0000
1100
0000
0000
1001
0000
0001
0000
0100
0000
0020
0000
0000
0000
,  // measure 60
0130
0000
0001
0010
0001
0000
1000
0000
0100
0000
1000
0001
1000
0000
0010
0000
,  // measure 61
0100
0000
0001
1000
0000
0001
1000
0000
0100
0000
0010
0001
0000
0010
0001
0000
,  // measure 62
1000
0000
0010
0100
0000
0010
0100
0000
0001
0000
1000
0001
0000
1000
0001
0000
,  // measure 63
0011
0000
0000
0110
0000
0000
1100
0000
1000
0000
0001
0000
0100
0000
0010
0000
,  // measure 64
1000
0000
0100
0001
0100
0000
1000
0000
0010
0000
0100
0001
0000
0001
1000
0100
,  // measure 65
1000
0000
0001
0100
0001
0000
0010
0000
0100
0000
1000
0100
0000
0000
0010
0001
,  // measure 66
0010
0000
0100
0001
0100
0000
1000
0001
1000
0000
0010
0100
0010
0000
1000
0000
,  // measure 67
1001
0000
0000
0011
0000
0000
1100
0000
2000
0000
0000
0000
3010
0000
0100
0001
,  // measure 68
0000
0000
1000
0000
0100
0000
1000
0010
0000
0100
0000
0001
0000
0010
0100
1000
,  // measure 69
0001
0000
0100
0000
0010
0000
0100
0001
0000
0010
0000
0100
0000
1000
0001
1000
,  // measure 70
0100
0000
0010
0000
0001
0000
0100
0010
0000
0100
0000
0001
0000
1000
0100
0010
,  // measure 71
0100
0000
1000
0000
0001
0000
0100
0010
0000
0100
0000
0001
0000
1000
0100
0010
,  // measure 72
0001
0100
1000
0100
0010
1000
0100
0010
,  // measure 73
0001
0100
0001
0000
0200
0000
0000
0000
0310
1000
0010
0000
2000
0000
0000
0000
,  // measure 74
3001
0010
0100
0010
0001
1000
0010
0100
,  // measure 75
0001
0010
0100
1000
0010
0100
0010
0100
,  // measure 76
0001
0010
0100
1000
0001
1000
0100
0010
,  // measure 77
0001
0000
0000
0000
0100
0000
0000
0000
0010
0000
0000
0000
1000
0000
0000
0000
0000
0000
0000
0000
0100
0000
0000
0000
0010
0000
0000
0001
0000
0000
0010
0000
0000
0000
0000
0000
0000
0000
0000
0000
0000
0000
0100
0000
0000
0000
0000
0000
,  // measure 78
1000
0010
0100
0001
0100
0010
1000
0100
0010
0001
0100
0010
,  // measure 79
2000
0000
0000
0000
0001
0000
0000
0000
0001
0000
0000
0000
3001
0010
0100
1000
,  // measure 80
0010
0000
0100
0000
0001
0000
0010
0000
0100
0000
0010
0000
0001
0100
0010
1000
,  // measure 81
0001
0000
0010
0000
0100
0000
1000
0000
0001
0000
0010
0000
0100
1000
0001
0010
,  // measure 82
0100
0000
1000
0000
0010
0000
0100
0000
0001
0000
0010
0000
0100
1000
0010
0100
,  // measure 83
0001
0000
0000
0010
0000
0000
0100
0000
0000
0010
0000
0000
0001
0000
0100
0000
0010
0000
0100
0000
0001
0000
0010
0000
,  // measure 84
0100
1000
0010
0100
0001
0010
0100
0010
,  // measure 85
0001
0100
0010
0100
0001
0010
0100
1000
,  // measure 86
0000
0000
0001
0000
0000
0000
0000
0000
0000
0000
0000
0000
0000
0000
0000
0000
0000
0000
0000
0000
0000
0000
0000
0000
0000
0000
0000
0000
0000
0000
0000
0000
0000
0000
0100
0000
0000
0000
0000
0000
0000
0000
0000
0000
0000
0000
0000
0000
0000
0000
0000
0000
0000
0000
0000
0000
0000
0000
0000
0000
0000
0000
0000
0000
0000
0000
1000
0000
0000
0000
0000
0000
0000
0000
0000
0000
0000
0000
0000
0000
0000
0000
0000
0000
0000
0000
0000
0000
0000
0000
0000
0000
0000
0000
0000
0000
0000
0000
0001
0000
0000
0000
0000
0000
0000
0000
0000
0000
0000
0000
0000
0000
0000
0000
0000
0000
0000
0000
0000
0000
0000
0000
0000
0000
0000
0000
0000
0000
0000
0010
0000
0000
0000
0000
0000
0000
0000
0000
0000
0000
0000
0000
0000
0000
0000
0000
0000
0000
0000
0000
0000
0000
0000
0000
0000
0000
0000
0000
0000
0000
0000
0000
1000
0000
0000
0000
0000
0000
0000
0000
0000
0000
0000
0000
0000
0000
0000
0000
0000
0000
0000
0000
0000
0000
0000
0000
0000
0000
0000
0000
0000
0000
,  // measure 87
0002
0000
0000
1000
,  // measure 88
1003
0001
1000
0001
1000
0001
1000
0001
,  // measure 89
1000
0100
0001
0100
1000
0010
0001
0010
,  // measure 90
1000
0001
1000
0001
1000
0001
1000
0001
,  // measure 91
0010
1000
0010
0001
0100
1000
0100
0001
,  // measure 92
0010
0100
0010
0000
0100
0000
0010
0100
0010
0000
0100
0010
0100
0000
0010
0000
,  // measure 93
0001
0100
1000
0100
0001
0010
1000
0010
,  // measure 94
0100
0010
0100
0000
0010
0000
0100
0010
0100
0000
0010
0100
0010
0000
0100
0000
,  // measure 95
1000
0010
0001
1000
0100
0001
0000
1001
,  // measure 96
1000
0000
0001
0100
0001
0000
1000
0100
1000
0000
0001
0010
0001
0000
1000
0010
,  // measure 97
1000
0000
0010
0000
0100
0000
0000
0000
0110
0000
1000
0001
0000
1000
0001
0000
,  // measure 98
0010
0000
0100
1000
0100
0000
0010
0001
0010
0000
0100
0001
0100
0000
1000
0100
,  // measure 99
1000
0000
0010
1000
0010
0000
0001
0010
0001
0000
0010
1000
0000
0100
0001
0000
,  // measure 100
0100
1000
0010
0100
0001
0010
0100
1000
,  // measure 101
0100
0001
0100
0010
0100
0001
1000
0010
,  // measure 102
0002
0000
0103
0010
0000
0100
0000
0001
,  // measure 103
0011
0000
0100
1100
0000
1000
1001
0000
,  // measure 104
0001
0000
0100
0010
0100
0000
0001
0010
0001
0000
1000
0100
1000
0000
0010
0100
,  // measure 105
0010
0000
1000
0001
1000
0000
0001
0010
0001
0000
1000
0100
1000
0000
0010
0100
,  // measure 106
0010
0000
0100
0001
0100
0000
0001
0010
0001
0000
1000
0100
1000
0000
0010
0100
,  // measure 107
0010
0000
1000
0100
1000
0000
0001
0100
0001
0000
1000
0100
0000
0001
0100
0000
,  // measure 108
1000
0010
0100
0001
0010
0100
1000
0001
,  // measure 109
0100
1000
0100
0010
1000
0001
0010
0100
,  // measure 110
2000
0000
3001
0100
0000
0010
0100
0001
,  // measure 111
0010
0000
0100
0000
1000
0000
0001
0000
0100
0010
0100
0010
1000
0001
1000
0001
,  // measure 112
2000
0100
3002
0100
2003
0100
3002
0100
,  // measure 113
2003
0100
3002
0100
2003
0100
3002
0100
,  // measure 114
2003
0010
3002
0010
2003
0010
3002
0010
,  // measure 115
2003
0010
3002
0010
2003
0010
3002
0000
,  // measure 116
0023
0031
0200
0301
0020
0031
0200
0301
,  // measure 117
0020
0031
0200
0301
0020
0031
0200
0301
,  // measure 118
2000
3010
0200
0310
2000
3010
0200
0310
,  // measure 119
0002
0013
0200
0310
0002
0013
0200
0310
,  // measure 120
1000
0100
1000
0000
0001
0000
0100
0010
0000
0100
0010
0000
1000
0000
0001
0010
,  // measure 121
0000
0001
0010
0000
0100
0000
1000
0001
0000
1000
0001
0000
0100
0000
0010
0000
,  // measure 122
1000
0100
1000
0000
0001
0000
0100
0010
0000
0100
0010
0000
1000
0000
0100
0010
,  // measure 123
0000
0100
0010
0000
0001
0000
0100
0010
0000
1000
0001
0000
0010
0000
0100
1000
,  // measure 124
0100
0000
0010
0001
0010
0000
0100
1000
0100
0000
0010
0001
0010
0000
0100
1000
,  // measure 125
0100
0000
0010
0001
0100
0000
0010
1000
0100
0000
0010
0001
0100
0000
0010
1000
,  // measure 126
0100
0000
1000
0001
0100
0000
0001
1000
0010
0000
0100
0001
0010
0000
0100
1000
,  // measure 127
0010
0100
0010
0100
0001
1000
0001
1000
0001
0010
0001
0010
0100
1000
0100
1000
,  // measure 128
0001
1000
0001
1000
0010
0100
0010
0100
,  // measure 129
0001
1000
0001
1000
0010
0100
0010
0100
,  // measure 130
0001
1000
0001
1000
0100
0010
0100
0010
,  // measure 131
0001
0100
1000
0100
0001
0100
0010
1000
,  // measure 132
0001
0010
0001
0010
0100
1000
0100
1000
,  // measure 133
0001
0100
0001
0100
0010
1000
0010
1000
,  // measure 134
0001
1000
0001
1000
0010
0100
0010
0100
,  // measure 135
0010
0000
1000
0000
0010
0000
0100
0000
0001
0000
0100
0000
0010
0000
0000
1000
0000
0000
0010
0000
0000
1000
0000
0000
,  // measure 136
0001
1000
0001
1000
0010
0100
0010
0100
,  // measure 137
0001
1000
0001
1000
0010
0100
0010
0100
,  // measure 138
0001
1000
0001
1000
0010
0100
0010
0100
,  // measure 139
0001
0010
1000
0010
0001
0100
0010
1000
,  // measure 140
0100
1000
0100
1000
0001
0100
0001
0100
,  // measure 141
0010
1000
0010
1000
0001
0010
0001
0010
,  // measure 142
0100
0010
0100
0010
0001
1000
0001
1000
,  // measure 143
0001
0100
0001
1000
0100
1000
0001
0000
0000
0110
0000
0000
,  // measure 144
0010
0000
1000
0000
0100
0000
1000
0000
0001
0100
0001
0000
1000
0100
1000
0000
,  // measure 145
0001
0010
0001
0000
1000
0100
1000
0000
0010
0100
0010
0000
0000
0000
0110
0000
,  // measure 146
0001
0000
0010
0100
0010
0000
0001
0100
0001
0100
0101
0000
0011
0000
1100
0000
,  // measure 147
1001
1001
0011
1100
,  // measure 148
0001
0000
0100
0010
0100
0000
0001
1000
0001
0000
0010
0001
0010
0000
0100
1000
,  // measure 149
0100
0000
1000
0001
1000
0000
0000
0000
0001
0000
1001
0000
0000
0000
0110
0000
,  // measure 150
0010
1000
0001
1000
0100
0000
1000
0010
0100
0000
0101
0000
0000
0000
1010
0000
,  // measure 151
0000
0110
0000
1001
0000
0110
1001
0100
,  // measure 152
0010
0100
1001
0001
0010
0100
1100
1000
,  // measure 153
0010
0100
0101
0001
0010
0100
0011
0001
,  // measure 154
0100
0010
1010
1000
0001
0010
0110
0100
,  // measure 155
1000
0010
1010
0001
0100
0010
0110
1000
,  // measure 156
0001
0010
1100
0001
0100
0010
1001
0001
,  // measure 157
0010
0100
1100
0001
0100
0010
0101
0001
,  // measure 158
0010
0100
1100
1001
0101
0100
0010
1000
,  // measure 159
0001
0010
0001
0000
0100
0000
0101
0000
0000
0000
1001
0000
0000
0000
1000
0010
,  // measure 160
1000
1010
0100
0001
0011
0010
0100
1100
,  // measure 161
1000
0010
0001
1000
0100
0001
0011
0010
,  // measure 162
0001
0100
0110
0010
1000
0001
1001
0100
,  // measure 163
0011
1001
1100
1010
1001
0101
1001
0110
,  // measure 164
0000
1001
0000
0101
1100
0000
1100
0101
,  // measure 165
0000
0011
0100
1000
0010
0100
0001
0011
,  // measure 166
1100
1000
1010
0101
0001
1001
0110
0010
,  // measure 167
1000
0100
0001
0100
1000
0010
0100
0001
,  // measure 168
0101
0000
1100
0000
1000
0100
0001
0100
,  // measure 169
0010
1010
1001
0000
,  // measure 170
0011
0000
1100
0000
0001
0100
1000
0100
,  // measure 171
0001
0011
1100
0000
,  // measure 172
1010
0000
1001
0000
0001
0100
0010
0100
,  // measure 173
1000
1100
0101
0000
,  // measure 174
1001
0000
1100
0000
0010
0001
0100
1000
,  // measure 175
0100
0101
0011
0000
,  // measure 176
0110
0000
0100
1000
0000
1000
0010
0000
,  // measure 177
0010
0100
0000
0100
0001
0000
0010
0001
,  // measure 178
0010
0000
0010
0100
0000
0100
1000
0000
,  // measure 179
1000
0010
1000
0010
0100
0001
0100
0001
,  // measure 180
0010
0000
0100
1000
0000
0001
0100
0000
,  // measure 181
0010
1000
0000
0001
0010
0000
0100
1000
,  // measure 182
0100
0000
0010
0001
0000
0100
0010
0000
,  // measure 183
1000
0001
1000
0001
0010
0100
0010
0100
,  // measure 184
1000
0000
1000
0001
0000
0001
0100
0000
,  // measure 185
0100
0010
0000
0010
1000
0000
0100
1000
,  // measure 186
0010
0000
0010
0100
0000
0100
0001
0000
,  // measure 187
0001
0010
0001
0010
1000
0010
1000
0010
,  // measure 188
0100
0000
0100
1000
0000
1000
0001
0000
,  // measure 189
0001
0100
0000
0100
0010
0000
1000
0001
,  // measure 190
1000
0000
1000
0100
0000
0100
0010
0000
,  // measure 191
0010
0001
0000
0001
1000
0000
0010
0100
,  // measure 192
0120
1030
2001
3100
,  // measure 193
0021
0130
2010
3001
,  // measure 194
1000
0100
0001
0100
1000
0010
0100
0010
,  // measure 195
1000
0000
0001
0000
0010
0000
0100
0000
0010
0001
0000
1000
0100
0000
1000
0100
,  // measure 196
1000
0010
1000
0100
0010
0001
0100
1000
,  // measure 197
0100
0001
0010
1000
0010
0000
0110
0000
,  // measure 198
0100
1000
0100
1000
0001
0100
0001
0100
,  // measure 199
1000
0100
1000
0100
0001
0100
0001
0100
,  // measure 200
0001
0011
0100
1100
,  // measure 201
0010
0000
1010
0000
1000
0010
1000
0010
,  // measure 202
0100
0001
0100
0001
0010
0001
0010
0001
,  // measure 203
1000
0100
1000
0100
1000
0001
1000
0001
,  // measure 204
1000
1100
0001
0011
,  // measure 205
1000
0000
1001
0000
0001
0100
0001
0100
,  // measure 206
0010
1000
0010
1000
0001
0010
0001
0010
,  // measure 207
0100
1000
0100
1000
0001
0100
0001
0100
,  // measure 208
0010
1000
0010
1000
0001
0100
0001
0100
,  // measure 209
0001
0010
0001
0010
0100
1000
0100
1000
,  // measure 210
0001
0100
0010
1000
0001
0010
0100
1000
,  // measure 211
0010
0100
0001
1000
0100
0010
0001
1000
,  // measure 212
0010
0000
0101
0000
,  // measure 213
1010
0000
0000
0000
0000
2002
0000
0000
,  // measure 214
0000
0000
0000
0000
,  // measure 215
0000
0000
0000
0000
,  // measure 216
0000
0000
0000
0000
,  // measure 217
0000
0000
0000
0000
,  // measure 218
3003
0000
0000
0000
;

//---------------dance-single - ----------------
#NOTEDATA:;
#CHARTNAME:;
#STEPSTYPE:dance-single;
#DESCRIPTION:;
#CHARTSTYLE:;
#DIFFICULTY:Hard;
#METER:15;
#RADARVALUES:0.738713,0.927915,0.910095,0.680980,0.595062,1625.000000,1339.000000,286.000000,214.000000,0.000000,6.000000,0.000000,0.000000,0.000000,0.738713,0.927915,0.910095,0.680980,0.595062,1625.000000,1339.000000,286.000000,214.000000,0.000000,6.000000,0.000000,0.000000,0.000000;
#CREDIT:;
#NOTES:
2000
0010
3010
0110
0000
0110
0000
2000
,
3020
0230
0300
0020
0030
0002
0203
0300
,
0000
1000
2002
0000
3003
0000
0000
0000
,
0000
0100
0220
0000
0000
0330
0000
0000
,
1010
0110
0101
0000
0000
1001
1001
0200
,
0302
2003
3020
0230
2300
0000
3000
0000
,
1010
0110
0000
0101
0000
0000
0000
1100
,
0110
0000
0000
0011
1100
0000
2002
0000
,
3003
0000
1000
0100
1000
0010
0100
0001
,
0000
0010
1000
0000
0010
0000
0000
0100
0000
0001
0000
1000
0000
0000
1100
0000
,
0000
0010
0000
0100
0000
0001
1000
0000
0010
0000
0000
0100
0000
0001
0001
0000
,
0000
1000
0010
0000
0100
0000
1000
0010
0000
0100
0000
0001
1000
0010
0000
0200
,
0000
0000
0000
0000
0300
0000
0010
0110
,
0000
0000
1000
0000
1010
0000
0000
0010
0100
0000
0001
0000
1000
0010
0000
0100
,
0000
0100
0001
0000
0010
0000
0001
0000
1000
0000
0100
0000
0000
0100
0000
1020
,
0000
0000
0000
0000
0000
0000
0130
1000
,
1100
0000
0010
0000
0000
1100
0000
0001
1000
0000
0000
0010
0000
0100
0000
0001
,
0000
1000
0000
0000
0010
0000
1000
0000
0000
1100
0000
0000
0010
0000
0100
0000
,
0001
0000
0010
0000
0011
0000
1000
0010
0000
0100
0000
0001
0000
1000
0100
1000
,
0000
0010
0000
0100
0000
0001
0001
0000
1000
0000
0010
0000
1000
0000
0100
1000
,
0010
0000
0000
0220
0000
0000
0000
0000
0000
0000
0330
0000
0000
0000
0000
1000
,
0000
0010
0000
1000
0000
0100
0000
0001
0000
0000
0010
0000
1000
0000
0100
0000
,
1000
0010
0000
0100
0001
0000
0010
0001
0010
0000
0100
0000
1000
0000
0110
0000
,
0000
1000
0000
0220
0000
0000
0000
0000
0000
0000
0000
0000
0000
0000
0330
0000
,
1001
1100
0110
1100
,
0010
0100
0010
0100
0000
0011
0000
0110
,
0000
1010
0000
1000
0100
1000
0010
0100
,
0001
0001
1001
2000
0000
3000
0010
0010
,
0000
0110
0110
0000
1000
0100
1000
0000
,
0010
0100
0001
0010
0011
0000
1000
1100
,
0000
0010
0100
0000
0011
0110
1100
0000
,
1000
0010
1000
0010
0100
0001
0010
0100
,
0000
0000
0010
0000
0010
1000
0000
0010
0000
0100
0000
0001
1000
0000
0110
0000
,
0000
0001
0000
1000
0000
1010
0000
0000
0000
0100
0010
0000
0100
0010
0000
0000
,
1100
0000
1010
0000
0000
0101
0000
0011
0000
0000
0000
1010
0000
1000
0100
0000
,
1000
0000
0000
0110
0000
0000
0110
0000
0000
0000
0000
0011
0000
0011
0000
0000
,
1000
0010
0100
0000
0001
0000
0010
0000
0001
1000
0000
0010
0000
0000
0110
0000
,
0000
1000
0000
0100
0000
1000
0010
0000
0100
0000
0001
0000
0000
0011
0000
1000
,
0000
0010
0000
1000
0000
1000
0000
0010
0000
0100
0001
0000
0011
0000
1000
0000
,
0100
0000
1000
0010
0000
0100
0000
0001
0000
0011
0000
1100
0000
0010
0000
0110
,
0000
0000
0000
1000
0100
0000
1000
0000
0010
0100
0001
0000
0011
0000
1000
0000
,
0010
0100
0000
1000
0001
0000
0011
1000
0000
0010
0000
0100
0001
0000
1000
0000
,
0100
0000
0010
0000
0010
0000
0000
0100
0001
0000
1000
0000
0010
0000
0100
0000
,
0002
0000
0000
0000
0000
0003
2200
0000
0000
0000
0000
3300
0000
0000
0000
0100
,
0001
0000
1000
0000
0010
1000
0100
0000
0000
0000
1000
0010
0000
0100
0000
0000
,
0110
0000
1010
0000
0100
0000
0000
1100
0000
0110
0000
0000
0000
0000
0022
0000
,
1000
0000
0000
1100
0000
0000
0000
0033
0000
2100
0000
0000
0010
3000
0100
0001
,
0000
0010
2000
0000
0020
0000
0030
0000
3010
0000
0000
0000
0100
0010
0000
0000
,
1000
0000
0010
0000
0100
0000
0001
0000
1000
0010
0000
0100
0000
0001
0000
0011
,
0000
1000
0000
0010
0000
1000
0000
0010
0000
0100
0000
0001
0000
1000
0000
0010
,
0000
0100
0000
0001
1000
0000
1100
0000
0010
0000
0100
0000
0001
0000
1000
0010
,
0000
0100
0000
0001
1000
0000
0100
0001
1000
0000
0202
0000
0000
0000
0303
0000
,
0000
1000
0010
0000
1000
0010
0000
0000
0110
0000
0110
0000
0000
0001
0000
0010
,
0000
0001
0000
1000
0010
0000
0100
0000
1000
1000
0010
0000
0100
0000
0001
0000
,
0010
0000
0001
0000
0001
0000
1000
0000
0010
0000
0100
0000
0001
1000
0000
0010
,
0000
0000
1010
0000
0000
1100
0000
0000
0010
0000
0100
0000
0001
1000
0000
0000
,
1001
0000
0000
0000
0000
0000
0000
0000
1100
0000
0000
0000
0000
0000
0000
0010
0000
0000
0000
0000
0000
0100
0000
0000
0001
0000
0000
0000
0000
0000
0020
0000
0000
1030
0000
0000
0000
0000
0000
0200
0000
0000
0000
0000
0000
0310
0000
0000
,
0000
1000
0002
0013
0000
0100
0000
0010
1000
0000
1100
0000
0010
0000
0100
0001
,
0000
1000
0020
0000
0130
0000
0000
0001
0000
1000
0000
0200
0000
1300
0000
0010
,
0020
0000
0130
0000
0000
0001
1000
0000
0100
0000
1000
0010
0000
0200
0000
0301
,
0000
0020
0000
0031
0000
2000
0000
3100
0000
0000
0010
0000
0100
0001
0000
1000
,
0000
1001
0000
0001
0000
1000
0100
0000
0001
0010
0100
0000
0010
0000
0001
0000
,
1000
0000
0100
0000
0010
0100
0000
0001
1000
0000
1000
0000
0000
1020
0000
0130
,
0000
0001
0000
2000
0000
0100
3100
0000
0000
0010
0000
0100
0001
0000
0010
0000
,
1000
1000
1000
0000
0010
0100
0001
0000
0010
0001
0001
1000
0000
0100
1000
0010
,
0000
0100
0100
0001
2000
3000
0010
0000
0100
0001
0001
0000
1000
0100
0000
1000
,
0010
0010
0000
0100
0001
0000
0011
0000
1000
0100
1000
0000
0010
0100
0010
0010
,
0000
0001
0010
0001
0000
1000
0100
1000
0010
0000
0100
0001
0000
1000
0100
1000
,
0010
0000
0001
0010
0001
0001
0001
0000
0220
0330
0000
1000
1000
1000
0000
2000
,
0000
0000
3000
0000
0000
0010
0100
0001
1000
0200
0000
0310
0000
0001
0020
0000
,
0031
0000
2000
0000
3010
0000
0000
0200
0000
1300
0000
0010
0000
0100
0001
0000
,
0001
1000
1000
0000
0010
0000
0100
0002
0000
1003
0000
0010
0100
0001
1000
1000
,
2002
0000
0000
3003
,
0100
0011
0100
0000
1000
0101
1000
0020
,
0000
0100
0230
0000
0000
0310
0020
0000
,
0000
0030
0100
1000
0101
0010
1000
0010
,
0100
0120
0000
0001
2000
3000
1030
0000
,
0200
0011
0000
1300
0020
1000
0000
0031
,
0001
0100
0010
0000
1000
0100
1010
0010
,
0100
0100
0002
0100
0000
1000
1000
2003
,
0000
0110
0000
0000
3010
0010
0020
1000
,
0000
0100
0030
0000
0110
0000
0001
0010
,
0020
1000
0000
0100
0030
0001
0200
0010
,
0000
0320
0000
1030
0200
0010
0300
1000
,
0011
0002
0010
0003
0100
0010
1000
1000
,
2000
0001
0100
3010
0002
0000
0000
0003
,
0000
0011
0000
0110
0000
1010
0000
0100
,
0010
0200
0010
0020
0000
0030
0000
0300
,
0000
2000
0010
3000
0100
0001
0001
2000
,
0010
3100
0020
0031
2000
3100
0020
0130
,
0002
1003
0020
0130
2000
3100
0002
0013
,
0200
0310
2000
3100
0002
0013
2000
3100
,
0010
0210
0302
1003
1200
0300
0010
2010
,
3000
0200
1300
0020
0030
0200
0301
2000
,
3010
0020
0230
0301
2001
3000
1010
0200
,
0301
0020
0030
0002
2003
3020
0230
0310
,
0000
0000
1100
0000
1100
0000
0000
0010
0100
0000
0001
0000
0011
0000
0000
0000
,
1100
0000
0000
0110
0000
0000
0000
0000
2020
0000
3030
0000
0000
0000
0100
0000
,
0011
0000
0100
0000
0001
1000
0000
0010
0000
0110
0000
0001
0000
1000
0000
0000
,
1100
0000
0000
0100
0000
0000
0110
0000
0000
0000
0010
0001
0010
0000
0200
0000
,
0000
0000
1300
0000
0000
0011
0000
0100
0000
0001
0000
1100
0000
0010
0000
0110
,
0000
0000
0000
2000
0000
3100
0000
0000
0010
0000
0110
0000
0110
0000
0000
0022
,
0000
0033
0000
0110
0000
0000
2200
0000
0000
0000
3300
0000
0000
0020
0000
0130
,
0000
0000
0000
1100
0000
0110
0000
0011
0000
0000
1000
0000
0010
0000
1000
0100
,
0000
0001
0000
0011
0000
1000
0000
0110
0000
1000
0000
0001
0000
0011
0000
1000
,
0000
1100
0000
0011
0000
0100
0000
0002
0003
0000
1010
0000
0000
0100
0000
0011
,
1000
0000
0001
0100
0000
0110
0000
1000
0000
0000
1100
0000
0010
0000
0100
0000
,
0000
0011
1000
0010
0000
0000
0001
0000
1100
0010
0000
0101
0000
0000
0010
0000
,
2020
3030
0000
0000
0000
0200
0000
0310
0000
1000
0001
0000
0010
0001
1100
0000
,
0000
0010
0000
0110
0000
0000
1001
0000
1000
0010
0000
0100
0001
0000
0011
0000
,
1000
0000
0100
1000
0010
0000
0220
0000
0000
0000
0330
0000
0000
1001
0000
0011
,
0000
1000
0000
2000
3010
0000
0110
0000
0001
0000
1000
0000
0010
0100
0000
0002
,
1003
0000
1100
1000
1010
0000
0110
0001
,
0101
0000
0011
0100
1100
0000
0110
0010
,
1010
1000
1100
0000
1010
0010
0110
0000
,
0011
0000
1010
0000
1100
0100
0011
0000
,
0110
0010
1010
0000
0101
0000
0011
0100
,
1100
0000
1010
0001
1001
0000
0011
0010
,
0110
0000
1010
1000
1100
0000
1010
0000
,
0101
0100
0011
0000
1010
0000
1001
0110
,
1001
0110
1001
0000
1010
0000
1100
0001
,
0011
1000
0110
0000
1010
0001
1100
0000
,
0101
0100
0011
0010
1010
0000
0110
1001
,
0110
0000
0101
0000
0011
0000
1010
0100
,
1100
0000
1010
0010
0011
0000
1010
0000
,
1100
0100
0011
0010
1100
0000
0110
0010
,
1010
0010
0110
0000
0101
0000
0011
0000
,
1001
1001
1001
0110
0110
0110
1010
1100
,
2000
0002
0000
3003
,
0020
0200
0332
2003
,
3020
0230
0302
2003
,
3020
0230
0302
2003
,
3020
0000
0200
0000
,
0300
0002
0000
0033
,
2010
0000
0200
0000
0300
0002
3003
0000
,
0010
0010
0010
0000
1100
0200
0000
0000
,
0320
2000
0030
3002
,
0203
0320
2030
3002
,
0023
0230
0302
0023
,
2030
3200
2300
3020
,
0230
0302
0023
2030
,
3200
2300
3020
0230
,
0302
0000
2003
0000
3020
0000
0230
0300
,
0001
0001
0001
2000
3020
0000
0230
0000
,
0300
0000
0000
1000
0100
0000
1000
0010
0000
0100
0001
0000
0010
0000
0110
0000
,
1000
0100
0000
1000
0010
0000
0100
0001
0000
0001
1000
0000
0010
0000
0100
0000
,
0001
1000
0000
0110
0000
1000
0011
0000
0000
0000
1010
0000
0110
0000
1100
0000
,
0000
0000
0000
0000
2002
0000
0000
0000
0000
0000
0000
0000
0000
3003
0000
0110
,
0000
0000
0000
1000
0100
0000
1000
0010
0000
0100
0000
0001
0000
0010
0100
0000
,
0001
1000
0000
0100
1000
0000
0010
0000
0100
0001
0000
2000
3010
0000
1000
0001
,
0010
0000
0100
0000
0001
0100
1000
0000
0110
0000
0110
0000
0000
0000
1010
0000
,
0000
0000
0101
0000
0000
0000
1001
0000
0000
0000
2002
0000
0003
0000
0000
3000
,
0200
0000
0000
0000
0310
0010
0200
0000
,
0301
1000
0020
0130
0000
1000
0200
0010
,
0320
0031
1000
0200
2300
0000
3010
0200
,
0301
0001
2000
3010
0100
0001
0010
1000
,
0010
0000
0100
0000
0011
0000
1100
0000
0000
0010
0000
0100
0000
0001
0000
1000
,
0000
1100
0000
0000
0010
0000
0100
0001
0000
0010
0000
1000
0000
0100
0000
1000
,
0010
0000
0200
0000
0301
0000
1000
0000
0020
0000
0230
0300
0001
0000
1000
0100
,
0000
1000
0010
0000
0100
0000
0001
0000
0022
0000
0000
0000
0033
0000
0000
0000
,
0000
0000
1000
0010
0000
0100
0000
0001
0010
1000
0100
0000
1000
0010
0100
0000
,
0001
1000
0020
0030
0100
0000
0001
0000
0010
0001
1000
0000
0000
0010
0000
1000
,
0000
0100
0000
1000
0000
0010
0000
0100
0000
0001
0000
0010
0000
0000
0100
0000
,
0010
0000
0010
0000
0010
0000
0010
0000
0100
0000
0001
0000
0010
0000
0001
1000
,
0010
0000
0100
0000
0110
0000
0110
0000
0000
0000
1000
0000
0010
0000
1000
0100
,
0000
1000
0010
0000
0100
0000
0001
0010
0000
1000
0000
1100
0000
0010
0000
0100
,
0000
0001
0000
1000
0000
1001
0000
0010
0000
0100
0000
0001
0000
0011
0000
1000
,
0000
1010
0000
0100
0000
0001
0000
0010
1000
0000
0100
1000
0000
0110
0000
2002
,
0000
0000
0000
0000
0000
0000
0000
0000
0000
0000
0000
3003
0000
0000
0000
2020
,
0000
0000
0000
3030
0000
0000
0202
0000
,
0000
0000
0003
0300
0000
0000
0000
0000
1000
0000
0010
0000
0100
0000
0001
0000
,
0010
1100
0000
0110
0000
0022
0000
0033
,
0000
0100
1000
0010
0000
0100
1000
0010
,
0100
0001
0000
1000
0010
0000
0100
0001
,
0010
0000
1000
0100
1000
0020
0030
0100
,
0000
0011
1000
1000
0010
0100
0001
1000
,
0000
0110
0000
1010
0000
0100
0001
0010
,
0000
0011
0000
0000
1000
0100
0000
1000
,
0010
0100
0001
1000
0010
0100
0000
0000
,
0110
0000
1000
0100
1000
0000
0010
0100
,
0001
1000
0010
0100
0000
0000
0010
0100
,
0001
1000
0010
0000
0100
1000
0000
0010
,
0100
0001
0010
0000
1000
0100
1000
0010
,
0100
0000
0001
0000
0010
0001
1000
0100
,
1000
0000
0010
0100
0001
0010
1000
0000
,
0010
0100
0002
2003
0000
3000
0000
0010
,
1000
0010
1000
0010
1000
0010
1000
0000
,
0100
0001
0100
0001
0100
0001
0100
0000
,
0000
1100
0000
1100
0000
1100
0000
1100
,
0000
1100
0000
0000
0110
0000
0001
1000
,
0100
1000
0010
0100
0001
0000
1000
0010
,
0100
0001
1000
0010
0000
2002
0000
0000
,
3003
0000
0000
0000
1100
0000
0000
0110
0000
1000
0010
0100
0000
0001
1000
0010
,
0000
0100
0001
1000
0000
0020
0130
0000
0002
0000
1013
0000
0020
0000
0130
0000
,
0000
0000
1000
0000
0100
1000
0000
0010
0000
0100
0000
0100
0001
0000
1000
0010
,
0000
0100
0001
1000
0000
0000
0010
0000
0100
0000
0001
1000
0000
0010
0000
0100
,
0000
0000
0101
0000
0000
0010
1000
0000
0100
0000
1000
0010
0000
0100
0000
0001
,
0000
1000
0010
0000
0100
0000
0001
0000
1000
0010
0000
0100
0000
0000
1001
0000
,
0000
0000
1001
0000
,
0110
0000
1100
0000
,
0011
1100
0000
1010
,
0000
1100
0010
0101
,
0010
1100
0000
0011
,
0010
1100
0100
0011
,
0000
1100
0010
0100
,
1000
0000
1010
0200
,
0310
0000
1000
0001
,
0010
0100
0101
0000
,
1000
1100
0000
0010
,
0100
0001
1001
0000
,
1001
0100
0010
0100
,
0001
1000
0011
0100
,
1001
0010
0110
0001
,
1000
2002
0000
0000
,
0000
0000
0000
0000
,
0000
0000
0000
0000
,
3003
0000
0000
0000
;
