#TITLE:Dance Dance Revolution MEGAMIX;
#SUBTITLE:(IN NES);
#ARTIST:Daja77;
#TITLETRANSLIT:;
#SUBTITLETRANSLIT:;
#ARTISTTRANSLIT:;
#GENRE:;
#CREDIT:;
#BANNER:DDR MEGAMIX (IN NES).png;
#BACKGROUND:DDR MEGAMIX (IN NES)-bg.png;
#LYRICSPATH:;
#CDTITLE:cdtitle.png;
#MUSIC:DDR MEGAMIX (IN NES).mp3;
#OFFSET:0.000000;
#SAMPLESTART:10.271429;
#SAMPLELENGTH:16.294777;
#SELECTABLE:YES;
#BPMS:0.000000=1120.000000
,132.000000=150.000000
,173.000000=155.100006
,209.000000=203.000000
,212.000000=200.000000
,244.000000=180.000000
,271.000000=150.949997
,281.000000=65.010002
,297.000000=300.000000
,305.000000=155.009995
,338.000000=160.199997
,372.000000=150.199997
,374.000000=150.000000
,408.000000=155.039993
,418.500000=82.949997
,426.000000=332.200012
;
#STOPS:205.500000=0.095000,
207.000000=0.095000,
207.500000=0.095000,
418.000000=0.774000
;
#BGCHANGES:;
#KEYSOUNDS:;
#ATTACKS:;

//---------------dance-single - ----------------
#NOTES:
     dance-single:
     :
     Hard:
     12:
     0.593947,1.531757,0.637711,0.156302,0.240705,665.000000,563.000000,102.000000,25.000000,36.000000,0.000000,0.593947,1.531757,0.637711,0.156302,0.240705,665.000000,563.000000,102.000000,25.000000,36.000000,0.000000:
0000
0000
0000
0000
,
0000
0000
0000
0000
,
0000
0000
0000
0000
,
0000
0000
0000
0000
,
0000
0000
0000
0000
,
0000
0000
0000
0000
,
0000
0000
0000
0000
,
0000
0000
0000
0000
,
0000
0000
0000
0000
,
0000
0000
0000
0000
,
0000
0000
0000
0000
,
0000
0000
0000
0000
,
0000
0000
0000
0000
,
0000
0000
0000
0000
,
0000
0000
0000
0000
,
0000
0000
0000
0000
,
0000
0000
0000
0000
,
0000
0000
0000
0000
,
0000
0000
0000
0000
,
0000
0000
0000
0000
,
0000
0000
0000
0000
,
0000
0000
0000
0000
,
0000
0000
0000
0000
,
0000
0000
0000
0000
,
0000
0000
0000
0000
,
0000
0000
0000
0000
,
0000
0000
0000
0000
,
0000
0000
0000
0000
,
0000
0000
0000
0000
,
0000
0000
0000
0000
,
0000
0000
0000
0000
,
0000
0000
0000
0000
,
0000
0000
0000
0000
,
0000
0000
0010
0000
,
0000
0000
0000
0000
,
0001
0010
0100
1000
0100
0000
0110
0000
,
0010
0000
1000
0000
1000
0000
0001
0010
,
0001
0100
0000
0100
0010
0000
0010
1000
,
0000
1000
0001
0010
0000
0001
0100
0010
,
0100
0001
1000
1000
1001
0000
0010
0000
,
1010
0000
0100
0000
0100
0020
0000
0000
,
0000
0030
1000
0000
0001
0200
0000
0000
,
0320
0000
0032
0000
2003
0000
0000
3010
,
0010
0010
0010
1000
1000
1001
0001
0001
,
0000
0000
1001
MMMM
1010
MMMM
0110
MMMM
,
0101
0000
0010
0010
0100
0010
1000
0001
,
1000
0100
0001
0010
0011
0000
0110
0100
,
1100
0000
0001
0001
0010
0100
1000
1000
,
1000
0000
1001
0000
1010
MMMM
0110
MMMM
,
0101
0000
0010
0010
0100
0010
0100
1000
,
1000
0001
0011
0110
,
1100
0000
0010
0110
0000
0001
1001
1001
,
0000
0110
0000
0000
0000
0000
0000
0000
,
1000
0000
1000
0100
0010
0100
0000
0001
,
0100
0000
0000
0000
1001
0000
0000
MMMM
0000
0000
1001
0000
0000
0000
0000
0000
,
0100
0000
0100
0010
0001
1000
0100
0010
,
0100
0000
0000
0000
1001
0000
0000
MMMM
0000
0000
1001
0000
0000
0000
0000
0000
,
0010
0000
0010
0100
1000
0001
0010
0001
,
0100
0000
0000
0000
1001
0000
0000
MMMM
0000
0000
1001
0000
0000
0000
0000
0000
,
0000
0010
0110
0110
,
1100
0000
0000
0000
1001
0000
0000
MMMM
0000
0000
1001
0000
0000
0000
0000
0000
,
1000
0001
1000
0001
,
1000
0000
1000
0010
0000
0010
0100
0000
0100
0001
0000
0001
,
1000
0000
1000
0100
0000
0100
0001
0000
0001
0010
0000
0010
,
0100
0000
0100
0001
0000
0001
1000
0000
1000
0100
0000
0100
,
0010
0000
0010
0001
0000
0001
0010
0000
0010
0100
0000
0100
,
1000
0000
1000
0010
0000
0010
0100
0000
0100
1000
0000
1000
,
0100
0000
0010
0000
0001
0000
0010
0000
0100
0002
0000
0000
,
0000
0000
0000
0000
,
0000
0000
0000
0000
,
0003
0000
0000
0000
0000
0000
1000
0001
0100
0010
0000
0100
0010
0000
0001
0010
0000
0100
0010
0000
0100
0001
0000
1000
,
0010
1000
0100
0001
0000
0010
0020
0000
0030
0000
0100
0100
0010
0001
0000
0010
0000
0001
0010
1000
0000
0010
0100
0000
,
0100
0010
0001
0002
0000
0003
0000
0010
0100
0010
0100
0000
1000
0000
1000
0001
0000
0010
0100
0010
0001
1000
0100
0000
,
0010
0100
0010
0000
1000
0000
1000
0010
0000
0100
0000
0001
0010
0000
0010
1000
1000
0001
0000
0001
0100
0000
0100
0000
,
0010
0010
2000
0000
0000
0000
0000
0000
0000
3000
0000
0000
,
0000
0110
0000
0000
,
0000
0000
0100
0100
0010
0001
0000
0010
,
0100
0110
0000
0001
0000
0001
0010
0000
,
0010
0000
0100
0010
0100
0001
0000
0001
,
0010
0100
0000
1000
0000
1000
0100
0010
,
0100
0010
0001
1000
0000
1000
0001
0000
,
0011
0010
0110
1100
,
1100
0000
1010
0001
0002
0000
0003
0000
,
0000
0000
1000
0000
0100
0000
0010
0000
0110
0000
0000
0000
0001
1000
0001
1000
,
0001
0000
0110
0110
0110
0000
0010
0000
,
1010
0001
1001
0100
,
0100
0010
0010
0000
1000
1000
0010
0000
,
1010
0000
0100
0001
0001
0010
1000
0000
,
1001
0000
0100
0000
0100
0010
0010
0100
,
0010
0100
0200
0000
0010
0300
0000
0000
,
0001
2001
0000
0000
0010
3001
0000
0010
,
0100
0000
0001
0000
0011
0011
0000
1000
,
0000
0101
0101
0000
0001
0000
0001
0010
,
0010
0000
0000
0000
0010
0100
0100
0000
,
0010
1001
0000
0110
,
0000
1100
0010
0010
0001
0001
0100
0000
,
0001
1000
0000
1000
0010
0000
0010
0010
,
0100
0010
0100
0000
1001
2000
0000
3000
,
0010
0000
0110
0000
0001
0001
0001
1000
,
0100
0000
0110
0001
0000
1000
0010
2200
,
0300
3000
0010
0000
0010
0010
0100
0000
,
1100
0000
0000
0000
0011
0000
0110
0000
1100
0000
0001
1000
0001
1000
0001
0000
,
0000
0000
0001
1000
0100
0000
0110
0000
,
0000
0000
0100
0010
0100
0000
0000
0000
0000
0000
0001
0000
1000
0000
0100
0000
,
0000
0000
0010
0000
0001
1000
0001
0000
0010
0000
0100
0000
0100
0000
0000
0000
,
0010
0000
1010
0000
0000
0001
0010
0100
0010
0100
1000
1000
0002
0000
0000
0000
,
0003
0000
0000
0000
0100
0010
0100
0000
1001
0000
0000
0000
0000
0000
0000
0000
,
1100
0000
1000
0010
0100
0001
0010
1000
,
0010
0100
1000
0001
1000
0010
0001
0100
,
0001
1000
0010
0000
0100
0100
0010
0001
,
1000
0000
0100
0010
0001
0000
0100
0100
,
0010
0001
1000
1000
0001
0100
0010
0100
,
0000
1100
0000
0000
0110
0000
0001
0000
,
1010
0000
0100
0001
2000
0000
0000
0000
,
0000
0000
3001
0001
,
0010
0010
0100
0000
1000
0100
0000
0010
,
0100
0010
0000
0011
0000
1000
0100
1000
,
0010
0010
0100
0000
0010
0100
0000
0010
,
0000
0000
0010
0000
0001
0000
0000
0001
,
0100
1000
2002
0000
,
3003
1000
1000
1000
,
0010
0100
0000
0100
0001
0000
0010
1000
,
0000
0100
0000
0010
0000
0100
0010
0000
,
0100
0010
0022
0000
,
0000
0033
0100
0100
,
0100
0000
1000
0010
0000
1000
0010
0100
,
0000
0100
0000
0001
1000
0000
1100
0000
,
0010
0000
1010
0000
0100
0000
0100
0010
,
0000
1100
0001
0000
0110
0000
0011
0000
,
1100
1010
0220
0000
,
0000
0330
0011
0011
,
0011
0000
1000
1000
0010
0000
0110
0000
,
1000
0001
0000
0011
1000
0000
1100
0001
,
0000
0001
0010
0000
0110
0000
0001
0000
,
1001
1000
1001
1001
,
0110
0000
1010
0100
0000
0101
0000
1000
,
0110
0000
0100
0011
0000
0001
1000
0110
,
0000
0010
1100
0011
0000
1100
0010
0000
,
2002
0000
0000
0000
,
0000
0000
0000
0000
,
3003
0000
0000
0000
;

//---------------dance-single - ----------------
#NOTES:
     dance-single:
     :
     Beginner:
     1:
     0.000000,0.000000,0.000000,0.000000,0.000000,0.000000,0.000000,0.000000,0.000000,0.000000,0.000000,0.000000,0.000000,0.000000,0.000000,0.000000,0.000000,0.000000,0.000000,0.000000,0.000000,0.000000:
// measure 0
0000
0000
0000
0000
;
