#VERSION:0.83;
#TITLE:Dance Dance Revolution 2014;
#SUBTITLE:;
#ARTIST:Various Artists;
#TITLETRANSLIT:DDR 2014;
#SUBTITLETRANSLIT:;
#ARTISTTRANSLIT:;
#GENRE:;
#ORIGIN:;
#CREDIT:;
#BANNER:DDR 2014.png;
#BACKGROUND:DDR 2014-bg.png;
#PREVIEWVID:;
#JACKET:DDR 2014-jacket.png;
#CDIMAGE:;
#DISCIMAGE:;
#LYRICSPATH:;
#CDTITLE:cdtitle.png;
#MUSIC:DDR 2014.mp3;
#OFFSET:0.000000;
#SAMPLESTART:100.000000;
#SAMPLELENGTH:12.000000;
#SELECTABLE:YES;
#BPMS:0.000=187.000,
68.000=210.000,
113.000=190.000,
179.000=160.000,
252.000=135.000,
316.000=128.000,
400.000=65.000,
402.000=140.000,
497.000=180.000,
596.000=184.000,
667.000=99.000,
684.000=396.000,
806.000=155.000,
850.000=185.000,
915.000=138.000,
945.000=130.000,
975.000=212.000,
1064.000=55.000,
1064.250=60.000,
1064.500=65.000,
1064.750=70.000,
1065.000=80.000,
1065.250=90.000,
1065.500=150.000,
1066.000=200.000,
1067.500=400.000,
1123.000=440.000,
1187.000=300.000,
1189.000=400.000,
1251.000=440.000,
1260.000=500.000,
1268.000=100.000,
1269.000=120.000,
1271.000=210.000,
1276.000=340.000,
1283.000=450.000,
1286.000=840.000,
1296.000=240.000,
1309.000=300.000,
1376.000=600.000,
1499.000=150.000,
1548.000=300.000,
1548.500=100.000;
#STOPS:113.000=0.095,
128.000=0.095,
179.000=0.095,
252.000=0.500,
683.000=0.500,
804.000=0.096,
804.500=0.096,
805.000=0.096,
805.500=0.096,
806.000=0.096,
911.000=0.200,
975.000=0.300,
1123.000=0.500,
1187.000=0.095,
1187.500=0.095,
1188.000=0.095,
1188.500=0.095,
1268.000=0.500,
1297.000=0.094,
1298.000=0.094,
1299.000=0.094,
1300.000=0.094,
1303.000=0.090,
1304.000=0.094,
1309.000=0.700,
1548.500=0.300;
#DELAYS:;
#WARPS:;
#TIMESIGNATURES:0.000=4=4;
#TICKCOUNTS:0.000=4;
#COMBOS:0.000=1;
#SPEEDS:0.000=1.000=0.000=0;
#SCROLLS:0.000=1.000;
#FAKES:;
#LABELS:0.000=Song Start;
#BGCHANGES:;
#KEYSOUNDS:;
#ATTACKS:
;

//---------------dance-single - ----------------
#NOTEDATA:;
#CHARTNAME:;
#STEPSTYPE:dance-single;
#DESCRIPTION:;
#CHARTSTYLE:;
#DIFFICULTY:Hard;
#METER:14;
#RADARVALUES:0.673276,0.927423,0.609807,0.167697,0.104538,2164.000000,1884.000000,280.000000,77.000000,0.000000,0.000000,0.000000,0.000000,0.000000,0.673276,0.927423,0.609807,0.167697,0.104538,2164.000000,1884.000000,280.000000,77.000000,0.000000,0.000000,0.000000,0.000000,0.000000;
#CREDIT:;
#NOTES:
0000
0000
0000
0000
,
0000
0000
0001
0000
0001
0010
0000
0010
,
0100
0100
1100
1000
,
1000
0100
0000
0100
0010
0000
0010
0001
,
0000
1001
1100
0010
0110
0000
0010
0000
,
0110
1001
0000
1000
0000
1000
0100
0000
,
0100
0010
0000
0010
0100
0001
0010
0001
,
1000
0000
1001
0000
1000
0001
1000
0001
,
0010
0100
0010
0100
0100
0010
0001
1000
,
0000
1001
0010
0100
0010
1000
0000
1000
,
0001
0010
0001
0010
0100
1000
0100
0100
,
0010
0010
0100
0010
0100
0000
1000
1000
,
0100
0010
0001
0010
0100
0000
0100
1000
,
0000
1001
0000
0011
0000
0110
0000
1100
,
0000
1001
0000
0010
0010
0010
0100
0000
,
0100
1000
0000
1001
0000
0011
0000
0110
,
0000
1100
0000
0010
0100
0010
0100
0100
,
0010
0000
0010
0000
1010
0000
1000
0100
,
0000
0100
0010
0001
1000
0001
1000
0010
,
0100
0000
0100
0010
0100
0000
0010
0010
,
1000
0001
0010
0100
0000
0100
1000
0000
,
1001
0000
0010
0100
0000
0100
0010
1000
,
0001
1000
0001
0010
0100
1000
0100
0000
,
0010
1000
0001
0010
0100
0100
1000
0001
,
0010
0100
0000
0100
1000
0000
1000
0000
,
0110
0000
0001
0000
0001
0010
0000
0010
,
0000
1000
0000
1001
0000
0010
1000
0000
,
1000
0000
0100
0000
0110
0000
0001
0100
,
1000
0000
0000
0000
0000
0000
1001
0000
0000
0000
0000
0000
0011
0000
0000
0000
0010
0000
0000
0000
0000
0110
0000
0000
,
1000
0001
1000
0001
0100
0100
0010
0010
,
0001
1001
0110
1010
,
0100
0100
0000
1000
0001
1000
0010
0020
,
0000
0000
0030
0000
0000
0000
0000
0000
0000
0110
0000
0000
0000
0000
0000
1010
0000
0000
0000
0000
0000
0100
0000
0000
,
0010
0100
0000
0010
0001
0001
0001
1000
,
1000
1001
0110
1010
,
0100
0010
0100
0001
0000
0010
0000
1100
,
0000
1001
0000
0110
0000
1010
0000
0100
,
0010
0100
0001
0000
0001
1000
0100
1000
,
0010
0010
0000
1010
0000
1100
0000
0010
,
0000
1000
0001
0001
0010
0010
0100
0000
,
0110
0000
1001
0000
0010
0100
0010
0200
,
0000
0000
1000
0000
0010
0000
0000
0010
,
0000
1000
0000
0001
0000
0000
0310
0000
,
0002
0000
1000
0000
0010
0000
0100
0010
,
0000
0000
0000
1000
0000
0000
2000
0000
0000
0000
3003
0000
,
0000
0000
0110
0000
0000
1000
0001
1000
0001
0000
0000
0000
0110
0000
0000
0000
,
0000
0100
0000
0010
0100
0000
0000
1001
0000
0000
0010
0000
0010
0000
0001
1000
,
0001
1000
0000
0000
0110
0000
0000
1000
0001
0010
0100
0000
0000
0000
1001
0000
,
0000
0000
1010
0000
0020
0030
0000
0000
0100
0010
0100
0010
0002
0003
0000
0000
,
1001
0000
0000
0000
0110
0000
0000
1000
0001
1000
0001
0000
0010
0000
0010
0000
,
0110
0000
0000
1000
0001
1000
0001
0000
0000
0000
0000
0010
0100
0010
0100
0000
,
0000
0000
0110
0000
0000
0000
2000
0000
3001
0000
0001
0000
0010
0100
0010
0000
,
0000
1001
0000
0000
0010
0100
0010
0000
1001
0000
0000
2020
3030
0000
0220
0330
,
0000
0000
1001
0000
0000
0010
0100
0010
0100
0000
0000
0000
0000
0000
1001
0000
,
0000
0000
0000
1000
0000
1000
0000
0000
1001
0000
0000
0000
0010
0100
0010
0000
,
0000
0000
0000
0001
0000
0000
0000
0000
0000
1000
0000
0000
0000
0000
1000
0000
0000
0000
1000
0000
0000
0000
0000
0000
0001
0000
0000
0010
0000
0000
1000
0000
0000
0000
0000
0000
0110
0000
0000
0000
0000
0000
0000
0000
0000
1000
0000
0000
,
0001
1000
0000
0000
0000
0000
0100
0010
0100
0000
0110
0000
1000
0000
0000
0000
,
1100
0100
0110
0010
,
0011
0001
1001
1000
,
1100
0100
0110
0010
,
0011
1001
1000
1100
,
0100
0110
0010
0011
,
0001
1001
1000
0110
,
2002
0000
0000
0000
3003
0000
0000
0000
0010
0000
0000
0000
0000
0000
0000
0010
0000
0000
0000
0000
0000
0000
0000
0000
0100
0000
0000
0000
0000
0000
0010
0000
0000
0000
0000
0000
0110
0000
0000
0000
0000
0000
0000
0000
0000
0000
0000
0000
,
0001
0010
1000
0100
0000
0110
0000
0011
,
0000
1000
1000
0000
0010
0010
0110
0000
,
0001
0000
0000
1000
0000
0000
0010
0000
0000
0010
0000
0000
0100
0000
0000
0100
0000
0000
0000
0000
0011
0000
0000
0000
,
1000
0000
0110
0000
0001
0000
1001
0100
,
0000
0000
0000
0010
0000
0000
0010
0000
0000
0110
0000
0000
0000
0000
1001
0000
0000
0000
0000
0000
0010
0000
0000
0000
,
1100
1100
0011
0000
0010
0000
0110
0000
,
1000
1000
0001
0000
0010
0100
0001
0001
,
1000
1001
0010
0000
0100
0100
0010
0000
,
0001
0000
0010
0100
0100
0000
1000
1001
,
0000
0010
0100
0000
0001
0000
1001
0000
,
0100
0010
0000
1000
0001
0010
1001
0000
,
0000
0100
0010
1000
0000
1000
0001
0010
,
0100
0000
0010
1000
1000
0001
0010
0100
,
0000
0010
1000
1000
0001
0010
0000
0100
,
0010
1000
0001
0010
0100
0100
0000
1001
,
0000
0000
0010
1000
0000
1000
0001
0010
,
0000
0001
1000
0000
1000
0100
0010
0000
,
0100
0001
0010
0010
1000
0000
1000
0001
,
0010
0000
0100
0100
0010
0001
1000
1000
,
0010
0010
0001
0000
0001
1000
0000
1000
,
0010
0100
0001
1000
0010
0100
0020
0000
,
1030
0000
1000
0001
0000
0001
0000
1000
,
0000
1000
0001
0001
0010
0100
0100
1000
,
1000
0001
0010
0100
0000
1100
0000
0110
,
0000
0001
0000
0001
0100
0000
1000
0010
,
0000
0010
0001
0100
1100
0000
0001
0001
,
0010
0010
1000
0200
0000
0300
0000
0110
,
0001
0000
0001
1000
0100
1000
0010
0000
,
0001
0000
0100
0010
0000
0001
1000
0100
,
0000
1000
0001
0000
0010
0100
0000
0100
,
1000
0000
0001
0010
0001
0000
0100
1000
,
1000
0010
0010
0000
0001
0100
1000
0000
,
1000
1000
0001
0010
0100
0000
0010
1001
,
0000
1000
0001
0000
0010
0100
0000
0110
,
0001
1000
0000
0001
0010
0100
0100
1000
,
0000
0010
0001
0100
1000
0000
1000
0000
,
0100
0000
0000
0010
0010
0010
0010
0000
0110
0000
0000
0000
0001
0000
1000
0000
,
0000
0000
0011
1000
0000
0100
1000
0000
,
1100
0001
0000
0010
0100
0000
0200
0000
,
0000
0000
0310
0000
0000
0011
0000
1000
,
1000
0010
0000
0100
0020
0030
0000
0011
,
0000
1000
0000
1000
0100
0010
0000
0000
,
0010
0000
0010
0000
0001
0100
1000
0000
,
1000
0001
0000
0100
0000
0010
0010
1000
,
1000
0000
1001
0000
0011
0100
0010
0000
,
0011
0000
1010
0000
0100
2000
0000
3001
,
0000
0110
0000
0001
0000
1010
0010
0000
,
0000
1100
0000
0110
0000
0011
0000
1001
,
0000
2200
3300
0010
0000
0110
0000
0001
,
1000
2000
0100
0000
0001
3000
0110
0000
,
0000
0120
0000
1030
0000
0001
0200
0010
,
0300
0000
1002
0000
0003
0010
0100
0100
,
1000
1000
0220
0330
0000
0020
0000
0130
,
0002
0000
0003
1000
0000
1100
0010
0000
,
0011
0000
2002
0000
0000
3003
0110
0000
,
1000
0010
0000
0010
0001
1000
0100
1000
,
0000
0001
0010
0100
0000
0100
1100
0010
,
0000
0001
0100
1010
0010
0001
0100
0000
,
0100
1000
1010
0000
0010
0001
0100
1000
,
0100
0100
1000
0010
0001
0100
0100
1000
,
1000
0110
0010
0010
,
0110
0000
0000
1000
0000
1000
0000
0010
0000
0010
0100
0000
,
0001
0000
1000
0000
0000
0000
1000
0000
0001
0000
0000
0000
0010
0000
0000
0000
0010
0000
0000
0000
0000
1000
0000
0000
,
0000
1001
0000
0010
1000
0000
0100
0100
,
0000
0000
0000
0110
0000
0000
0000
0000
1000
0000
0001
0000
0000
0000
1000
0000
0000
0000
0010
0000
0000
0000
0010
0000
,
0000
0000
0000
0100
0000
0000
1000
0000
0000
0001
0000
0000
0000
0000
0001
0000
0000
0000
0100
0000
0000
0000
0010
0000
,
0000
1000
0000
1000
0000
0001
0000
0001
0000
0010
0100
0000
,
0100
1000
0000
1000
0001
0010
0100
0000
,
0100
1010
0110
0001
,
1001
0000
0000
0010
0110
0000
0000
1000
,
1000
0011
0000
1000
1100
0000
0110
0000
,
0001
0001
0000
1000
0000
1100
0010
0000
,
0011
0000
1001
0000
0000
0100
0010
0000
,
0001
0010
0000
0000
1000
0100
0000
0110
,
0000
0001
2000
3000
0010
0000
0100
0001
,
0000
0001
0000
0000
0010
0000
0100
0000
,
1000
0001
0000
0001
0010
0000
0110
0000
,
1100
0000
2002
3003
0000
0010
0000
1000
,
0000
0100
0000
0010
0000
0001
1000
0000
,
1000
0110
0001
0001
,
0010
0000
0100
1000
0000
1001
0000
0010
,
0010
0000
0110
0000
0001
1001
0000
0100
,
0000
0010
0001
0000
1000
0000
1100
0000
,
0010
0100
0010
0000
0011
0000
1001
0000
,
0100
0000
0000
1100
0000
0011
0000
0000
,
0110
0000
0010
0010
,
1000
0010
0001
0100
0100
0000
1000
0010
,
0010
0001
0100
1000
0000
1000
0001
0000
,
0011
0110
1100
1000
,
0010
0100
0010
0000
0001
0000
0100
0000
,
0200
0300
1000
0001
1000
0000
0010
0000
,
0100
0000
0010
0001
1000
0100
1000
0000
,
0001
0011
0010
0110
,
1100
0000
2002
3003
2200
3300
0220
0330
,
0110
0000
1000
1000
1001
0000
0001
0001
,
1001
0000
0010
0010
0100
0010
0100
1000
,
0001
0010
0001
0100
0100
0000
0001
1000
,
0001
1000
0010
0001
0100
1000
0100
1000
,
0001
0010
0011
1000
1100
0010
0100
0000
,
1001
0000
0010
0010
0000
1001
0010
0001
,
1000
0100
0100
0010
0001
0100
1000
0010
,
0010
0001
0100
0000
0110
1000
0000
0001
,
0010
0000
0101
0000
1010
0000
0100
0000
1000
0000
0000
0000
0000
1000
1000
2002
,
0000
0000
0000
3003
,
0220
0000
0000
0330
2000
0000
3010
0000
,
2002
0000
0000
3003
0020
0000
0000
0030
,
0200
0000
0000
0000
0300
0000
1100
0000
0100
0000
0000
0000
2000
0000
0010
0010
,
3000
0001
0010
1000
,
0100
0010
0000
0010
0001
0000
1000
0100
,
0000
1000
0010
0100
0000
0001
0000
0000
,
1000
0001
1000
0100
0000
0010
0000
0100
,
0001
1000
0000
1000
0020
0000
0000
0000
,
0000
0000
0030
0100
,
0010
0000
0000
0000
0000
0000
0010
0100
,
0010
0100
0010
0100
0010
0000
0000
0001
,
0010
0100
1000
0000
1001
0000
0000
0010
,
0100
0000
0000
1000
0100
0010
0001
0000
,
0110
0001
0010
0100
,
1000
0000
0001
0000
0100
0010
0000
0000
,
0010
0000
0100
0000
1000
0001
0000
0000
,
0001
0000
0010
0000
0100
1000
0000
0000
,
1000
0000
0000
0100
0010
0001
1000
0000
,
0010
0100
0000
0100
0000
0000
0001
0000
,
1000
0100
0100
0010
,
0100
1000
0001
0000
1000
0010
0100
0000
,
1000
0100
0001
0000
0011
0000
1000
0000
,
0100
0010
0000
0110
0000
0001
0000
1000
,
0000
0010
0100
0000
0000
0100
0000
0010
,
0001
0000
0001
1000
0000
1000
0000
1000
,
0000
0000
0000
0100
0000
0010
1000
0100
,
0000
0010
1000
0100
0010
0001
0010
0100
,
1000
0001
1000
2002
,
3003
0000
0000
0010
0000
0100
0000
0100
,
0000
0010
0000
0000
0220
0000
0330
0000
,
0000
0010
0000
0000
0010
1000
0000
0000
,
1000
0001
0000
0010
0000
0100
1000
0000
,
0000
1000
0001
0000
0000
0001
0000
0000
,
1000
1000
1000
1000
0000
0000
0000
0100
,
0100
0000
0110
0000
0000
0100
0010
1000
,
1001
0000
0010
0010
0100
0000
0001
0001
,
0010
0100
1001
0000
0000
0010
0010
0000
,
0001
0010
0001
1000
1000
0000
0110
0000
,
0001
0000
0001
0000
0100
0000
0000
0000
0100
0000
0000
0000
1000
0001
1000
0001
,
1000
0020
0030
0100
0100
0010
0001
0000
,
0001
0000
0010
0000
0200
0000
0000
0300
0000
0000
0010
0000
1000
0000
0100
0000
,
0000
0110
0000
0011
1000
0000
0020
0030
,
0000
0100
0100
0000
1000
0010
0001
0000
,
1001
0000
0100
0010
0000
0011
0000
0001
,
0100
0000
0000
1100
0000
0000
1000
0000
0000
0001
0000
0011
,
0000
0010
0000
0110
0000
0100
0000
1100
0000
1000
0000
1001
,
0000
1001
0000
1001
0000
0011
0000
0110
0000
0100
0000
0100
,
0000
1100
0000
1000
0000
1000
0001
0000
0001
0010
0000
0010
,
0100
0000
0010
0100
0000
0100
0000
1100
0000
0001
0000
0001
,
0010
0000
0010
0100
0000
0100
1000
0000
1000
0001
0000
0001
,
0010
0000
0110
0000
1100
0000
0110
0000
0000
0001
0000
0001
,
0010
0000
0010
0100
0000
0100
1000
0000
1000
0010
0000
0010
,
0100
0100
2002
0000
0000
0000
3003
0000
,
0010
0110
1000
1001
,
0001
0000
0011
0000
0010
0000
0100
0010
,
0100
1000
0000
1100
0000
0110
0000
0001
,
0010
0000
0010
1000
0100
1000
0001
0000
,
0001
0100
0000
0100
0010
0000
0010
1000
,
0100
1000
0001
0000
0001
0010
0100
0000
,
0100
1000
0000
1000
0010
0000
2002
3003
,
0010
0010
0100
0000
1001
0000
0010
0010
,
0100
0010
1000
0000
1001
0000
0010
0010
,
0100
0001
0010
1000
1100
0010
0010
1000
,
0100
0000
0100
0000
0010
0001
1001
0000
,
0010
1000
1000
0010
0001
0000
0100
0100
,
0010
0001
1001
0010
0010
0100
0000
0010
,
0001
0000
1000
0000
1000
0000
0000
0000
0100
0000
0010
0001
1000
0000
1000
0010
,
0000
0001
0100
0010
0000
0010
1000
0000
1000
0000
0001
0000
0000
0000
1100
0000
,
0110
0010
0011
0000
1000
0100
0010
0100
,
0000
1000
0010
0000
0001
0100
1000
0000
,
1001
0000
0001
0010
0000
0100
0000
1000
,
0100
0000
0010
0010
1000
1100
0000
0110
,
0000
0001
1000
0000
0100
0000
0010
0001
,
0000
0100
0010
0001
0000
0110
0000
1100
,
0000
0000
0000
0000
0000
0000
1000
0000
0000
1001
0000
0000
0000
0000
0010
0000
0000
0000
0100
0000
0000
0110
0000
0000
,
0000
0001
1000
0000
1000
0000
0010
0000
,
0001
0000
0011
0000
0010
0000
0110
1000
,
0001
1000
0001
0000
1001
0000
0100
0010
,
1000
0000
1000
0001
0000
0000
0100
0010
,
0100
0010
0100
0010
0000
0000
1000
0000
,
1100
0000
0010
0000
0011
0000
1000
0001
,
1000
0001
0010
0000
0110
0000
1000
0000
,
0010
0000
0110
0000
1001
0000
1000
0001
,
0010
0100
0010
0100
0010
0000
1001
0000
,
0001
0010
0100
1000
1000
0100
0010
0001
,
1000
0001
1000
0001
1000
1000
0100
0010
,
0001
0010
0100
1000
0100
0010
0100
0010
,
0010
0010
0001
1001
,
1100
0010
0010
0000
1000
0010
0100
0001
,
0001
1000
1000
0010
0001
0000
0110
0000
,
1000
0000
1100
0000
0001
0100
1000
0000
,
0010
0100
0010
0001
1000
0000
1000
0010
,
0100
0100
0010
0010
0001
0100
0000
1000
,
0010
0100
0010
0001
1000
0001
0100
1000
,
0010
0100
0010
0001
1000
0001
1000
0100
,
1000
0010
0100
0010
0001
1000
0010
0100
,
0000
0010
0001
1000
0100
1000
0001
0000
,
0001
0100
0010
0100
1000
0000
1000
0000
,
2002
0000
0000
0000
0000
0000
0000
0000
0000
0000
0000
0000
0000
0000
0000
0000
3003
0000
0000
0000
0000
1001
0000
0000
,
0000
1000
0001
0010
,
0100
0010
1000
0100
,
0001
0010
0100
0010
,
1000
0001
0001
0010
,
1000
1000
0100
0010
,
0100
0010
0010
1000
,
0001
0100
0010
1000
,
0001
0100
0010
0001
,
1000
0010
0001
0100
,
1000
0010
0001
0100
,
0100
1000
0001
0010
,
0100
0100
0001
1000
,
0001
1000
0001
1000
,
0001
0010
0100
1001
,
0000
0000
0100
0010
0000
0000
0010
0000
,
0100
0001
0000
1000
0010
0000
0100
0000
,
0010
0000
0100
0001
1000
0000
0001
0010
,
0000
0100
0010
0000
1000
0001
0000
0100
,
0000
0010
1000
0000
1000
0001
0000
0001
,
0000
0100
0010
0000
1000
0100
1000
0000
,
0010
0100
0001
0001
,
0010
0000
0001
0100
0000
0100
1000
0000
,
1000
0010
0010
0100
,
0010
0000
0001
1000
0000
0000
1000
0000
,
0000
0010
0100
0000
0000
0010
0000
0001
,
0000
1000
0000
0010
0000
0100
0000
0000
,
0010
0000
0000
0001
0000
0100
0000
0010
,
1000
0000
1000
0001
0000
0001
0000
0010
,
0100
0000
0001
1000
0000
0010
0100
0000
,
0010
0001
0000
0100
1000
0000
0001
0001
,
0001
0001
0000
1000
0000
0010
0100
0000
,
0010
0000
0001
0000
1000
0100
0000
0000
,
0110
0000
0001
0000
0000
0010
0000
0100
,
0001
0000
0001
1000
0000
1000
0000
0010
,
0100
0000
0010
0001
1000
0000
1000
0001
,
0000
0010
0100
0000
0000
0100
0000
0000
,
1100
0000
1010
0000
,
0110
0000
0101
0000
,
1001
0000
0000
0010
0100
0010
1000
0000
,
1000
0001
0000
0010
0000
0000
0010
0100
,
0000
0100
0000
0010
1000
0000
0001
0000
,
0100
0000
0100
0010
0000
0010
0000
0000
,
0110
0000
0001
0000
0100
0001
0000
1000
,
0010
0001
1100
0000
,
0010
1000
0000
0001
0100
0000
0010
0001
,
1000
0000
0010
0100
0000
0000
1000
0001
,
0000
1000
0001
0000
1000
0001
0000
1000
,
0000
0001
0000
1000
0001
0000
1000
0000
,
0001
0000
0010
0000
0100
0010
0000
0100
,
0000
0010
0000
0100
0000
0010
0000
0000
,
2002
3003
0020
0100
0100
0100
0130
0000
,
2000
0001
0000
0001
0000
0001
0000
3000
,
0020
0100
0000
0100
,
0030
0100
2000
0001
,
0000
0001
3020
0000
,
0000
0000
0000
0130
,
0000
0000
0000
0000
,
1000
1001
0110
0110
,
1010
0000
0001
0010
0100
0000
1000
0000
,
1001
0000
0010
0100
0010
0000
0001
0000
,
1001
0000
2002
3003
0000
0000
0000
0000
,
0010
0000
0100
0000
0010
1000
0001
0000
,
0100
0010
0000
0010
0001
1000
0000
1000
,
0000
0000
0100
0010
0000
0100
0001
1000
,
0000
0100
0000
0001
1000
0010
0100
0000
,
0110
0000
0000
0010
0001
0000
0100
1000
,
0000
0001
0010
0000
0100
0000
0010
0001
,
0000
0100
1000
0000
0001
1000
0000
0010
,
0001
0100
0000
0100
1000
0000
0010
1001
,
0000
0000
0100
0010
0000
0100
0001
0000
,
1000
0001
0000
1000
0000
0010
0000
0001
,
0100
0000
0100
0010
1000
0000
1000
0001
,
0000
0010
0100
0000
0000
0100
0000
0000
,
1001
0000
0000
0010
0000
1000
0000
0000
,
0110
0000
0000
0001
0000
0100
0000
0000
,
1010
0000
0000
1000
0010
0001
0100
0010
,
0001
1000
0100
1000
0001
0100
0010
0100
,
1000
0000
0010
0100
,
0010
0100
0000
0000
,
1001
0000
0000
0000
,
1010
0000
0000
0001
,
0010
0001
1000
0010
,
0100
0010
0001
0100
,
1000
0000
0011
0000
,
0000
1100
0000
0000
,
0010
0100
0010
1000
,
0000
0001
0100
0001
,
0000
0110
0000
0000
,
0000
1001
0000
0001
,
0010
0100
0000
0010
,
0001
0100
1000
0000
,
0110
0000
0000
0000
,
1001
0000
0010
0100
,
0010
1000
0000
0010
,
0000
0100
0001
0000
,
0000
1001
0000
0000
,
0000
1010
0000
1000
,
1000
0001
0100
0010
,
0001
1000
1000
0000
,
0110
0000
0000
0000
,
1001
0000
0010
0000
,
0100
1000
0001
0010
,
0100
0000
0010
0001
,
1000
0000
0110
0000
,
0000
1001
0000
0010
,
0100
0010
1000
1000
,
0001
0001
0100
0010
,
1000
0100
0001
2002
,
0000
0000
0000
0000
,
0000
0000
0000
0000
,
3000
0000
1000
1000
,
0000
1000
1000
1000
0000
1000
0000
0000
,
1000
0000
0000
1000
0000
0000
1000
0000
,
1000
0000
0000
1000
,
0000
0000
1000
0000
0000
0000
1000
1000
,
1000
0000
0000
1003
,
0000
0000
0010
1000
,
0000
1000
0000
0001
,
0000
0001
0000
0100
,
0000
0100
0000
0000
,
0220
0330
0000
0000
0000
0000
0000
0000
;

//---------------dance-single - ----------------
#NOTEDATA:;
#CHARTNAME:;
#STEPSTYPE:dance-single;
#DESCRIPTION:;
#CHARTSTYLE:;
#DIFFICULTY:Beginner;
#METER:1;
#RADARVALUES:0.000000,0.000000,0.000000,0.000000,0.000000,0.000000,0.000000,0.000000,0.000000,0.000000,0.000000,0.000000,0.000000,0.000000,0.000000,0.000000,0.000000,0.000000,0.000000,0.000000,0.000000,0.000000,0.000000,0.000000,0.000000,0.000000,0.000000,0.000000;
#CREDIT:;
#NOTES:
// measure 0
0000
0000
0000
0000
;
