#VERSION:0.83;
#TITLE:Dance Dance Revolution 2013;
#SUBTITLE:;
#ARTIST:Various Artists;
#TITLETRANSLIT:DDR 2013;
#SUBTITLETRANSLIT:;
#ARTISTTRANSLIT:;
#GENRE:;
#ORIGIN:;
#CREDIT:;
#BANNER:DDR 2013.png;
#BACKGROUND:DDR 2013-bg.png;
#PREVIEWVID:;
#JACKET:DDR 2013-jacket.png;
#CDIMAGE:;
#DISCIMAGE:;
#LYRICSPATH:;
#CDTITLE:cdtitle.png;
#MUSIC:DDR 2013.mp3;
#OFFSET:0.000000;
#SAMPLESTART:100.000000;
#SAMPLELENGTH:12.000000;
#SELECTABLE:YES;
#BPMS:0.000=150.000,
109.000=135.000,
162.000=160.000,
238.000=140.000,
274.000=132.000,
314.000=149.000,
364.000=188.000,
446.000=145.000,
467.000=180.000,
509.000=165.000,
584.000=155.000,
666.000=175.000,
734.000=165.000,
809.000=160.000,
856.000=80.000,
858.000=160.000,
889.000=80.000,
891.000=202.000,
952.000=106.000,
954.000=200.000,
968.000=424.000,
1009.000=200.000,
1010.000=210.000,
1011.000=220.000,
1017.000=424.000,
1222.000=72.000;
#STOPS:;
#DELAYS:;
#WARPS:;
#TIMESIGNATURES:0.000=4=4;
#TICKCOUNTS:0.000=4;
#COMBOS:0.000=1;
#SPEEDS:0.000=1.000=0.000=0;
#SCROLLS:0.000=1.000;
#FAKES:;
#LABELS:0.000=Song Start;
#BGCHANGES:;
#KEYSOUNDS:;
#ATTACKS:
;

//---------------dance-single - ----------------
#NOTEDATA:;
#CHARTNAME:;
#STEPSTYPE:dance-single;
#DESCRIPTION:;
#CHARTSTYLE:;
#DIFFICULTY:Hard;
#METER:13;
#RADARVALUES:0.625537,0.752179,0.691126,0.285730,0.241772,1793.000000,1510.000000,283.000000,117.000000,0.000000,0.000000,0.000000,0.000000,0.000000,0.625537,0.752179,0.691126,0.285730,0.241772,1793.000000,1510.000000,283.000000,117.000000,0.000000,0.000000,0.000000,0.000000,0.000000;
#CREDIT:;
#NOTES:
0000
0000
0000
0000
,
0000
0000
0000
0000
,
0001
0000
1000
0000
0010
0000
0010
1000
,
0001
0000
0100
0000
1000
1000
1000
0000
,
0100
0110
0010
0001
,
0002
0000
1003
1000
0100
0000
0010
0000
,
0110
0000
0100
0000
0001
0010
0001
0000
,
1000
0000
1000
0000
0001
0001
0001
0010
,
0100
0000
0100
1000
0000
1000
0010
0000
,
0110
0001
0011
0110
,
1001
0010
0100
0110
,
1000
0000
1001
0000
0100
0010
0110
0000
,
0001
0010
1000
0000
0001
1000
0001
0000
,
0100
0010
0100
0000
1000
0000
1001
0000
,
0100
0000
0110
0000
0010
0100
1010
0000
,
0001
0100
1001
0000
0010
0010
1000
1000
,
1001
0000
0010
0100
0000
0100
0010
0000
,
1000
0000
0010
0100
0000
0100
0001
0000
,
1001
0000
0011
0000
0110
0000
1100
1000
,
1002
0000
0000
0000
0000
0003
0000
0000
,
0010
0010
0100
0000
0100
0010
1000
0000
,
1000
0001
0010
0000
0210
0300
0000
0000
,
0100
0100
0010
0010
0001
1000
0100
0010
,
0000
0010
0100
0100
1000
0000
1001
0000
,
0110
0000
0010
0000
0010
0100
0000
0100
,
0010
0001
0000
0001
0010
1000
0001
1000
,
0100
0100
0001
0010
0010
0000
0120
0030
,
0000
0100
0100
0100
0000
0020
0130
1000
,
0000
1000
0001
0001
0010
0100
0000
0100
,
0010
0000
1000
0001
1000
0010
1000
0001
,
0000
0100
0000
0110
0000
1000
0000
1010
,
0000
0000
0110
0000
0001
0000
0001
1000
,
0100
0001
0010
0100
0001
0000
0001
1100
,
0000
0100
0000
0110
0000
0001
0000
1001
,
0010
0000
0100
0110
0000
0001
1000
1001
,
0000
0010
0000
0010
0100
0000
0100
0001
,
0000
0001
1000
0100
1000
0010
0001
0010
,
0100
0100
0001
0100
,
0020
0000
0000
0000
,
0000
0000
0000
0030
,
0000
0200
0300
0000
0000
0000
0020
0000
,
0000
0030
1100
0110
,
0011
0000
0001
0000
0001
1000
0000
1001
,
0000
0010
0010
0001
0000
0010
0100
0000
,
0100
1000
0000
1000
0011
0000
0110
0000
,
2000
3000
0000
0000
0010
0000
0110
0000
,
0100
0000
0101
0000
0001
0000
0021
0030
,
0000
0100
0100
0000
0020
0030
0100
1000
,
0000
1000
0000
0100
0001
0010
0000
0010
,
0200
0300
0011
0110
,
1100
1000
1000
1001
,
1001
0000
0010
0100
0010
0000
0001
0001
,
0000
0100
0001
0000
0011
0000
0110
0000
,
2200
3300
0000
0000
0011
0000
0110
0000
,
1000
1000
0001
0000
0010
0000
0110
0000
,
0110
0000
2000
0000
3001
0000
0010
0010
,
0000
1000
0001
0100
0010
0100
1000
0001
,
1000
0000
0010
0000
0000
0000
0010
0000
2002
0000
3003
0000
0000
0010
0100
0000
,
0100
0001
0000
0010
0100
0000
1001
0000
,
1000
0100
0100
0000
0020
0000
0000
0000
,
0000
0000
0000
0130
0000
0000
0001
0001
,
1000
0100
1000
0001
0000
0001
0100
0000
,
0100
0010
0010
1000
0100
1000
0001
0000
,
0001
0010
0100
0010
0010
1000
0000
0001
,
0110
0100
1000
1000
1001
0000
0010
0000
,
0010
0020
0030
0100
0000
0100
0001
0010
,
0001
1000
0100
1000
0010
0010
1000
0100
,
0110
0000
0001
1000
0011
0000
1000
0000
,
1001
0000
0100
0000
0110
0000
0000
0001
,
0001
0110
0000
0000
1000
1000
1000
0100
,
0100
0000
0000
0110
0000
0000
0000
0000
0000
0000
0002
0000
0000
0000
0003
0000
0000
0000
0110
0000
0000
0000
0000
0000
,
1000
0000
0000
1000
0000
0000
0001
0000
0010
0001
0000
0000
,
0100
0000
0000
0100
0000
0000
0110
0000
0000
0000
0011
0000
0000
0000
0000
2000
0000
0000
3000
0000
0000
0000
0000
0000
,
0100
0100
0110
0000
0000
0000
0011
0000
,
0010
0000
0110
0000
0110
0000
1000
1000
,
0010
0010
0110
0000
0001
1000
0001
0001
,
0010
0020
0030
0020
0030
0000
0110
0000
,
1000
1000
0000
0000
0010
0001
0100
0000
,
0110
0000
0110
2020
3030
0000
0000
0000
,
0001
0011
0010
0110
,
0100
0000
1100
0000
0001
0010
1000
0010
,
0100
0000
0100
1000
0010
1000
1000
0000
,
1100
0000
0110
0000
0011
0100
0100
0000
,
0110
0001
0001
0000
1001
0000
0100
0010
,
0100
0001
0000
0011
0000
1000
1000
0000
,
1001
0100
0100
0000
0110
0000
1010
0000
,
1100
0011
0020
0130
,
2000
0000
0000
0000
3001
0000
0001
0000
0010
0100
0010
0000
0100
0000
0010
0000
,
1000
0100
1000
0000
0100
0000
0001
1000
0001
0000
0010
0000
0010
0000
0000
0000
,
1100
0110
0011
1010
,
1100
0000
0000
0000
0010
0100
0010
0000
0001
0000
0001
0000
0001
0000
0000
0010
,
1001
1100
0110
0001
,
0001
0010
0000
0010
0100
0010
0100
0000
,
0000
1001
0000
1100
0000
0010
0010
0000
,
0110
0000
1000
0100
0010
0010
0001
1000
,
0110
0100
0010
0001
1000
0100
0100
1000
,
0001
0010
0100
0000
0100
1000
1000
0000
,
0110
0000
1100
0000
2020
3030
0000
0000
,
0110
0001
0100
0110
,
0010
2020
3000
0000
,
0100
0130
0002
0000
0000
0000
1000
1003
,
0000
0100
0010
0100
0000
1000
1000
0000
,
0001
0001
0001
0000
1000
0000
0010
0000
,
0110
1010
1010
0001
,
0011
0100
0000
0110
0000
1000
0000
1001
,
0000
0010
0000
0110
0000
0001
0000
1001
,
0000
0010
0000
0110
0000
2000
3000
0001
,
0001
0001
0010
0000
0000
0000
1010
0000
,
1100
0000
0100
0000
0110
0000
0001
0001
,
0010
0010
0100
0000
0110
0000
0010
0000
,
1010
0000
1000
0000
1001
0000
0001
0001
,
1000
0000
1000
0000
0010
0100
0010
0100
0010
0000
0000
0000
0001
0000
0000
0000
,
1001
0000
0110
0000
1000
0010
1000
0010
,
0010
0100
1000
1000
0010
0001
0001
0100
,
1000
0000
0000
0000
0100
0000
0100
0000
0001
0010
0001
0000
1000
0100
1000
0100
,
0000
0010
0010
0000
0110
1000
1000
0001
,
0010
0000
0000
0001
0000
0000
0100
0000
0000
0000
0100
0000
0000
0000
0100
0000
0000
0000
1001
0000
0000
0000
0000
0000
,
0010
0000
0000
0010
0000
0000
0100
0000
0000
0000
0000
0000
0010
0000
1000
0000
0000
0000
0100
0000
0000
0000
0100
0000
,
0001
0000
0010
0000
0010
0100
0000
0100
0001
0010
0000
1000
,
0100
0000
0100
0010
0000
0010
0100
0000
0001
0000
0001
1000
,
0100
0000
0000
0000
1000
0000
0010
0000
0000
0100
0000
0000
0010
0000
0000
0000
0001
0000
0000
0000
0001
0000
0010
0000
,
0100
0000
0100
0000
0010
0000
0100
1000
0000
1000
0010
0000
,
0010
0100
0001
0000
0100
0010
0000
1000
0010
0100
0000
0100
,
0001
0000
0001
1000
0000
1000
0010
0000
0100
0000
0100
0010
,
0000
0000
0010
0000
0000
0000
1000
0000
0000
0001
0000
0000
1000
0000
0000
0000
0000
0000
0100
0000
0000
0000
0100
0000
,
0010
0000
0010
1000
0100
0000
1000
0001
0000
0001
0010
0000
,
0010
0100
0000
0010
1000
0000
1000
0010
0100
0001
1000
0000
,
1000
0010
0000
1001
0000
0000
0000
0000
0000
0001
0000
0000
,
0001
0000
1001
0110
,
0000
1001
0000
0000
1001
0000
0010
0000
0110
0000
0000
0100
,
0000
0000
0110
0000
0000
0110
0000
0000
1000
0000
0000
0000
,
1001
0010
1100
0010
,
0001
0010
0000
0010
0000
0001
1000
0010
0000
0010
0000
0000
,
0100
0001
1000
0000
0001
0000
0100
0000
0100
0010
0000
0010
,
1000
0001
0000
1000
0000
0000
0010
0100
0000
0001
0000
0010
,
0000
0000
0010
0100
0000
0000
0100
0000
0000
1001
0000
0000
,
1001
0000
0000
0010
0000
0000
0110
0000
0000
0001
0000
0001
,
0000
0000
0000
1000
0000
0000
0000
0000
1000
0000
0000
0000
1010
0000
0000
0000
0000
0000
0110
0000
0000
0000
0000
0000
,
0001
0000
0002
1003
0000
0000
1100
0000
,
0010
0010
0000
0110
1000
0000
1000
0100
,
0000
0000
0010
0100
0000
0000
0001
0000
0000
0000
0000
0000
0001
0000
0000
0010
0000
0000
0000
0000
0000
0100
0000
0000
,
0010
0000
0010
1000
1000
0000
0100
0010
,
0100
0001
0001
0000
0010
0000
0110
0000
,
1001
0000
0010
1000
0001
0100
0010
0010
,
1000
0100
1000
0000
0001
0020
0030
0000
,
0100
1000
0001
0001
0010
0100
0100
0200
,
0300
0000
0000
0000
1001
0000
0000
0000
0010
0000
0000
0000
0110
0000
0000
1000
,
0001
0000
0000
0100
0010
0000
0100
0010
0000
0100
0000
0000
0001
0000
0010
0000
,
0000
1000
1001
0000
0010
0000
1010
0000
,
0100
0100
0010
0001
0001
1000
0100
1000
,
0000
0010
0020
0030
0100
0000
0110
0000
,
1000
0000
1000
0000
0001
0000
0010
0000
0001
0000
0000
0000
0100
0010
0100
0000
,
0010
1000
0001
0000
0011
0000
1000
0000
,
0100
0000
1001
0000
0001
0110
0000
0010
,
0001
1001
0020
0000
0030
0000
0100
0000
,
0100
0010
0000
0010
0001
0001
1000
0100
,
1000
0000
1000
0010
0000
0110
0000
0011
,
0000
1000
0000
1000
0010
0000
0110
0000
,
0101
0000
0110
0000
1010
0000
0001
0010
,
0001
0100
1100
1000
,
1001
0000
0010
0010
0000
0001
0000
1000
,
0200
0000
0310
0000
0001
0001
0000
0020
,
0000
0030
0200
0000
0000
0300
0001
0001
,
1000
0000
0100
0000
0000
0000
0010
0100
0010
0100
0010
0000
0001
0000
0001
0000
,
1000
0000
1000
0000
0000
0010
0100
0010
0100
0000
0000
0000
1001
0000
0010
0000
,
0010
0100
0100
0000
0110
0000
0001
0011
,
0000
0110
0000
1100
0002
0000
0000
0000
,
0000
0003
0000
0000
0010
0000
0110
0000
,
1000
0000
0001
0000
1000
0001
0000
0000
0100
0000
0000
0000
0110
0000
0000
0000
,
0001
0001
0010
0100
0020
0000
0000
0100
,
0000
0100
0100
0000
0200
0000
0000
0000
,
0330
0000
0001
0011
,
1000
0100
1000
0000
0010
0000
1010
0000
,
0100
1000
0100
0000
0010
0000
0020
0000
0000
0000
0000
0000
0000
0000
0000
0000
,
0000
0000
0032
0000
,
2000
3003
0100
0110
,
0001
0001
1000
1000
1010
0000
0110
0000
,
0001
1000
0001
1000
0001
0000
0020
0000
0000
0000
2000
0000
0000
0000
0000
0000
,
0000
0000
0000
3000
0200
0000
0000
0000
,
0000
0330
0001
0011
,
1000
0100
1000
0100
0000
0000
0001
0000
0010
0000
0000
0000
0110
0000
0000
0000
,
0001
1000
0001
0000
0100
0000
0010
0000
0020
0000
0000
0000
0000
0000
0000
0000
,
0000
0000
0000
0100
0230
0000
0000
0000
,
0302
0000
0003
0000
,
0000
0000
0000
0010
0000
0000
0110
0000
0000
1000
0100
0000
,
0100
0010
0000
0001
0000
1001
0000
0100
0000
0010
0100
0000
,
0110
0000
0000
0000
0000
0000
0001
0000
0000
0000
1001
0000
0000
0000
0000
0100
0000
0000
0000
0000
0100
0000
1001
0000
,
0000
0000
0000
0000
0001
0000
0000
0000
0010
0000
0000
0000
0000
0000
0000
0000
0100
0000
0000
0000
0000
0000
0000
0000
1100
0000
0000
0000
0000
0000
0000
0000
0010
0000
0000
0000
0000
0000
0000
0010
0000
0000
0000
0000
0000
0000
0000
0000
,
1000
0000
0000
0000
0000
0000
0000
0000
0000
0000
0000
0000
1001
0000
0000
0000
0000
0000
0000
0000
0000
0011
0000
0000
0000
0000
0000
0000
0100
0000
0000
0000
0000
0000
0000
0000
0100
0000
0000
0000
0010
0000
0000
0000
0000
0000
0000
0000
,
1000
0000
0000
1000
0000
0001
0000
1001
0000
0100
0000
0010
,
0000
1000
0000
0110
0000
0000
0011
0000
1000
0000
1000
0100
,
0010
0000
0000
0000
0000
0000
0100
0000
0000
0000
0001
0000
0000
0000
0000
0000
0000
0000
0001
0000
0000
0000
1000
0000
0000
0000
0000
0000
0000
0000
1000
0000
0000
0000
0000
0000
0100
0000
0000
0010
0000
0000
0100
0000
0000
0010
0000
0000
,
0100
0000
0000
0000
0010
0000
0000
1010
0000
0000
1001
0000
0000
0000
0010
0000
,
0010
0000
0110
0000
1010
0000
1001
1001
,
0000
0110
0000
0010
0000
1000
0100
1000
,
0000
0001
0100
0000
0010
0010
1000
0200
,
0000
0000
0000
0300
0000
0000
0010
0000
0000
0000
0010
0000
0000
0000
0110
0000
0000
0000
0000
0000
0001
0000
0010
0000
,
0000
0000
0001
0000
1000
0000
0000
0000
0000
0000
1001
0000
0000
0000
0000
0010
0000
0000
0000
0000
0000
0110
0000
0000
,
0000
2000
0000
3001
0000
1010
0100
0000
,
0110
0000
0010
0001
1000
0001
0011
0100
,
1100
0000
0020
0130
0000
0102
0000
0013
,
0200
0000
0001
1300
0000
0020
1000
0000
,
0100
0000
0002
0030
0200
0000
0000
0300
,
0000
0003
0000
1000
0000
1001
0000
0010
,
0000
1010
0100
0000
0011
0000
0100
0100
,
0100
1000
0010
0001
0000
0001
0100
1000
,
0100
0000
0011
0011
1000
1000
0100
0220
,
0330
0000
0000
0000
1000
0000
0000
0000
1001
0000
0000
0010
0000
0100
0000
0010
,
0000
0000
1000
0000
1000
0001
0010
0000
0100
0000
0010
0000
0000
0001
0000
0000
,
0010
0000
0100
0000
0000
1010
0000
0000
0000
0010
0000
0000
0001
0100
0000
0000
,
0100
0000
0010
1000
0001
0000
0001
0100
0000
0100
0000
0010
0000
1001
0000
0000
,
1000
0000
0001
0000
0100
0010
0000
0000
0010
0000
1000
0000
0001
0000
0100
0000
,
0010
0000
0010
1000
0000
1000
0001
0000
0000
0001
0100
0000
0000
0010
0000
1100
,
0000
0000
1000
0001
0000
0000
0001
0000
0100
0010
0000
0100
1000
0000
0000
1000
,
0000
0010
0000
0100
0001
0000
0010
0010
0020
0000
0000
0000
0000
0030
0000
0000
,
0000
0001
0000
1000
0001
0000
0100
0000
0200
0000
0000
0000
0000
0300
0000
0000
,
0000
0001
0000
1000
0100
0000
0010
0000
0010
0000
0000
0020
0000
0000
0030
0000
,
0000
2000
0000
3000
0200
0000
0000
0020
0330
0000
0010
0000
0100
0000
1000
0000
,
0001
0010
0100
0000
0000
0100
0000
1000
0000
1000
0000
0002
0000
0003
0000
0000
,
0010
0100
0000
0010
0100
0000
0001
0000
1000
0001
0000
0000
0100
0000
1000
0010
,
0000
0100
0010
0000
0020
0000
0000
0030
0000
0110
0000
0000
0000
1000
0000
0000
,
1000
0001
0000
0010
0000
0100
0000
0000
0010
0000
1000
0001
0000
0001
0000
0000
,
0000
0220
0330
0000
2200
3300
0220
0330
0000
0000
0002
0000
0000
0000
0000
0000
,
0003
0000
0000
0000
1000
0000
0010
0100
,
1000
1000
0010
0100
0000
0100
0001
0010
,
0010
0100
0010
0100
1000
0000
1010
0000
,
0010
0100
0001
0010
0001
1000
1000
0000
,
0110
0000
0010
0000
1000
1001
0000
0020
,
0000
0130
0100
0100
0010
0000
0000
0000
,
1001
0000
0001
0010
0100
0010
1000
0001
,
0100
0000
0010
0100
0001
0000
1000
0000
0010
0000
0010
0000
0100
0000
0000
0000
,
2200
0000
3300
0220
0000
0330
0022
0000
,
0000
0000
0033
2002
0000
0000
3003
0000
,
0200
0000
0320
0000
,
0030
2000
0000
0000
3000
0002
0000
0000
,
0003
0220
0000
0330
2020
0000
3030
2200
,
0000
0000
3300
0220
0000
0330
0001
0001
,
0001
0020
0000
0000
0000
0000
0000
0030
,
0110
0000
0000
1010
0110
0000
0000
0000
,
1100
0000
1010
0000
0110
0000
0011
0200
,
0000
0000
0300
0000
0110
0000
0000
0000
0100
0001
1000
0010
0000
0001
0000
0000
,
1100
0000
1100
0000
0000
0000
0010
0100
0000
0010
1000
0000
0001
0000
0100
0000
,
0000
0010
0100
0110
,
1000
1001
0100
1001
,
0010
0100
0010
1000
,
1001
0001
0010
0100
,
0001
0000
2200
0000
3300
0220
0000
0000
,
0330
0022
0000
0000
0033
2000
3000
2000
,
3000
0010
0000
1010
,
0000
0010
0000
1001
,
0000
0001
0000
1001
,
0000
1001
0000
1010
,
0000
0220
0330
2002
,
3003
0000
0000
0000
0000
0000
0010
0000
0010
0000
0100
0001
0100
0000
1000
0010
,
1000
0000
1001
0000
0000
0010
0000
0000
,
0000
0110
0000
0000
1000
0000
0100
0000
,
1000
0000
0001
0010
0100
0000
0010
0000
,
1000
0000
0001
1000
0001
1000
0001
0000
,
1000
0000
0001
0000
0100
0000
1000
0001
,
1000
0001
0100
1001
,
0000
1000
0100
1010
,
0010
0100
0010
0100
,
0010
0100
0010
0100
,
0001
1000
0100
0010
,
0001
0000
1000
0000
0100
0010
0100
0000
,
0010
0000
0001
1000
0001
0000
1000
0000
,
0010
0100
0100
0001
,
0001
0001
1000
1000
,
1000
0000
0011
0010
,
0110
0000
1100
1001
,
0000
0110
0000
0001
,
0001
0010
1000
0100
,
0001
0010
0100
0100
,
0001
1000
1100
0000
,
0011
0000
0100
0000
,
1001
0000
0001
0000
,
1001
0000
0110
0000
,
0000
0000
1000
0100
0001
0000
1000
0010
,
0001
0000
0010
0000
0100
1000
0010
0000
,
0001
0000
1000
0000
0001
0000
0100
0010
,
0000
0000
0010
0000
0100
0001
1000
0010
,
0000
0010
0001
0000
0100
1000
0100
0000
,
0010
0000
1000
0001
0000
0001
1000
0000
,
0001
0000
0100
1000
0100
0000
0010
0000
,
1000
0000
0001
1000
0000
0100
0001
0000
,
1000
0000
0010
0000
0100
0010
0100
0000
,
0000
1001
0000
0100
,
0110
0000
0001
1000
,
0100
0000
0010
1000
0010
0000
0100
0000
,
0001
1000
0100
0010
,
0000
0001
0010
0000
0000
0100
0000
0100
,
0000
1010
2020
0000
,
3030
0000
0000
0000
0100
0000
0010
0100
,
0000
0001
0000
0001
0000
1000
0000
1000
,
0000
0001
1001
1000
,
0010
0000
0001
1000
0100
1000
0000
0000
,
0010
0000
0110
0000
0000
0010
0001
0000
,
0100
0001
1000
0000
0000
1000
0001
0000
,
0100
0000
0000
0000
1001
0000
0000
1001
,
0000
0000
1001
0000
0000
0110
0000
0000
,
0000
0010
0110
0000
,
1000
1001
0000
0010
,
0110
1000
1000
1001
,
0000
0000
0010
0100
0010
0000
0100
0010
,
0000
2002
0000
0000
,
0000
0000
0000
0000
0000
0000
0000
3003
,
0000
0000
0000
0000
0000
0000
0000
0000
0010
0000
0010
0000
1001
0000
0000
0100
,
0000
0000
0000
0100
0000
0000
0010
0000
0000
0000
0000
0000
0001
0000
0000
0000
0000
0000
0100
0000
0000
0010
0000
0000
0010
0000
0000
0000
0000
0000
0000
0000
0000
0110
0000
0000
0000
0000
0000
0000
1000
0000
0000
0000
0000
0000
0000
0000
,
1001
0000
0000
0000
;

//---------------dance-single - ----------------
#NOTEDATA:;
#CHARTNAME:;
#STEPSTYPE:dance-single;
#DESCRIPTION:;
#CHARTSTYLE:;
#DIFFICULTY:Medium;
#METER:1;
#RADARVALUES:0.000000,0.000000,0.000000,0.000000,0.000000,0.000000,0.000000,0.000000,0.000000,0.000000,0.000000,0.000000,0.000000,0.000000,0.000000,0.000000,0.000000,0.000000,0.000000,0.000000,0.000000,0.000000,0.000000,0.000000,0.000000,0.000000,0.000000,0.000000;
#CREDIT:;
#NOTES:
// measure 0
0000
0000
0000
0000
;
